<svg xmlns="http://www.w3.org/2000/svg"><defs><font id="fontawesome-free" horiz-adv-x="640.4"><font-face font-family="Font Awesome 5 Brands" units-per-em="512" ascent="448" descent="64" font-weight="400" font-style="Regular"/><glyph glyph-name="500" unicode="" horiz-adv-x="448" d="M103.3 103.7c-6.5 14.2-6.9 18.3 7.4 23.1 25.6 8 8-9.2 43.2-49.2h.3v93.9c1.2 50.2 44 92.2 97.7 92.2 53.9 0 97.7-43.5 97.7-96.8 0-63.4-60.8-113.2-128.5-93.3-10.5 4.2-2.1 31.7 8.5 28.6 53 0 89.4 10.1 89.4 64.4 0 61-77.1 89.6-116.9 44.6-23.5-26.4-17.6-42.1-17.6-157.6 50.7-31 118.3-22 160.4 20.1 24.8 24.8 38.5 58 38.5 93 0 35.2-13.8 68.2-38.8 93.3-24.8 24.8-57.8 38.5-93.3 38.5s-68.8-13.8-93.5-38.5c-.3-.3-16-16.5-21.2-23.9l-.5-.6c-3.3-4.7-6.3-9.1-20.1-6.1-6.9 1.7-14.3 5.8-14.3 11.8V428c0 5 3.9 10.5 10.5 10.5h241.3c8.3 0 8.3-11.6 8.3-15.1 0-3.9 0-15.1-8.3-15.1H130.3V275.4h.3c104.2 109.8 282.8 36 282.8-108.9 0-178.1-244.8-220.3-310.1-62.8zm63.3 260.8c-.5-4.2 4.6-24.5 14.6-20.6C306 391.4 384 303.5 390.6 303.5c4.8 0 22.8 15.3 14.3 22.8-93.2 89-234.5 57-238.3 38.2zM393 33.3C283-76.6 94-27.5 61 137.5c0 12.2-30.4 7.4-28.9-3.3 24-173.4 246-256.9 381.6-121.3 6.9 7.8-12.6 28.4-20.7 20.4zM213.6 141.4c0-4 4.3-7.3 5.5-8.5 3-3 6.1-4.4 8.5-4.4 3.8 0 2.6-.2 22.3 19.5 19.6-19.3 19.1-19.5 22.3-19.5 5.4 0 18.5 10.4 10.7 18.2L265.6 164l18.2 18.2c6.3 6.8-10.1 21.8-16.2 15.7L249.7 180c-18.6 18.8-18.4 19.5-21.5 19.5-5 0-18-11.7-12.4-17.3L234 164c-18.1-17.9-20.4-19.2-20.4-22.6z"/><glyph glyph-name="accessible-icon" unicode="" horiz-adv-x="448" d="M423.9 192.2L411 34.9c-3.3-40.7-63.9-35.1-60.6 4.9l10 122.5-41.1-2.3c10.1-20.7 15.8-43.9 15.8-68.5 0-41.2-16.1-78.7-42.3-106.5l-39.3 39.3c57.9 63.7 13.1 167.2-74 167.2-25.9 0-49.5-9.9-67.2-26L73 204.8c22 20.7 50.1 35.1 81.4 40.2l75.3 85.7-42.6 24.8-51.6-46c-30-26.8-70.6 18.5-40.5 45.4l68 60.7c9.8 8.8 24.1 10.2 35.5 3.6 0 0 139.3-80.9 139.5-81.1 16.2-10.1 20.7-36 6.1-52.6L285.7 219l106.1 5.9c18.5 1.1 33.6-14.4 32.1-32.7zm-64.9 154c28.1 0 50.9 22.8 50.9 50.9 0 28.1-22.8 50.9-50.9 50.9-28.1 0-50.9-22.8-50.9-50.9 0-28.1 22.8-50.9 50.9-50.9zM179.6-8.5C99-8.5 52.2 82.1 96.9 147.6l-39.7 39.7C36.4 161 24 127.7 24 91.6 24-39.1 174.7-109.8 275.4-30.9L235.7 8.8c-16-10.9-35.3-17.3-56.1-17.3z"/><glyph glyph-name="accusoft" unicode="" horiz-adv-x="640" d="M482.2 75.9C476.5 82.8 250 373 242.3 382.5c-13.7 17.2 0 16.8 19.2 16.9 9.7.1 106.3.6 116.5.6 24.1.1 28.7-.6 38.4-12.8 2.1-2.7 205.1-245.8 207.2-248.3 5.5-6.7 15.2-19.1 7.2-23.4-2.4-1.3-114.6-47.7-117.8-48.9-10.1-4-17.5-6.8-30.8 9.3m114.7 5.6s-115-50.4-117.5-51.6c-16-7.3-26.9 3.2-36.7 14.6l-57.1 74c-5.4.9-60.4 9.6-65.3 9.3-3.1-.2-9.6-.8-14.4-2.9-4.9-2.1-145.2-52.8-150.2-54.7-5.1-2-11.4-3.6-11.1-7.6.2-2.5 2-2.6 4.6-3.5 2.7-.8 300.9-67.6 308-69.1 15.6-3.3 38.5-10.5 53.6-1.7 2.1 1.2 123.8 76.4 125.8 77.8 5.4 4 4.3 6.8-1.7 8.2-2.3.3-24.6 4.7-38 7.2m-326 181.3s-12-1.6-25-15.1C236.9 238.4 3.8 8.6 2.5 6.8c-7-10 1.6-6.8 15.7-1.7.8 0 114.5 36.6 114.5 36.6.5.6-.1.1.6.6-.4 5.1-.8 26.2-1 27.7-.6 5.2 2.2 6.9 7 8.9l92.6 33.8c.6.8 88.5 81.7 90.2 83.3v1l-51.2 65.8"/><glyph glyph-name="adn" unicode="" horiz-adv-x="496" d="M248 280.5l64.9-98.8H183.1l64.9 98.8zM496 192C496 55.1 384.9-56 248-56S0 55.1 0 192s111.1 248 248 248 248-111.1 248-248zm-99.8-82.7L248 332.5 99.8 109.3h30.4l33.6 51.7h168.6l33.6-51.7h30.2z"/><glyph glyph-name="adversal" unicode="" horiz-adv-x="512" d="M482.1 416H28.7C5.8 416 0 410.1 0 387.1V-3.1C0-26.4 5.8-32 28.7-32h453.4c24.4 0 29.9 5.2 29.9 29.7v388.1c0 24.6-5.4 30.2-29.9 30.2zM178.4 227.7c-27.5 20.2-72.1 8.7-84.2-23.4-4.3-11.1-9.3-9.5-17.5-8.3-9.7 1.5-17.2 3.2-22.5 5.5-28.8 11.4 8.6 55.3 24.9 64.3 41.1 21.4 83.4 22.2 125.3 4.8 40.9-16.8 34.5-59.2 34.5-128.5 2.7-25.8-4.3-58.3 9.3-88.8 1.9-4.4.4-7.9-2.7-10.7-8.4-6.7-39.3-2.2-46.6 7.4-1.9 2.2-1.8 3.6-3.9 6.2-3.6 3.9-7.3 2.2-11.9-1-57.4-36.4-140.3-21.4-147 43.3-3.1 29.3 12.4 57.1 39.6 71 38.2 19.5 112.2 11.8 114 30.9 1.1 10.2-1.9 20.1-11.3 27.3zm286.7-222c0-15.1-11.1-9.9-17.8-9.9H52.4C45-4.2 34.2-9 34.6 6.5c.4 13.9 10.5 9.1 17.1 9.1 132.3.4 264.5.4 396.8 0 6.8 0 16.6 4.4 16.6-9.9zm3.8 340.5v-291c0-5.7-.7-13.9-8.1-13.9-12.4.4-27.5-7.1-36.1 5.6-5.8 8.7-7.8 4-12.4 1.2-53.4-29.7-128.1-7.1-144.4 85.2-6.1 33.4-.7 67.1 15.7 100 11.8 23.9 56.9 76.1 136.1 30.5v71c0 26.2-.1 26.2 26 26.2 3.1 0 6.6-.4 9.7 0 10.1.8 13.6-4.4 13.6-14.3-.1-.2-.1-.3-.1-.5zm-51.5-232.3c-19.5-47.6-72.9-43.3-90-5.2-15.1 33.3-15.5 68.2.4 101.5 16.3 34.1 59.7 35.7 81.5 4.8 20.6-28.8 14.9-84.6 8.1-101.1zM122.6 78.6c-7.5 1.3-33 3.3-33.7 27.8-.4 13.9 7.8 23 19.8 25.8 24.4 5.9 49.3 9.9 73.7 14.7 8.9 2 7.4-4.4 7.8-9.5 1.4-33-26.1-59.2-67.6-58.8z"/><glyph glyph-name="affiliatetheme" unicode="" horiz-adv-x="512" d="M159.7 210.6C108.4 139.7 43.1 99.8 14 121.4-15.2 143.1 2.8 218 54.2 288.9c51.3 70.9 116.6 110.8 145.7 89.2 29.1-21.6 11.1-96.6-40.2-167.5zm351.2 57.3C437.1 144.5 319 80.2 246.4 124.3c-25 15.2-41.3 41.2-49 73.8-33.6-64.8-92.8-113.8-164.1-133.2C83.1 5.6 157.4-32 240.3-32c150 0 271.6 123.1 271.6 274.9.1 8.5-.3 16.8-1 25z"/><glyph glyph-name="algolia" unicode="" horiz-adv-x="448" d="M229.3 265.4c-49.3 0-89.2-39.9-89.2-89.2 0-49.3 39.9-89.2 89.2-89.2s89.2 39.9 89.2 89.2c0 49.3-40 89.2-89.2 89.2zm62.7-56.6l-58.9-30.6c-1.8-.9-3.8.4-3.8 2.3V247c0 1.5 1.3 2.7 2.7 2.6 26.2-1 48.9-15.7 61.1-37.1.7-1.3.2-3-1.1-3.7zM389.1 416H58.9C26.4 416 0 389.6 0 357.1V27C0-5.6 26.4-32 58.9-32H389c32.6 0 58.9 26.4 58.9 58.9v330.2c.1 32.5-26.3 58.9-58.8 58.9zm-202.6-84.7c0 10.8 8.7 19.5 19.5 19.5h45.3c10.8 0 19.5-8.7 19.5-19.5v-15.4c0-1.8-1.7-3-3.3-2.5-12.3 3.4-25.1 5.1-38.1 5.1-13.5 0-26.7-1.8-39.4-5.5-1.7-.5-3.4.8-3.4 2.5v15.8zm-84.4-37l9.2 9.2c7.6 7.6 19.9 7.6 27.5 0l7.7-7.7c1.1-1.1 1-3-.3-4-6.2-4.5-12.1-9.4-17.6-14.9-5.4-5.4-10.4-11.3-14.8-17.4-1-1.3-2.9-1.5-4-.3l-7.7 7.7c-7.6 7.5-7.6 19.8 0 27.4zM229.3 49.5c-70 0-126.6 56.7-126.6 126.6s56.7 126.6 126.6 126.6c70 0 126.6-56.6 126.6-126.6 0-69.8-56.7-126.6-126.6-126.6z"/><glyph glyph-name="amazon-pay" unicode="" horiz-adv-x="611.2" d="M0 122.8c2.3 4.2 5.2 4.9 9.7 2.5 10.4-5.6 20.6-11.4 31.2-16.7C81.6 88.2 124.1 73 168.3 62.3c20.9-5 41.9-9 63.2-11.8 31.5-4.2 63.2-6 95-5.2 17.4.4 34.8 1.8 52.1 3.8 56.4 6.7 110.9 20.8 163.3 42.8 2.9 1.2 5.9 2 9.1 1.2 6.7-1.8 9-9 4.1-13.9-2.8-2.8-6.3-5.1-9.6-7.4-30.7-21.1-64.2-36.4-99.6-47.9-24.6-7.9-49.6-13.8-75.1-17.6-17.6-2.6-35.4-4.4-53.2-4.8-.8 0-1.7-.2-2.5-.3H294c-.8.1-1.7.3-2.5.3-3.6.2-7.2.3-10.7.4-16.9.7-33.7 2.6-50.4 5.3-27.4 4.5-54.2 11.4-80.4 20.9-54.1 19.6-102.6 48.6-145.6 87-1.8 1.6-3 3.8-4.4 5.7v2zM158 383c-1.4-.2-2.9-.4-4.3-.6-14-1.7-26.6-6.9-38-15.1-2.4-1.7-4.6-3.5-7.1-5.4-.2.5-.4 1-.4 1.4-.4 2.7-.8 5.5-1.3 8.2-.7 4.6-3 6.6-7.6 6.6H87.8c-6.9 0-8.2-1.3-8.2-8.2V160.6c0-1 0-2 .1-3 .2-3 2-4.9 4.9-5 7-.1 14.1-.1 21.1 0 2.9 0 4.7 2 5 5 .1 1 .1 2 .1 3V233c1.1-.9 1.7-1.4 2.2-1.9 17.9-14.9 38.5-19.8 61-15.4 20.4 4 34.6 16.5 43.8 34.9 7 13.9 9.9 28.7 10.3 44.1.5 17.1-1.2 33.9-8.1 49.8-8.5 19.6-22.6 32.5-43.9 36.9-3.2.7-6.5 1-9.8 1.5-2.8.1-5.5.1-8.3.1zm-47.4-41.9c0 1.5.4 2.4 1.7 3.3 13.7 9.5 28.8 14.5 45.6 13.2 14.9-1.1 27.1-8.4 33.5-25.9 3.9-10.7 4.9-21.8 4.9-33 0-10.4-.8-20.6-4-30.6-6.8-21.3-22.4-29.4-42.6-28.5-14 .6-26.2 6-37.4 13.9-1.2.9-1.7 1.7-1.7 3.3.1 14.1 0 28.1 0 42.2 0 14 .1 28 0 42.1zM316.3 383c-1-.1-2-.3-2.9-.4-9.8-.5-19.4-1.7-28.9-4.1-6.1-1.6-12-3.8-17.9-5.8-3.6-1.2-5.4-3.8-5.3-7.7.1-3.3-.1-6.6 0-9.9.1-4.8 2.1-6.1 6.8-4.9 7.8 2 15.6 4.2 23.5 5.7 12.3 2.3 24.7 3.3 37.2 1.4 6.5-1 12.6-2.9 16.8-8.4 3.7-4.8 5.1-10.5 5.3-16.4.3-8.3.2-16.6.3-24.9 0-.4-.1-.9-.2-1.4-.5.1-.9 0-1.3.1-10.5 2.5-21.1 4.3-32 4.9-11.3.6-22.5-.1-33.3-3.9-12.9-4.5-23.3-12.3-29.4-24.9-4.7-9.8-5.4-20.2-3.9-30.7 2-14 9-24.8 21.4-31.7 11.9-6.6 24.8-7.4 37.9-5.4 15.1 2.3 28.5 8.7 40.3 18.4.4.4.9.7 1.6 1.1.6-3.8 1.1-7.4 1.8-11 .6-3.1 2.5-5.1 5.4-5.2 5.4-.1 10.9-.1 16.3 0 2.7.1 4.5 1.9 4.8 4.7.1.9.1 1.9.1 2.8v106c0 4.3-.2 8.6-.9 12.9-1.9 12.9-7.4 23.5-19 30.4-6.7 4-14.1 6-21.8 7.1-3.6.5-7.2.8-10.8 1.3-3.9-.1-7.9-.1-11.9-.1zm35-127.7c0-1.3-.4-2.2-1.5-3-11.2-8.1-23.5-13.5-37.4-14.9-5.7-.6-11.4-.4-16.8 1.8-6.3 2.5-10.4 6.9-12.4 13.3s-2 13-.1 19.4c2.5 8.3 8.4 13 16.4 15.6 8.1 2.6 16.5 3 24.8 2.2 8.4-.7 16.6-2.3 25-3.4 1.6-.2 2.1-1 2.1-2.6-.1-4.8 0-9.5 0-14.3-.1-4.7-.2-9.4-.1-14.1zm259.9-129.4c-1 5-4.8 6.9-9.1 8.3-6.8 2.3-13.9 3.3-21 3.9-13.1 1.1-26.2.5-39.2-1.9-14.3-2.7-27.9-7.3-40-15.6-1.4-1-2.8-2.1-3.7-3.5-.7-1.1-.9-2.8-.5-4 .4-1.5 2.1-1.9 3.6-1.8.7 0 1.5 0 2.2.1 7.8.8 15.5 1.7 23.3 2.5 11.4 1.1 22.9 1.8 34.3.9 4.8-.3 9.7-1.4 14.4-2.7 5.1-1.4 7.4-5.2 7.6-10.4.4-8-1.4-15.7-3.5-23.3-4.1-15.4-10-30.3-15.8-45.1-.4-1-.8-2-1-3-.5-2.9 1.2-4.8 4.1-4.1 1.7.4 3.6 1.3 4.8 2.5 4.4 4.3 8.9 8.6 12.7 13.4 12.8 16.4 20.3 35.3 24.7 55.6.8 3.6 1.4 7.3 2.1 10.9v17.3zM479.1 249.1c-12.9 35.7-25.8 71.5-38.7 107.2-2 5.7-4.2 11.3-6.3 16.9-1.1 2.9-3.2 4.8-6.4 4.8-7.6.1-15.2.2-22.9.1-2.5 0-3.7-2-3.2-4.5.5-2.1 1.1-4.1 1.9-6.1 19.6-48.5 39.3-97.1 59.1-145.5 1.7-4.1 2.1-7.6.2-11.8-3.3-7.3-5.9-15-9.3-22.3-3-6.5-8-11.4-15.2-13.3-5.1-1.4-10.2-1.6-15.4-1.1-2.5.2-5 .8-7.5 1-3.4.2-5.1-1.3-5.2-4.8-.1-3.3-.1-6.6 0-9.9.1-5.5 2-8 7.4-8.9 5.6-1 11.3-1.9 16.9-2 17.1-.4 30.7 6.5 39.5 21.4 3.5 5.9 6.7 12.1 9.2 18.4 23.7 59.8 47.1 119.7 70.6 179.6.7 1.8 1.3 3.6 1.6 5.5.4 2.8-.9 4.4-3.7 4.4-6.6.1-13.3 0-19.9 0-3.7 0-6.3-1.6-7.7-5.2-.5-1.4-1.1-2.7-1.6-4.1-11.6-33.3-23.2-66.6-34.8-100-2.5-7.2-5.1-14.5-7.7-22.2-.4 1.1-.6 1.7-.9 2.4z"/><glyph glyph-name="amazon" unicode="" horiz-adv-x="448" d="M257.2 285.3c-48.7-1.8-169.5-15.5-169.5-117.5 0-109.5 138.3-114 183.5-43.2 6.5-10.2 35.4-37.5 45.3-46.8l56.8 56S341 159.1 341 186.6v147.1c0 25.3-24.5 82.3-112.3 82.3-88 0-134.7-55-134.7-104.3l73.5-6.8c16.3 49.5 54.2 49.5 54.2 49.5 40.7.1 35.5-29.8 35.5-69.1zm0-86.8c0-80-84.2-68-84.2-17.2 0 47.2 50.5 56.7 84.2 57.8v-40.6zM393.2 35c-7.7-10-70-67-174.5-67S34.2 39.5 9.7 69c-6.8 7.7 1 11.3 5.5 8.3C88.5 32.8 203-40.5 387.7 47c7.5 3.7 13.3-2 5.5-12zm39.8-2.2C426.5 17 417 6 411.8 1.8c-5.5-4.5-9.5-2.7-6.5 3.8s19.3 46.5 12.7 55c-6.5 8.3-37 4.3-48 3.2-10.8-1-13-2-14 .3-2.3 5.7 21.7 15.5 37.5 17.5 15.7 1.8 41 .8 46-5.7 3.7-5.1 0-27.1-6.5-43.1z"/><glyph glyph-name="amilia" unicode="" horiz-adv-x="448" d="M240.1 416c-61.9 0-131.5-16.9-184.2-55.4-5.1-3.1-9.1-9.2-7.2-19.4 1.1-5.1 5.1-27.4 10.2-39.6 4.1-10.2 14.2-10.2 20.3-6.1 32.5 22.3 96.5 47.7 152.3 47.7 57.9 0 58.9-28.4 58.9-73.1v-38.5C203 220.3 78.2 197 46.7 183.8 11.2 167.5 16.3 90.3 16.3 72S31.5-32 141.2-32c47.8 0 113.7 20.7 153.3 42.1v-25.4c0-3 2.1-8.2 6.1-9.1 3.1-1 50.7-2 59.9-2s62.5-.3 66.5.7c4.1 1 5.1 6.1 5.1 9.1V280c-.1 80.3-57.9 136-192 136zM152.2 88.3c0 12.2-3 42.7 18.3 52.9 24.3 13.2 75.1 29.4 119.8 33.5V68c-21.4-13.2-48.7-24.4-79.1-24.4-52.8 0-58.9 33.5-59 44.7"/><glyph glyph-name="android" unicode="" horiz-adv-x="448" d="M89.6 243.5V127.7c0-15.4-12.1-27.7-27.5-27.7-15.3 0-30.1 12.4-30.1 27.7v115.8c0 15.1 14.8 27.5 30.1 27.5 15.1 0 27.5-12.4 27.5-27.5zm10.8-157c0-16.4 13.2-29.6 29.6-29.6h19.9l.3-61.1c0-36.9 55.2-36.6 55.2 0v61.1h37.2V-4.2c0-36.7 55.5-36.8 55.5 0v61.1h20.2c16.2 0 29.4 13.2 29.4 29.6v179.4H100.4V86.5zm248 189.1H99.3c0 42.8 25.6 80 63.6 99.4l-19.1 35.3c-2.8 4.9 4.3 8 6.7 3.8l19.4-35.6c34.9 15.5 75 14.7 108.3 0l19.3 35.5c2.5 4.3 9.5 1.1 6.7-3.8L285.1 375c37.7-19.4 63.3-56.6 63.3-99.4zm-170.7 55.5c0 5.7-4.6 10.5-10.5 10.5-5.7 0-10.2-4.8-10.2-10.5s4.6-10.5 10.2-10.5c5.9 0 10.5 4.8 10.5 10.5zm113.4 0c0 5.7-4.6 10.5-10.2 10.5-5.9 0-10.5-4.8-10.5-10.5s4.6-10.5 10.5-10.5c5.6 0 10.2 4.8 10.2 10.5zm94.8-60.1c-15.1 0-27.5-12.1-27.5-27.5V127.7c0-15.4 12.4-27.7 27.5-27.7 15.4 0 30.1 12.4 30.1 27.7v115.8c0 15.4-14.8 27.5-30.1 27.5z"/><glyph glyph-name="angellist" unicode="" horiz-adv-x="448" d="M347.1 232.6c11.7 32.6 45.4 126.9 45.4 157.1 0 26.6-15.7 48.9-43.7 48.9-44.6 0-84.6-131.7-97.1-163.1C242 304 196.6 448 156.6 448c-31.1 0-45.7-22.9-45.7-51.7 0-35.3 34.2-126.8 46.6-162-6.3 2.3-13.1 4.3-20 4.3-23.4 0-48.3-29.1-48.3-52.6 0-8.9 4.9-21.4 8-29.7-36.9-10-51.1-34.6-51.1-71.7C46 12.4 114.4-64 210.6-64 328.6-64 402 24.6 402 138.9c0 43.1-6.9 82-54.9 93.7zM311.7 340c4 12.3 21.1 64.3 37.1 64.3 8.6 0 10.9-8.9 10.9-16 0-19.1-38.6-124.6-47.1-148l-34 6 33.1 93.7zm-169.4 59.7c0 11.9 14.5 45.7 46.3-47.1l34.6-100.3c-15.6 1.3-27.7 3-35.4-1.4-10.9 28.8-45.5 119.7-45.5 148.8zM140 204c29.3 0 67.1-94.6 67.1-107.4 0-5.1-4.9-11.4-10.6-11.4-20.9 0-76.9 76.9-76.9 97.7.1 7.7 12.7 21.1 20.4 21.1zM324.3 17.7c-29.1-32-66.3-48.6-109.7-48.6-59.4 0-106.3 32.6-128.9 88.3-17.1 43.4 3.8 68.3 20.6 68.3 11.4 0 54.3-60.3 54.3-73.1 0-4.9-7.7-8.3-11.7-8.3-16.1 0-22.4 15.5-51.1 51.4C68.1 66 118.3 8.8 156.1 8.8c26.1 0 43.1 24.2 38 42 3.7 0 8.3-.3 11.7.6 1.1-27.1 9.1-59.4 41.7-61.7 0 .9 2 7.1 2 7.4 0 17.4-10.6 32.6-10.6 50.3 0 28.3 21.7 55.7 43.7 71.7 8 6 17.7 9.7 27.1 13.1 9.7 3.7 20 8 27.4 15.4-1.1 11.2-5.7 21.1-16.9 21.1-27.7 0-120.6-4-120.6 39.7 0 6.7.1 13.1 17.4 13.1 32.3 0 114.3-8 138.3-29.1 18.1-16.1 24.3-113.2-31-174.7zm-98.6 126c9.7-3.1 19.7-4 29.7-6-7.4-5.4-14-12-20.3-19.1-2.8 8.5-6.2 16.8-9.4 25.1z"/><glyph glyph-name="angrycreative" unicode="" horiz-adv-x="640" d="M640 209.8l-3.2-28.2-34.5-2.3-2-18.1 34.5 2.3-3.2-28.2-34.4-2.2-2.3-20.1 34.4 2.2-3-26.1-64.7-4.1 12.7 113.2L527 82.8l-31.9-2-23.8 117.8 30.3 2 13.6-79.4 31.7 82.4 93.1 6.2zM426.8 76.5l28.3 1.8L468 198.4l-28.4-1.9-12.8-120zM162 59.9l-19.4 36-3.5-37.4-28.2-1.7 2.7 29.1c-11-18-32-34.3-56.9-35.8C23.9 48.1-3 71 .3 108.3c2.6 29.3 26.7 62.8 67.5 65.4 37.7 2.4 47.6-23.2 51.3-28.8l2.8 30.8 38.9 2.5c20.1 1.3 38.7-3.7 42.5-23.7l2.6 26.6 64.8 4.2-2.7-27.9-36.4-2.4-1.7-17.9 36.4 2.3-2.7-27.9-36.4-2.3-1.9-19.9 36.3 2.3-2.1-20.8 55 117.2 23.8 1.6L370.4 79l8.9 85.6-22.3-1.4 2.9 27.9 75 4.9-3-28-24.3-1.6-9.7-91.9-58-3.7-4.3 15.6-39.4-2.5-8-16.3L162 59.9zm-44.3 70.2l-26.4-1.7C84.6 140.8 76.9 145 65 144.2c-19-1.2-33.3-17.5-34.6-33.3-1.4-16 7.3-32.5 28.7-31.2 12.8.8 21.3 8.6 28.9 18.9l27 1.7 2.7 29.8zm56.1 7.7c1.2 12.9-7.6 13.6-26.1 12.4l-2.7-28.5c14.2.9 27.5 2.1 28.8 16.1zM194.9 67l5.8 60c-5-13.5-14.7-21.1-27.9-26.6L194.9 67zm135.4 45l-7.9 37.8-15.8-39.3 23.7 1.5zm-170.1 74.6l-4.3 17.5-39.6-2.6-8.1-18.2-31.9-2.1 57 121.9 23.9 1.6 30.7-102 9.9 104.7 27 1.8 37.8-63.6 6.5 66.6 28.5 1.9-4-41.2c7.4 13.5 22.9 44.7 63.6 47.5 40.5 2.8 52.4-29.3 53.4-30.3l3.3 32 39.3 2.7c12.7.9 27.8-.3 36.3-9.7l-4.4 11.9 32.2 2.2 12.9-43.2 23 45.7 31 2.2-43.6-78.4-4.8-44.3-28.4-1.9 4.8 44.3-15.8 43c1-22.3-9.2-40.1-32-49.6l25.2-38.8-36.4-2.4-19.2 36.8-4-38.3-28.4-1.9 3.3 31.5c-6.7-9.3-19.7-35.4-59.6-38-26.2-1.7-45.6 10.3-55.4 39.2l-4-40.3-25-1.6-37.6 63.3-6.3-66.2-56.8-3.7zm276.6 82.1c10.2.7 17.5 2.1 21.6 4.3 4.5 2.4 7 6.4 7.6 12.1.6 5.3-.6 8.8-3.4 10.4-3.6 2.1-10.6 2.8-22.9 2l-2.9-28.8zM327.7 234c5.6-5.9 12.7-8.5 21.3-7.9 4.7.3 9.1 1.8 13.3 4.1 5.5 3 10.6 8 15.1 14.3l-34.2-2.3 2.4 23.9 63.1 4.3 1.2 12-31.2-2.1c-4.1 3.7-7.8 6.6-11.1 8.1-4 1.7-8.1 2.8-12.2 2.5-8-.5-15.3-3.6-22-9.2-7.7-6.4-12-14.5-12.9-24.4-1.1-9.6 1.4-17.3 7.2-23.3zm-201.3-8.2l23.8 1.6-8.3 37.6-15.5-39.2z"/><glyph glyph-name="angular" unicode="" horiz-adv-x="415.6" d="M169.7 179.9h76.2l-38.1 91.6-38.1-91.6zM207.8 416L0 341.6 31.8 65.9l176-97.9 176 97.9 31.8 275.7L207.8 416zM338 74.2h-48.6l-26.2 65.4H152.6l-26.2-65.4H77.7l130.1 292.3L338 74.2z"/><glyph glyph-name="app-store-ios" unicode="" horiz-adv-x="448" d="M400 416H48c-26.5 0-48-21.5-48-48V16c0-26.5 21.5-48 48-48h352c26.5 0 48 21.5 48 48v352c0 26.5-21.5 48-48 48zM127 63.5c-5.5-9.6-17.8-12.8-27.3-7.3-9.6 5.5-12.8 17.8-7.3 27.3l14.3 24.7c16.1 4.9 29.3 1.1 39.6-11.4L127 63.5zm138.9 53.9H84c-11 0-20 9-20 20s9 20 20 20h51l65.4 113.2-20.5 35.4c-5.5 9.6-2.2 21.8 7.3 27.3 9.6 5.5 21.8 2.2 27.3-7.3l8.9-15.4 8.9 15.4c5.5 9.6 17.8 12.8 27.3 7.3 9.6-5.5 12.8-17.8 7.3-27.3l-85.8-148.6h62.1c20.2 0 31.5-23.7 22.7-40zm98.1 0h-29l19.6-33.9c5.5-9.6 2.2-21.8-7.3-27.3-9.6-5.5-21.8-2.2-27.3 7.3-32.9 56.9-57.5 99.7-74 128.1-16.7 29-4.8 58 7.1 67.8 13.1-22.7 32.7-56.7 58.9-102h52c11 0 20-9 20-20 0-11.1-9-20-20-20z"/><glyph glyph-name="app-store" unicode="" horiz-adv-x="512" d="M255.9 327.1l9.1 15.7c5.6 9.8 18.1 13.1 27.9 7.5 9.8-5.6 13.1-18.1 7.5-27.9l-87.5-151.5h63.3c20.5 0 32-24.1 23.1-40.8H113.8c-11.3 0-20.4 9.1-20.4 20.4 0 11.3 9.1 20.4 20.4 20.4h52l66.6 115.4-20.8 36.1c-5.6 9.8-2.3 22.2 7.5 27.9 9.8 5.6 22.2 2.3 27.9-7.5l8.9-15.7zm-78.7-218l-19.6-34c-5.6-9.8-18.1-13.1-27.9-7.5-9.8 5.6-13.1 18.1-7.5 27.9l14.6 25.2c16.4 5.1 29.8 1.2 40.4-11.6zm168.9 61.7h53.1c11.3 0 20.4-9.1 20.4-20.4 0-11.3-9.1-20.4-20.4-20.4h-29.5l19.9-34.5c5.6-9.8 2.3-22.2-7.5-27.9-9.8-5.6-22.2-2.3-27.9 7.5-33.5 58.1-58.7 101.6-75.4 130.6-17.1 29.5-4.9 59.1 7.2 69.1 13.4-23 33.4-57.7 60.1-104zM256 440C119 440 8 329 8 192S119-56 256-56 504 55 504 192 393 440 256 440zm216-248c0-118.7-96.1-216-216-216C137.3-24 40 72.1 40 192c0 118.7 96.1 216 216 216 118.7 0 216-96.1 216-216z"/><glyph glyph-name="apper" unicode="" horiz-adv-x="640" d="M42.1 208.9c22.2 0 29-2.8 33.5-14.6h.8v22.9c0 11.3-4.8 15.4-17.9 15.4-11.3 0-14.4-2.5-15.1-12.8H4.8c.3 13.9 1.5 19.1 5.8 24.4C17.9 253 29.5 256 56.7 256c33 0 47.1-5 53.9-18.9 2-4.3 4-15.6 4-23.7v-76.3H76.3l1.3 19.1h-1c-5.3-15.6-13.6-20.4-35.5-20.4-30.3 0-41.1 10.1-41.1 37.3 0 25.2 12.3 35.8 42.1 35.8zm17.1-48.1c13.1 0 16.9 3 16.9 13.4 0 9.1-4.3 11.6-19.6 11.6-13.1 0-17.9-3-17.9-12.1-.1-10.4 3.7-12.9 20.6-12.9zm77.8 94.9h38.3l-1.5-20.6h.8c9.1 17.1 15.9 20.9 37.5 20.9 14.4 0 24.7-3 31.5-9.1 9.8-8.6 12.8-20.4 12.8-48.1 0-30-3-43.1-12.1-52.9-6.8-7.3-16.4-10.1-33.2-10.1-20.4 0-29.2 5.5-33.8 21.2h-.8V86.7H137v169zm80.9-60.7c0 27.5-3.3 32.5-20.7 32.5-16.9 0-20.7-5-20.7-28.7 0-28 3.5-33.5 21.2-33.5 16.4 0 20.2 5.6 20.2 29.7zm57.9 60.7h38.3l-1.5-20.6h.8c9.1 17.1 15.9 20.9 37.5 20.9 14.4 0 24.7-3 31.5-9.1 9.8-8.6 12.8-20.4 12.8-48.1 0-30-3-43.1-12.1-52.9-6.8-7.3-16.4-10.1-33.3-10.1-20.4 0-29.2 5.5-33.8 21.2h-.8V86.7h-39.5v169zm80.9-60.7c0 27.5-3.3 32.5-20.7 32.5-16.9 0-20.7-5-20.7-28.7 0-28 3.5-33.5 21.2-33.5 16.4 0 20.2 5.6 20.2 29.7zm53.8 3.8c0 25.4 3.3 37.8 12.3 45.8 8.8 8.1 22.2 11.3 45.1 11.3 42.8 0 55.7-12.8 55.7-55.7v-11.1h-75.3c-.3-2-.3-4-.3-4.8 0-16.9 4.5-21.9 20.1-21.9 13.9 0 17.9 3 17.9 13.9h37.5V174c0-9.8-2.5-18.9-6.8-24.7-7.3-9.8-19.6-13.6-44.3-13.6-27.5 0-41.6 3.3-50.6 12.3-8.5 8.5-11.3 21.3-11.3 50.8zm76.4 11.6c-.3 1.8-.3 3.3-.3 3.8 0 12.3-3.3 14.6-19.6 14.6-14.4 0-17.1-3-18.1-15.1l-.3-3.3h38.3zm55.6 45.3h38.3l-1.8-19.9h.7c6.8 14.9 14.4 20.2 29.7 20.2 10.8 0 19.1-3.3 23.4-9.3 5.3-7.3 6.8-14.4 6.8-34 0-1.5 0-5 .2-9.3h-35c.3 1.8.3 3.3.3 4 0 15.4-2 19.4-10.3 19.4-6.3 0-10.8-3.3-13.1-9.3-1-3-1-4.3-1-12.3v-68h-38.3v118.5z"/><glyph glyph-name="apple-pay" unicode="" horiz-adv-x="640" d="M116.9 289.5c-7.5-8.9-19.5-15.9-31.5-14.9-1.5 12 4.4 24.8 11.3 32.6 7.5 9.1 20.6 15.6 31.3 16.1 1.2-12.4-3.7-24.7-11.1-33.8m10.9-17.2c-17.4 1-32.3-9.9-40.5-9.9-8.4 0-21 9.4-34.8 9.1-17.9-.3-34.5-10.4-43.6-26.5-18.8-32.3-4.9-80 13.3-106.3 8.9-13 19.5-27.3 33.5-26.8 13.3.5 18.5 8.6 34.5 8.6 16.1 0 20.8-8.6 34.8-8.4 14.5.3 23.6 13 32.5 26 10.1 14.8 14.3 29.1 14.5 29.9-.3.3-28 10.9-28.3 42.9-.3 26.8 21.9 39.5 22.9 40.3-12.5 18.6-32 20.6-38.8 21.1m100.4 36.2V113.6h30.3v66.6h41.9c38.3 0 65.1 26.3 65.1 64.3s-26.4 64-64.1 64h-73.2zm30.3-25.5h34.9c26.3 0 41.3-14 41.3-38.6s-15-38.8-41.4-38.8h-34.8V283zm162.2-170.9c19 0 36.6 9.6 44.6 24.9h.6v-23.4h28v97c0 28.1-22.5 46.3-57.1 46.3-32.1 0-55.9-18.4-56.8-43.6h27.3c2.3 12 13.4 19.9 28.6 19.9 18.5 0 28.9-8.6 28.9-24.5v-10.8l-37.8-2.3c-35.1-2.1-54.1-16.5-54.1-41.5.1-25.2 19.7-42 47.8-42zm8.2 23.1c-16.1 0-26.4 7.8-26.4 19.6 0 12.3 9.9 19.4 28.8 20.5l33.6 2.1v-11c0-18.2-15.5-31.2-36-31.2zm102.5-74.6c29.5 0 43.4 11.3 55.5 45.4L640 255h-30.8l-35.6-115.1h-.6L537.4 255h-31.6L557 113.1l-2.8-8.6c-4.6-14.6-12.1-20.3-25.5-20.3-2.4 0-7 .3-8.9.5V61.3c1.8-.4 9.3-.7 11.6-.7z"/><glyph glyph-name="apple" unicode="" horiz-adv-x="376.5" d="M314.7 179.3c-.2 36.7 16.4 64.4 50 84.8-18.8 26.9-47.2 41.7-84.7 44.6-35.5 2.8-74.3-20.7-88.5-20.7-15 0-49.4 19.7-76.4 19.7C59.3 306.8 0 263.2 0 174.5c0-26.2 4.8-53.3 14.4-81.2 12.8-36.7 59-126.7 107.2-125.2 25.2.6 43 17.9 75.8 17.9 31.8 0 48.3-17.9 76.4-17.9 48.6.7 90.4 82.5 102.6 119.3-65.2 30.7-61.7 90-61.7 91.9zm-56.6 164.2c27.3 32.4 24.8 61.9 24 72.5-24.1-1.4-52-16.4-67.9-34.9-17.5-19.8-27.8-44.3-25.6-71.9 26.1-2 49.9 11.4 69.5 34.3z"/><glyph glyph-name="asymmetrik" unicode="" horiz-adv-x="576" d="M517.5 138.8c38.8 40 58.1 80 58.5 116.1.8 65.5-59.4 118.2-169.4 135C277.9 409.6 118.1 374.4 0 307.5c52 26.5 110.6 48.2 170.7 58.2 74.5 20.5 153 25.4 221.3 14.8 152.5-23.8 196.8-127.5 98.8-231.7-10.2-10.8-22-21.1-35-30.6L304.9 344.6 114.7 59.1c-65.6 29.4-76.5 90.2-19.1 151.2 20.8 22.2 48.3 41.9 79.5 58.1 20 12.2 39.7 22.6 62 30.7-65.1-20.3-122.7-52.9-161.6-92.9-27.7-28.6-41.4-57.1-41.7-82.9-.5-35.1 23.4-65.1 68.4-83L67.7-11.4h101.6l22 34.4c22.2-1 45.3 0 68.6 2.7l-22.8-37.1h135.5L340 41.7c18.6 5.3 36.9 11.5 54.5 18.7l45.9-71.8H542L468.6 99c18.5 12.1 35 25.5 48.9 39.8zM329.9 58.3l-25 40.6-32.7-53.3c-23.4-3.5-46.7-5.1-69.2-4.4l101.9 159.3 78.7-123c-17.2-7.4-35.3-13.9-53.7-19.2z"/><glyph glyph-name="audible" unicode="" horiz-adv-x="640" d="M640 248.1v-54L320-5.9 0 194v54L320 48l320 200.1zm-194.5-72l47.1 29.4c-37.2 55.8-100.7 92.6-172.7 92.6-72 0-135.5-36.7-172.6-92.4h.3c2.5 2.3 5.1 4.5 7.7 6.7 89.7 74.4 219.4 58.1 290.2-36.3zm-220.1-18.8c16.9 11.9 36.5 18.7 57.4 18.7 34.4 0 65.2-18.4 86.4-47.6l45.4 28.4c-20.9 29.9-55.6 49.5-94.8 49.5-38.9 0-73.4-19.4-94.4-49zM103.6 286.9c131.8 104.3 318.2 76.4 417.5-62.1l.7-1 48.8 30.4c-53.5 81.7-145.8 135.7-250.7 135.7-103.5 0-196.6-53.5-250.5-135.6 9.9 10.5 22.7 23.5 34.2 32.6zm467-32.7z"/><glyph glyph-name="autoprefixer" unicode="" horiz-adv-x="640" d="M318.4 432l-161-480h77.5l25.4 81.4h119.5L405-48h77.5L318.4 432zM278.1 90.1l41.2 130.4h1.5l40.9-130.4h-83.6zM640 43l-10 31.4L462.1 90l19.4-56.5L640 43zM177.9 90L10 74.3 0 43l158.5-9.4L177.9 90z"/><glyph glyph-name="avianex" unicode="" horiz-adv-x="512" d="M453.1 416h-312c-38.9 0-76.2-31.2-83.3-69.7L1.2 37.7C-5.9-.8 19.9-32 58.9-32h312c38.9 0 76.2 31.2 83.3 69.7l56.7 308.5c7 38.6-18.8 69.8-57.8 69.8zM394.9 68.7l-32-13.5-115.4 110c-14.7-10-29.2-19.5-41.7-27.1l22.1-64.2L210 61.2l-40.6 61-52.4 48.1 15.7 15.4 58-31.1c9.3 10.5 20.8 22.6 32.8 34.9L203 219.1l-68.8 99.8 18.8 28.9 8.9 4.8L265 240.2l4.9-4.5c19.4 18.8 33.8 32.4 33.8 32.4 7.7 6.5 21.5 2.9 30.7-7.9 9-10.5 10.6-24.7 2.7-31.3-1.8-1.3-15.5-11.4-35.3-25.6l4.5-7.3 94.9-119.4-6.3-7.9z"/><glyph glyph-name="aviato" unicode="" horiz-adv-x="640" d="M107.2 164.5l-19 41.8H36.1l-19-41.8H0l62.2 131.4 62.2-131.4h-17.2zm-45 98.1l-19.6-42.5h39.2l-19.6 42.5zm112.7-102.4l-62.2 131.4h17.1l45.1-96 45.1 96h17l-62.1-131.4zm80.6 4.3v127.1H271V164.5h-15.5zm209.1 115.6V164.5h-17.3v115.6h-41.2v11.5h99.6v-11.5h-41.1zM640 229.2c0-9.2-1.7-17.8-5.1-25.8-3.4-8-8.2-15.1-14.2-21.1-6-6-13.1-10.8-21.1-14.2-8-3.4-16.6-5.1-25.8-5.1s-17.8 1.7-25.8 5.1c-8 3.4-15.1 8.2-21.1 14.2-6 6-10.8 13-14.2 21.1-3.4 8-5.1 16.6-5.1 25.8s1.7 17.8 5.1 25.8c3.4 8 8.2 15.1 14.2 21.1 6 6 13 8.4 21.1 11.9 8 3.4 16.6 5.1 25.8 5.1s17.8-1.7 25.8-5.1c8-3.4 15.1-5.8 21.1-11.9 6-6 10.7-13.1 14.2-21.1 3.4-8 5.1-16.6 5.1-25.8zm-15.5 0c0 7.3-1.3 14-3.9 20.3-2.6 6.3-6.2 11.7-10.8 16.3-4.6 4.6-10 8.2-16.2 10.9-6.2 2.7-12.8 4-19.8 4s-13.6-1.3-19.8-4c-6.2-2.7-11.6-6.3-16.2-10.9-4.6-4.6-8.2-10-10.8-16.3-2.6-6.3-3.9-13.1-3.9-20.3 0-7.3 1.3-14 3.9-20.3 2.6-6.3 6.2-11.7 10.8-16.3 4.6-4.6 10-8.2 16.2-10.9 6.2-2.7 12.8-4 19.8-4s13.6 1.3 19.8 4c6.2 2.7 11.6 6.3 16.2 10.9 4.6 4.6 8.2 10 10.8 16.3 2.6 6.3 3.9 13.1 3.9 20.3zm-94.8-96.7v6.3l88.9 10-242.9-13.4c.6 2.2 1.1 4.6 1.4 7.2.3 2 .5 4.2.6 6.5l64.8 8.1-64.9-1.9c0 .4-.1.7-.1 1.1-2.8 17.2-25.5 23.7-25.5 23.7l-1.1 26.3h23.8l19-41.8h17.1L348.6 296l-62.2-131.4h17.1l19 41.8h23.6L345 180s-22.7-6.5-25.5-23.7c-.1-.3-.1-.7-.1-1.1l-64.9 1.9 64.8-8.1c.1-2.3.3-4.4.6-6.5.3-2.6.8-5 1.4-7.2L78.4 148.8l88.9-10v-6.3c-5.9-.9-10.5-6-10.5-12.2 0-6.8 5.6-12.4 12.4-12.4 6.8 0 12.4 5.6 12.4 12.4 0 6.2-4.6 11.3-10.5 12.2v5.8l80.3-9v-5.4c-5.7-1.1-9.9-6.2-9.9-12.1 0-6.8 5.6-10.2 12.4-10.2 6.8 0 12.4 3.4 12.4 10.2 0 6-4.3 11-9.9 12.1v4.9l28.4-3.2v-23.7h-5.9V88h5.9v6.6h5V88h5.9v13.8h-5.9V125l38.3-4.3c8.1-11.4 19-13.6 19-13.6l-.1-6.7-5.1-.2-.1-12.1h4.1l.1 5h5.2l.1-5h4.1l-.1 12.1-5.1.2-.1 6.7s10.9 2.1 19 13.6l38.3 4.3v-23.2h-5.9V88h5.9v6.6h5V88h5.9v13.8h-5.9v23.7l28.4 3.2v-4.9c-5.7-1.1-9.9-6.2-9.9-12.1 0-6.8 5.6-10.2 12.4-10.2 6.8 0 12.4 3.4 12.4 10.2 0 6-4.3 11-9.9 12.1v5.4l80.3 9v-5.8c-5.9-.9-10.5-6-10.5-12.2 0-6.8 5.6-12.4 12.4-12.4 6.8 0 12.4 5.6 12.4 12.4-.2 6.3-4.7 11.4-10.7 12.3zm-200.8 87.6l19.6 42.5 19.6-42.5h-17.9l-1.7 40.3-1.7-40.3h-17.9z"/><glyph glyph-name="aws" unicode="" horiz-adv-x="512" d="M261.2 311.9c-14-57.5-13.1-54.4-25.8-107-1.6-6.5-4.1-8.4-10.7-8.5h-14.4c-5.8.1-8.2 1.6-9.9 7.3-12.3 39.4-28.8 94.1-39.9 130.7-4.1 13.5-1.4 13.2 9.3 12.9 3.7-.1 7.3 0 11 0 5.1-.1 7.7-2 9.1-7.1 3.6-12.9 6-22.8 26.6-104.1.4-1.6.9-3.1 1.4-4.6h1.1c.5 2 1.1 3.9 1.6 5.9 7.8 32.9 15.5 65.9 23.3 98.8 2.4 10.2 6.7 11.2 17 11.2h7.6c6.9-.1 9-1.5 10.7-8.3 6-23.4 23.5-101.8 26.7-110.4 5.1 18.3-1.8-7.9 28.5 109 2.1 8.1 4.1 9.7 12.3 9.7h12.7c5.4-.1 7-1.8 5.7-7.1-2.4-9.5-2.9-9.9-41.3-132.9-3.1-9.9-4.2-10.8-14.6-10.8h-10.6c-7.3 0-9.2 1.3-11 8.4-4.3 16.2-23.3 95.7-26.4 106.9zM125.4 200.7c4.2-5.8 8.1-6.3 14.1-2.4l6.3 4.2c6.8 4.5 7.3 6.3 3.6 13.5-4.3 8.4-6.4 17.3-6.3 26.9 0 3.1.6 55.7-.9 66.8-2.7 19.3-12.5 32.8-31.7 38.7-10.7 3.4-21.7 3.3-32.7 3-15.1-.4-29.4-4.6-42.8-11.4-1.8-.9-3.7-3.1-4.1-4.9-.8-3.9-1.1-8.1-.7-12.1.6-5.9 2.6-7 8.2-5.1 5.1 1.7 10 3.9 15.1 5.4 14.5 4.4 29.2 6.4 44.1 1.7 7.1-2.2 11.7-6.9 14.3-13.8 3-7.9 2.4-16.1 2.4-24.2 0-5.5-.1-5.5-5.5-4.5-13.9 2.6-27.7 5-41.9 3.1-15.2-2.1-28.6-7.3-38.2-20-9.1-12-10-25.6-7.4-39.5 2.8-15 11.8-25.7 26.4-30.4 20.6-6.7 40.1-3.3 57.7 9.5 3.8 2.8 7.2 6.2 11.1 9.5 3.1-5 5.8-9.7 8.9-14zm-15.3 61.6c3-.4 4.5-1.9 4.3-5.1-.2-3.8.1-7.6-.3-11.4-1.2-11.7-7.7-19.7-17.9-24.9-8.2-4.2-16.9-5.8-26.1-5-15.2 1.3-21 13.1-19.6 26.3C51.8 254.8 59 261.8 72 264c13.8 2.4 16 1.1 38.1-1.7zm348.8-65.1c21.3 8.6 32.9 26.2 29.2 50-2.2 14.6-11.8 24.2-25.2 29.5-14.7 5.9-33.8 10.3-48.1 18.2-4.4 2.4-7.4 6.3-7.6 11.9-.4 11.1 4.2 17.2 15.4 19.8 9.3 2.1 18.8 2.2 28.1.4 7.3-1.4 14.3-4.2 21.4-6.3 2.8-.9 5.9-2.1 7.8 1.6 3.8 7.3.4 18.7-7.3 21.8-22.5 9-45.5 11.6-68.2 1.6-14.6-6.4-24.6-17.4-26-34.2-1.6-19.3 6.9-33.4 24.1-41.7 7.7-3.7 16.1-5.9 24.2-8.9 8.1-3 16.2-5.8 24.1-9.1 12.3-5.3 11.6-24.2 1.2-30-27.7-15.3-64.9 2.4-69.2 3.8-3.3 1.1-5.3-.2-6.3-3.7-3-11.3.7-18.8 11.6-22.7 21.7-7.9 49.6-10.5 70.8-2zM296 34.5c50.8 5.8 98.7 20.8 142.7 47 8 4.7 15.5 10.3 23.1 15.7 7.3 5.2 3.2 18.4-11.3 12.2-54.4-23.2-111.2-36.1-170.2-38.9-30.5-1.5-60.8.3-91.1 4.7-63.1 9.2-122.4 29.2-177.6 61.2-2.1 1.2-4.2 2.5-6.5 3-4.9 1.1-7.7-4.7-2.4-9.7C26.7 107.6 53 88.9 81.8 74 135.5 46.3 192.3 31.3 253 32c14.4.8 28.8.9 43 2.5zm174.7 92.2c14.8-.8 19.4-5.9 15.7-20.2-3.8-14.8-9.3-29.2-13.9-43.8-.9-2.9-4.2-6.3-.8-8.8 3.7-2.6 6.5 1 9 3.3 10.2 9.5 17.4 21 22.5 33.8 5.4 13.4 9.3 27.2 8.7 41.9-.2 6.2-1.8 8.8-7.8 10.5-5.4 1.5-11 2.8-16.5 3.2-21.6 1.8-42.5-.5-62-10.6-3.1-1.6-6-3.7-8.7-5.9-1.1-.9-3.2-5.3 2.4-6.1 1.9-.3 3.9.1 5.9.3 16.9 1.6 28.6 3.3 45.5 2.4z"/><glyph glyph-name="bandcamp" unicode="" horiz-adv-x="496" d="M248 440C111 440 0 329 0 192S111-56 248-56 496 55 496 192 385 440 248 440zm48.2-326.1h-181L199.9 270h181l-84.7-156.1z"/><glyph glyph-name="behance-square" unicode="" horiz-adv-x="448" d="M186.5 155c0-19.3-14-25.4-31.2-25.4h-45.1v52.9h46c18.6-.1 30.3-7.8 30.3-27.5zm-7.7 82.3c0 17.7-13.7 21.9-28.9 21.9h-39.6v-44.8H153c15.1 0 25.8 6.6 25.8 22.9zm132.3-23.2c-18.3 0-30.5-11.4-31.7-29.7h62.2c-1.7 18.5-11.3 29.7-30.5 29.7zM448 368V16c0-26.5-21.5-48-48-48H48C21.5-32 0-10.5 0 16v352c0 26.5 21.5 48 48 48h352c26.5 0 48-21.5 48-48zM271.7 263h77.8v18.9h-77.8V263zm-43-110.3c0 24.1-11.4 44.9-35 51.6 17.2 8.2 26.2 17.7 26.2 37 0 38.2-28.5 47.5-61.4 47.5H68v-192h93.1c34.9.2 67.6 16.9 67.6 55.9zM380 167.5c0 41.1-24.1 75.4-67.6 75.4-42.4 0-71.1-31.8-71.1-73.6 0-43.3 27.3-73 71.1-73 33.2 0 54.7 14.9 65.1 46.8h-33.7c-3.7-11.9-18.6-18.1-30.2-18.1-22.4 0-34.1 13.1-34.1 35.3h100.2c.1 2.3.3 4.8.3 7.2z"/><glyph glyph-name="behance" unicode="" horiz-adv-x="576" d="M232 210.8c31.8 15.2 48.4 38.2 48.4 74 0 70.6-52.6 87.8-113.3 87.8H0V18.2h171.8c64.4 0 124.9 30.9 124.9 102.9 0 44.5-21.1 77.4-64.7 89.7zM77.9 312.1H151c28.1 0 53.4-7.9 53.4-40.5 0-30.1-19.7-42.2-47.5-42.2h-79v82.7zm83.3-233.7H77.9V176h84.9c34.3 0 56-14.3 56-50.6 0-35.8-25.9-47-57.6-47zm358.5 240.7H376V354h143.7v-34.9zM576 142.8c0 75.9-44.4 139.2-124.9 139.2-78.2 0-131.3-58.8-131.3-135.8 0-79.9 50.3-134.7 131.3-134.7 61.3 0 101 27.6 120.1 86.3H509c-6.7-21.9-34.3-33.5-55.7-33.5-41.3 0-63 24.2-63 65.3h185.1c.3 4.2.6 8.7.6 13.2zM390.4 174c2.3 33.7 24.7 54.8 58.5 54.8 35.4 0 53.2-20.8 56.2-54.8H390.4z"/><glyph glyph-name="bimobject" unicode="" horiz-adv-x="448" d="M416 416H32c-17.6 0-32-14.4-32-32V0c0-17.6 14.4-32 32-32h384c17.6 0 32 14.4 32 32v384c0 17.6-14.4 32-32 32zm-64-257.4c0-49.4-11.4-82.6-103.8-82.6h-16.9c-44.1 0-62.4 14.9-70.4 38.8h-.9V80H96v232h64v-74.7h1.1c4.6 30.5 39.7 38.8 69.7 38.8h17.3c92.4 0 103.8-33.1 103.8-82.5v-35zm-64 28.9v-22.9c0-21.7-3.4-33.8-38.4-33.8h-45.3c-28.9 0-44.1 6.5-44.1 35.7v19c0 29.3 15.2 35.7 44.1 35.7h45.3c35 .2 38.4-12 38.4-33.7z"/><glyph glyph-name="bitbucket" unicode="" horiz-adv-x="512" d="M23.1 416c-8.9.1-16.1-6.9-16.2-15.8 0-.9.1-1.8.2-2.8L74.9-14c1.7-10.4 10.7-18 21.2-18.1h325.1c7.9-.1 14.7 5.6 16 13.4l67.8 416c1.4 8.7-4.5 16.9-13.2 18.3-.9.1-1.8.2-2.8.2l-465.9.2zm285.3-297.3H204.6l-28.1 146.8h157l-25.1-146.8z"/><glyph glyph-name="bitcoin" unicode="" horiz-adv-x="512" d="M504 192C504 55.033 392.967-56 256-56S8 55.033 8 192s111.033 248 248 248 248-111.033 248-248zm-141.651 35.33c4.937 32.999-20.191 50.739-54.55 62.573l11.146 44.702-27.213 6.781-10.851-43.524c-7.154 1.783-14.502 3.464-21.803 5.13l10.929 43.81-27.198 6.781-11.153-44.686c-5.922 1.349-11.735 2.682-17.377 4.084l.031.14-37.53 9.37-7.239-29.062s20.191-4.627 19.765-4.913c11.022-2.751 13.014-10.044 12.68-15.825l-12.696-50.925c.76-.194 1.744-.473 2.829-.907-.907.225-1.876.473-2.876.713l-17.796-71.338c-1.349-3.348-4.767-8.37-12.471-6.464.271-.395-19.78 4.937-19.78 4.937l-13.51-31.147 35.414-8.827c6.588-1.651 13.045-3.379 19.4-5.006l-11.262-45.213 27.182-6.781 11.153 44.733a1038.209 1038.209 0 0 1 21.687-5.627l-11.115-44.523 27.213-6.781 11.262 45.128c46.404-8.781 81.299-5.239 95.986 36.727 11.836 33.79-.589 53.281-25.004 65.991 17.78 4.098 31.174 15.792 34.747 39.949zm-62.177-87.179c-8.41-33.79-65.308-15.523-83.755-10.943l14.944 59.899c18.446-4.603 77.6-13.717 68.811-48.956zm8.417 87.667c-7.673-30.736-55.031-15.12-70.393-11.292l13.548 54.327c15.363-3.828 64.836-10.973 56.845-43.035z"/><glyph glyph-name="bity" unicode="" horiz-adv-x="496" d="M78.4 380.8C173.8 470 324.5 472 421.5 377c14.3-14.1-6.4-37.1-22.4-21.5-84.8 82.4-215.8 80.3-298.9 3.2-16.3-15.1-36.5 8.3-21.8 22.1zm98.9-418.6c19.3-5.7 29.3 23.6 7.9 30C73 26.1 9.4 141.9 37.7 253.2c5 19.6-24.9 28.1-30.2 7.1C-24.6 132.9 48.6.5 177.3-37.8zm148.1 2c121.9 40.2 192.9 166.9 164.4 291-4.5 19.7-34.9 13.8-30-7.9C484 139.6 422.7 29.4 316.6-6.1c-21.2-7-10.4-36 8.8-29.7zm-62.9 79l.2 71.8c0 8.2-6.6 14.8-14.8 14.8-8.2 0-14.8-6.7-14.8-14.8l-.2-71.8c0-8.2 6.6-14.8 14.8-14.8s14.8 6.6 14.8 14.8zm71 269c2.1-90.9 4.7-131.9-85.5-132.5-92.5.7-86.9 44.3-85.5 132.5 0 21.8-32.5 19.6-32.5 0v-71.6c0-69.3 60.7-90.9 118-90.1 57.3-.8 118 20.8 118 90.1v71.6c0 19.6-32.5 21.8-32.5 0z"/><glyph glyph-name="black-tie" unicode="" horiz-adv-x="448" d="M0 416V-32h448v448H0zM316.5 90.8L224 2.1l-92.5 88.7 64.5 184-64.5 86.6h184.9L252 274.8l64.5-184z"/><glyph glyph-name="blackberry" unicode="" horiz-adv-x="512" d="M166 331.1c0-23.4-16.4-49.1-72.5-49.1H23.4l21 88.8h67.8c42.1 0 53.8-23.3 53.8-39.7zm126.2 39.7h-67.8L205.7 282h70.1c53.8 0 70.1 25.7 70.1 49.1.1 16.4-11.6 39.7-53.7 39.7zM88.8 239.9H21L0 151.1h70.1c56.1 0 72.5 23.4 72.5 49.1 0 16.3-11.7 39.7-53.8 39.7zm180.1 0h-67.8l-18.7-88.8h70.1c53.8 0 70.1 23.4 70.1 49.1 0 16.3-11.7 39.7-53.7 39.7zm189.3 53.8h-67.8l-18.7-88.8h70.1c53.8 0 70.1 23.4 70.1 49.1.1 16.3-11.6 39.7-53.7 39.7zm-28-137.9h-67.8L343.7 67h70.1c56.1 0 70.1 23.4 70.1 49.1 0 16.3-11.6 39.7-53.7 39.7zM240.8 102H173l-18.7-88.8h70.1c56.1 0 70.1 25.7 70.1 49.1.1 16.3-11.6 39.7-53.7 39.7z"/><glyph glyph-name="blogger-b" unicode="" horiz-adv-x="448" d="M446.6 225.3c-1.8 8-6.8 15.4-12.5 18.5-1.8 1-13 2.2-25 2.7-20.1.9-22.3 1.3-28.7 5-10.1 5.9-12.8 12.3-12.9 29.5-.1 33-13.8 63.7-40.9 91.3-19.3 19.7-40.9 33-65.5 40.5-5.9 1.8-19.1 2.4-63.3 2.9-69.4.8-84.8-.6-108.4-10-43.5-17.2-74.7-53.8-86.1-100.6C1.2 296.3.7 282.2.2 201.2-.4 99.7.3 84.8 6.6 64.7 22.2 15.1 66.5-21.6 111-29.6c14.8-2.7 197.3-3.3 216-.8 32.5 4.4 58 17.5 81.9 41.9 17.3 17.7 28.1 36.8 35.2 62.1 4.9 17.6 4.5 142.8 2.5 151.7zm-322.1 63.6c7.8 7.9 10 8.2 58.8 8.2 43.9 0 45.4-.1 51.8-3.4 9.3-4.7 13.4-11.3 13.4-21.9 0-9.5-3.8-16.2-12.3-21.6-4.6-2.9-7.3-3.1-50.3-3.3-26.5-.2-47.7.4-50.8 1.2-16.6 4.7-22.8 28.5-10.6 40.8zM316.3 89.1l-14.9-2.4-77.5-.9c-68.1-.8-87.3.4-90.9 2-7.1 3.1-13.8 11.7-14.9 19.4-1.1 7.3 2.6 17.3 8.2 22.4 7.1 6.4 10.2 6.6 97.3 6.7 89.6.1 89.1.1 97.6-7.8 12.1-11.3 9.5-31.2-4.9-39.4z"/><glyph glyph-name="blogger" unicode="" horiz-adv-x="448" d="M162.4 252c4.8 4.9 6.2 5.1 36.4 5.1 27.2 0 28.1-.1 32.1-2.1 5.8-2.9 8.3-7 8.3-13.6 0-5.9-2.4-10-7.6-13.4-2.8-1.8-4.5-1.9-31.1-2.1-16.4-.1-29.5.2-31.5.8-10.3 2.9-14.1 17.7-6.6 25.3zm61.4-94.5c-53.9 0-55.8-.2-60.2-4.1-3.5-3.1-5.7-9.4-5.1-13.9.7-4.7 4.8-10.1 9.2-12 2.2-1 14.1-1.7 56.3-1.2l47.9.6 9.2 1.5c9 5.1 10.5 17.4 3.1 24.4-5.3 4.7-5 4.7-60.4 4.7zM447.2 27.4c-3.5-28.4-23-50.4-51.1-57.5-7.2-1.8-9.7-1.9-172.9-1.8-157.8 0-165.9.1-172 1.8-8.4 2.2-15.6 5.5-22.3 10-5.6 3.8-13.9 11.8-17 16.4-3.8 5.6-8.2 15.3-10 22C.1 25 0 27.7 0 191.7c0 163.1 0 166.6 1.8 173.7C8.1 390.1 27.7 409 53 414.6c7.3 1.6 332.1 1.9 340 .3 21.2-4.3 37.9-17.1 47.6-36.4 7.7-15.3 7 1.5 7.3-180.6.2-115.8 0-164.5-.7-170.5zm-85.4 185.2c-1.1 5-4.2 9.6-7.7 11.5-1.1.6-8 1.3-15.5 1.7-12.4.6-13.8.8-17.8 3.1-6.2 3.6-7.9 7.6-8 18.3 0 20.4-8.5 39.4-25.3 56.5-12 12.2-25.3 20.5-40.6 25.1-3.6 1.1-11.8 1.5-39.2 1.8-42.9.5-52.5-.4-67.1-6.2-27-10.7-46.3-33.4-53.4-62.4-1.3-5.4-1.6-14.2-1.9-64.3-.4-62.8 0-72.1 4-84.5 9.7-30.7 37.1-53.4 64.6-58.4 9.2-1.7 122.2-2.1 133.7-.5 20.1 2.7 35.9 10.8 50.7 25.9 10.7 10.9 17.4 22.8 21.8 38.5 3.2 10.9 2.9 88.4 1.7 93.9z"/><glyph glyph-name="bluetooth-b" unicode="" horiz-adv-x="320" d="M196.48 187.977l92.626 103.333L143.125 448V241.67l-86.111 86.111-31.406-31.405 108.061-108.399L25.608 79.578l31.406-31.405 86.111 86.111L145.84-64 294.392 84.644 196.48 187.977zm40.86 102.996l-49.977-49.978-.338 100.295 50.315-50.317zM187.363 134.96l49.977-49.978-50.315-50.316.338 100.294z"/><glyph glyph-name="bluetooth" unicode="" horiz-adv-x="448" d="M292.6 276.9L249.7 234l-.3 86 43.2-43.1M249.4 57.1l43.1 43.1-42.9 42.9-.2-86zM416 188.6C416-17 344.1-64 230.9-64S32-17 32 188.6 115.4 448 228.6 448 416 394.1 416 188.6zm-158.5 0l79.4 88.6-125.1 134.3V234.6L138 308.4l-27-26.9 92.7-93-92.7-93 26.9-26.9 73.8 73.8 2.3-170L341.4 99.9l-83.9 88.7z"/><glyph glyph-name="btc" unicode="" horiz-adv-x="384" d="M310.204 205.362c27.73 14.18 45.377 39.39 41.28 81.3-5.358 57.351-52.458 76.573-114.85 81.929V448h-48.528v-77.203c-12.605 0-25.525-.315-38.444-.63V448h-48.528v-79.409c-17.842-.539-38.622-.276-97.37 0v-51.678c38.314.678 58.417 3.14 63.023-21.427V78.057c-2.925-19.492-18.524-16.685-53.255-16.071L3.765 4.32c88.481 0 97.37-.315 97.37-.315V-64h48.528V3.06c13.234-.315 26.154-.315 38.444-.315V-64h48.528V4.005c81.299 4.412 135.647 24.894 142.895 101.467 5.671 61.446-23.32 88.862-69.326 99.89zM150.608 313.447c27.415 0 113.126 8.507 113.126-48.528 0-54.515-85.71-48.212-113.126-48.212v96.74zm0-251.776v106.508c32.772 0 133.127 9.138 133.127-53.255-.001-60.186-100.355-53.253-133.127-53.253z"/><glyph glyph-name="buromobelexperte" unicode="" horiz-adv-x="448" d="M0 416V288h128v128H0zm120-120H8v112h112V296zm40 120V288h128v128H160zm120-120H168v112h112V296zm40 120V288h128v128H320zm120-120H328v112h112V296zM0 256V128h128v128H0zm120-120H8v112h112V136zm40 120V128h128v128H160zm120-120H168v112h112V136zm40 120V128h128v128H320zm120-120H328v112h112V136zM0 96V-32h128V96H0zM120-24H8V88h112V-24zm40 120V-32h128V96H160zM280-24H168V88h112V-24zm40 120V-32h128V96H320z"/><glyph glyph-name="buysellads" unicode="" horiz-adv-x="448" d="M224 297.3l42.9-160.7h-85.8L224 297.3zM448 368V16c0-26.5-21.5-48-48-48H48C21.5-32 0-10.5 0 16v352c0 26.5 21.5 48 48 48h352c26.5 0 48-21.5 48-48zM382.7 42.7l-94.5 298.7H159.8L65.3 42.7H156l111.7 91.6 24.2-91.6h90.8z"/><glyph glyph-name="cc-amazon-pay" unicode="" horiz-adv-x="576" d="M124.7 246.2c.1 11.8 0 23.5 0 35.3v35.3c0 1.3.4 2 1.4 2.7 11.5 8 24.1 12.1 38.2 11.1 12.5-.9 22.7-7 28.1-21.7 3.3-8.9 4.1-18.2 4.1-27.7 0-8.7-.7-17.3-3.4-25.6-5.7-17.8-18.7-24.7-35.7-23.9-11.7.5-21.9 5-31.4 11.7-.9.8-1.4 1.6-1.3 2.8zm154.9-14.6c4.6-1.8 9.3-2 14.1-1.5 11.6 1.2 21.9 5.7 31.3 12.5.9.6 1.3 1.3 1.3 2.5-.1 3.9 0 7.9 0 11.8 0 4-.1 8 0 12 0 1.4-.4 2-1.8 2.2-7 .9-13.9 2.2-20.9 2.9-7 .6-14 .3-20.8-1.9-6.7-2.2-11.7-6.2-13.7-13.1-1.6-5.4-1.6-10.8.1-16.2 1.6-5.5 5.2-9.2 10.4-11.2zM576 368V16c0-26.5-21.5-48-48-48H48C21.5-32 0-10.5 0 16v352c0 26.5 21.5 48 48 48h480c26.5 0 48-21.5 48-48zm-207.5-23.9c.4-1.7.9-3.4 1.6-5.1 16.5-40.6 32.9-81.3 49.5-121.9 1.4-3.5 1.7-6.4.2-9.9-2.8-6.2-4.9-12.6-7.8-18.7-2.6-5.5-6.7-9.5-12.7-11.2-4.2-1.1-8.5-1.3-12.9-.9-2.1.2-4.2.7-6.3.8-2.8.2-4.2-1.1-4.3-4-.1-2.8-.1-5.6 0-8.3.1-4.6 1.6-6.7 6.2-7.5 4.7-.8 9.4-1.6 14.2-1.7 14.3-.3 25.7 5.4 33.1 17.9 2.9 4.9 5.6 10.1 7.7 15.4 19.8 50.1 39.5 100.3 59.2 150.5.6 1.5 1.1 3 1.3 4.6.4 2.4-.7 3.6-3.1 3.7-5.6.1-11.1 0-16.7 0-3.1 0-5.3-1.4-6.4-4.3-.4-1.1-.9-2.3-1.3-3.4l-29.1-83.7c-2.1-6.1-4.2-12.1-6.5-18.6-.4.9-.6 1.4-.8 1.9-10.8 29.9-21.6 59.9-32.4 89.8-1.7 4.7-3.5 9.5-5.3 14.2-.9 2.5-2.7 4-5.4 4-6.4.1-12.8.2-19.2.1-2.2 0-3.3-1.6-2.8-3.7zM242.4 242c1.7-11.7 7.6-20.8 18-26.6 9.9-5.5 20.7-6.2 31.7-4.6 12.7 1.9 23.9 7.3 33.8 15.5.4.3.8.6 1.4 1 .5-3.2.9-6.2 1.5-9.2.5-2.6 2.1-4.3 4.5-4.4 4.6-.1 9.1-.1 13.7 0 2.3.1 3.8 1.6 4 3.9.1.8.1 1.6.1 2.3v88.8c0 3.6-.2 7.2-.7 10.8-1.6 10.8-6.2 19.7-15.9 25.4-5.6 3.3-11.8 5-18.2 5.9-3 .4-6 .7-9.1 1.1h-10c-.8-.1-1.6-.3-2.5-.3-8.2-.4-16.3-1.4-24.2-3.5-5.1-1.3-10-3.2-15-4.9-3-1-4.5-3.2-4.4-6.5.1-2.8-.1-5.6 0-8.3.1-4.1 1.8-5.2 5.7-4.1 6.5 1.7 13.1 3.5 19.7 4.8 10.3 1.9 20.7 2.7 31.1 1.2 5.4-.8 10.5-2.4 14.1-7 3.1-4 4.2-8.8 4.4-13.7.3-6.9.2-13.9.3-20.8 0-.4-.1-.7-.2-1.2-.4 0-.8 0-1.1.1-8.8 2.1-17.7 3.6-26.8 4.1-9.5.5-18.9-.1-27.9-3.2-10.8-3.8-19.5-10.3-24.6-20.8-4.1-8.3-4.6-17-3.4-25.8zM98.7 341.1V165.8c0-.8 0-1.7.1-2.5.2-2.5 1.7-4.1 4.1-4.2 5.9-.1 11.8-.1 17.7 0 2.5 0 4 1.7 4.1 4.1.1.8.1 1.7.1 2.5v60.7c.9-.7 1.4-1.2 1.9-1.6 15-12.5 32.2-16.6 51.1-12.9 17.1 3.4 28.9 13.9 36.7 29.2 5.8 11.6 8.3 24.1 8.7 37 .5 14.3-1 28.4-6.8 41.7-7.1 16.4-18.9 27.3-36.7 30.9-2.7.6-5.5.8-8.2 1.2h-7c-1.2-.2-2.4-.3-3.6-.5-11.7-1.4-22.3-5.8-31.8-12.7-2-1.4-3.9-3-5.9-4.5-.1.5-.3.8-.4 1.2-.4 2.3-.7 4.6-1.1 6.9-.6 3.9-2.5 5.5-6.4 5.6h-9.7c-5.9.1-6.9-1-6.9-6.8zM493.6 109c-2.7.7-5.1 0-7.6-1-43.9-18.4-89.5-30.2-136.8-35.8-14.5-1.7-29.1-2.8-43.7-3.2-26.6-.7-53.2.8-79.6 4.3-17.8 2.4-35.5 5.7-53 9.9-37 8.9-72.7 21.7-106.7 38.8-8.8 4.4-17.4 9.3-26.1 14-3.8 2.1-6.2 1.5-8.2-2.1v-1.7c1.2-1.6 2.2-3.4 3.7-4.8 36-32.2 76.6-56.5 122-72.9 21.9-7.9 44.4-13.7 67.3-17.5 14-2.3 28-3.8 42.2-4.5 3-.1 6-.2 9-.4.7 0 1.4-.2 2.1-.3h17.7c.7.1 1.4.3 2.1.3 14.9.4 29.8 1.8 44.6 4 21.4 3.2 42.4 8.1 62.9 14.7 29.6 9.6 57.7 22.4 83.4 40.1 2.8 1.9 5.7 3.8 8 6.2 4.3 4.4 2.3 10.4-3.3 11.9zm50.4 27.7c-.8 4.2-4 5.8-7.6 7-5.7 1.9-11.6 2.8-17.6 3.3-11 .9-22 .4-32.8-1.6-12-2.2-23.4-6.1-33.5-13.1-1.2-.8-2.4-1.8-3.1-3-.6-.9-.7-2.3-.5-3.4.3-1.3 1.7-1.6 3-1.5.6 0 1.2 0 1.8.1l19.5 2.1c9.6.9 19.2 1.5 28.8.8 4.1-.3 8.1-1.2 12-2.2 4.3-1.1 6.2-4.4 6.4-8.7.3-6.7-1.2-13.1-2.9-19.5-3.5-12.9-8.3-25.4-13.3-37.8-.3-.8-.7-1.7-.8-2.5-.4-2.5 1-4 3.4-3.5 1.4.3 3 1.1 4 2.1 3.7 3.6 7.5 7.2 10.6 11.2 10.7 13.8 17 29.6 20.7 46.6.7 3 1.2 6.1 1.7 9.1.2 4.7.2 9.6.2 14.5z"/><glyph glyph-name="cc-amex" unicode="" horiz-adv-x="576" d="M576 192.6c-37.9.2-44.2.9-54.5-5v5c-45.3 0-53.5 1.7-64.9-5.2v5.2h-78.2v-5.1c-11.4 6.5-21.4 5.1-75.7 5.1V187c-6.3 3.7-14.5 5.6-24.3 5.6h-58c-3.5-3.8-12.5-13.7-15.7-17.2-12.7 14.1-10.5 11.6-15.5 17.2h-83.1v-92.3h82c3.3 3.5 12.9 13.9 16.1 17.4 12.7-14.3 10.3-11.7 15.4-17.4h48.9c0 14.7.1 8.3.1 23 11.5-.2 24.3.2 34.3 6.2 0-13.9-.1-17.1-.1-29.2h39.6c0 18.5.1 7.4.1 25.3 6.2 0 7.7 0 9.4-.1.1-1.3 0 0 0-25.2 152.8 0 145.9-1.1 156.7 4.5v-4.5c34.8 0 54.8-2.2 67.5 6.1V16c0-26.5-21.5-48-48-48H48C21.5-32 0-10.5 0 16v203.7h26.6c4.2 10.1 2.2 5.3 6.4 15.3h19.2c4.2-10 2.2-5.2 6.4-15.3h52.9v11.4c2.2-5 1.1-2.5 5.1-11.4h29.5c2.4 5.5 2.6 5.8 5.1 11.4v-11.4h135.5v25.1c6.4 0 8 .1 9.8-.2 0 0-.2-10.9.1-24.8h66.5v8.9c7.4-5.9 17.4-8.9 29.7-8.9h26.8c4.2 10.1 2.2 5.3 6.4 15.3h19c6.5-15 .2-.5 6.6-15.3h52.8v21.9c11.8-19.7 7.8-12.9 13.2-21.9h41.6v92h-39.9v-18.4c-12.2 20.2-6.3 10.4-11.2 18.4h-43.3v-20.6c-6.2 14.6-4.6 10.8-8.8 20.6h-32.4c-.4 0-2.3-.2-2.3.3h-27.6c-12.8 0-23.1-3.2-30.7-9.3v9.3h-39.9v-5.3c-10.8 6.1-20.7 5.1-64.4 5.3-.1 0-11.6.1-11.6 0h-103c-2.5-6.1-6.8-16.4-12.6-30-2.8 6-11 23.8-13.9 30h-46V291c-7.4 17.4-4.7 11-9 21.1H22.9c-3.4-7.9-13.7-32-23.1-53.9V368c0 26.5 21.5 48 48 48h480c26.5 0 48-21.5 48-48V192.6zm-186.6 80.6c-.3-.2-1.4-2.2-1.4-7.6 0-6 .9-7.7 1.1-7.9.2-.1 1.1-.5 3.4-.5l7.3 16.9c-1.1 0-2.1.1-3.1.1-5.6 0-7-.7-7.3-1zm-19.9-130.9c9.2-3.3 11-9.5 11-18.4l-.1-13.8h-16.6l.1 11.5c0 11.8-3.8 13.8-14.8 13.8h-17.6l-.1-25.3h-16.6l.1 69.3h39.4c13 0 27.1-2.3 27.1-18.7-.1-7.6-4.2-15.3-11.9-18.4zm-6.3 15.4c0 6.4-5.6 7.4-10.7 7.4h-21v-15.6h20.7c5.6 0 11 1.3 11 8.2zm181.7 7.1H575v14.6h-32.9c-12.8 0-23.8-6.6-23.8-20.7 0-33 42.7-12.8 42.7-27.4 0-5.1-4.3-6.4-8.4-6.4h-32l-.1-14.8h32c8.4 0 17.6 1.8 22.5 8.9v25.8c-10.5 13.8-39.3 1.3-39.3 13.5 0 5.8 4.6 6.5 9.2 6.5zm-99.2.3v14.3h-55.2l-.1-69.3h55.2l.1 14.3-38.6.3v13.8H445v14.1h-37.8v12.5h38.5zm42.2-40.1h-32.2l-.1-14.8h32.2c14.8 0 26.2 5.6 26.2 22 0 33.2-42.9 11.2-42.9 26.3 0 5.6 4.9 6.4 9.2 6.4h30.4v14.6h-33.2c-12.8 0-23.5-6.6-23.5-20.7 0-33 42.7-12.5 42.7-27.4-.1-5.4-4.7-6.4-8.8-6.4zm-78.1 158.7c-17.4.3-33.2 4.1-33.2-19.7 0-11.8 2.8-19.9 16.1-19.9h7.4l23.5 54.5h24.8l27.9-65.4v65.4h25.3l29.1-48.1v48.1h16.9v-69H524l-31.2 51.9v-51.9h-33.7l-6.6 15.3h-34.3l-6.4-15.3h-19.2c-22.8 0-33 11.8-33 34 0 23.3 10.5 35.3 34 35.3h16.1v-15.2zm14.3-24.5h22.8l-11.2 27.6-11.6-27.6zm-72.6 39.6h-16.9v-69.3h16.9v69.3zm-38.1-37.3c9.5-3.3 11-9.2 11-18.4v-13.5h-16.6c-.3 14.8 3.6 25.1-14.8 25.1h-18v-25.1h-16.4v69.3l39.1-.3c13.3 0 27.4-2 27.4-18.4.1-8-4.3-15.7-11.7-18.7zm-6.7 15.3c0 6.4-5.6 7.4-10.7 7.4h-21v-15.3h20.7c5.7 0 11 1.3 11 7.9zm-59.5 7.4v14.6h-55.5v-69.3h55.5v14.3h-38.9v13.8h37.8v14.1h-37.8v12.5h38.9zm-84.6-54.7v54.2l-24-54.2H124l-24 54.2v-54.2H66.2l-6.4 15.3H25.3l-6.4-15.3H1l29.7 69.3h24.5l28.1-65.7v65.7h27.1l21.7-47 19.7 47h27.6v-69.3h-16.8zM53.9 259.2l-11.5 27.6-11.2-27.6h22.7zm253-102.5c0-27.9-30.4-23.3-49.3-23.3l-.1-23.3h-32.2l-20.4 23-21.3-23h-65.4l.1 69.3h66.5l20.5-22.8 21 22.8H279c15.6 0 27.9-5.4 27.9-22.7zm-112.7-11.8l-17.9 20.2h-41.7v-12.5h36.3v-14.1h-36.3v-13.8h40.6l19 20.2zM241 172l-25.3-27.4 25.3-28.1V172zm48.3-15.3c0 6.1-4.6 8.4-10.2 8.4h-21.5v-17.6h21.2c5.9 0 10.5 2.8 10.5 9.2z"/><glyph glyph-name="cc-apple-pay" unicode="" horiz-adv-x="576" d="M302.2 229.6c0-17.2-10.5-27.1-29-27.1h-24.3v54.2h24.4c18.4 0 28.9-9.8 28.9-27.1zm47.5-62.6c0-8.3 7.2-13.7 18.5-13.7 14.4 0 25.2 9.1 25.2 21.9v7.7l-23.5-1.5c-13.3-.9-20.2-5.8-20.2-14.4zM576 369V17c0-26.5-21.5-48-48-48H48C21.5-31 0-9.5 0 17v352c0 26.5 21.5 48 48 48h480c26.5 0 48-21.5 48-48zM127.8 250.8c8.4-.7 16.8 4.2 22.1 10.4 5.2 6.4 8.6 15 7.7 23.7-7.4-.3-16.6-4.9-21.9-11.3-4.8-5.5-8.9-14.4-7.9-22.8zm60.6-74.5c-.2.2-19.6 7.6-19.8 30-.2 18.7 15.3 27.7 16 28.2-8.8 13-22.4 14.4-27.1 14.7-12.2.7-22.6-6.9-28.4-6.9-5.9 0-14.7 6.6-24.3 6.4-12.5-.2-24.2-7.3-30.5-18.6-13.1-22.6-3.4-56 9.3-74.4 6.2-9.1 13.7-19.1 23.5-18.7 9.3.4 13 6 24.2 6 11.3 0 14.5-6 24.3-5.9 10.2.2 16.5 9.1 22.8 18.2 6.9 10.4 9.8 20.4 10 21zm135.4 53.4c0 26.6-18.5 44.8-44.9 44.8h-51.2V138.1h21.2v46.6h29.3c26.8 0 45.6 18.4 45.6 45zm90-23.7c0 19.7-15.8 32.4-40 32.4-22.5 0-39.1-12.9-39.7-30.5h19.1c1.6 8.4 9.4 13.9 20 13.9 13 0 20.2-6 20.2-17.2v-7.5l-26.4-1.6c-24.6-1.5-37.9-11.6-37.9-29.1 0-17.7 13.7-29.4 33.4-29.4 13.3 0 25.6 6.7 31.2 17.4h.4V138h19.6v68zM516 237.1h-21.5l-24.9-80.6h-.4l-24.9 80.6H422l35.9-99.3-1.9-6c-3.2-10.2-8.5-14.2-17.9-14.2-1.7 0-4.9.2-6.2.3v-16.4c1.2-.4 6.5-.5 8.1-.5 20.7 0 30.4 7.9 38.9 31.8L516 237.1z"/><glyph glyph-name="cc-diners-club" unicode="" horiz-adv-x="576" d="M239.7 368.1c-96.9 0-175.8-78.6-175.8-175.8 0-96.9 78.9-175.8 175.8-175.8 97.2 0 175.8 78.9 175.8 175.8 0 97.2-78.6 175.8-175.8 175.8zM199.8 88.5c-41.7 15.9-71.4 56.4-71.4 103.8s29.7 87.9 71.4 104.1V88.5zm79.8-.3v208.2c41.7-16.2 71.4-56.7 71.4-104.1s-29.7-87.9-71.4-104.1zM528 416H48c-26.5 0-48-21.5-48-48V16c0-26.5 21.5-48 48-48h480c26.5 0 48 21.5 48 48v352c0 26.5-21.5 48-48 48zM329.7 0h-90.3C133.2 0 45.6 85.5 45.6 190.2c0 114.6 87.6 193.8 193.8 193.8h90.3c105 0 200.7-79.2 200.7-193.8C530.4 85.5 434.7 0 329.7 0z"/><glyph glyph-name="cc-discover" unicode="" horiz-adv-x="576" d="M83 235.9c0-7.9-3.2-15.5-8.9-20.7-4.9-4.4-11.6-6.4-21.9-6.4H48V263h4.2c10.3 0 16.7-1.7 21.9-6.6 5.7-5 8.9-12.6 8.9-20.5zM504.8 264h-4.9v-24.9h4.7c10.3 0 15.8 4.4 15.8 12.8 0 7.9-5.5 12.1-15.6 12.1zM576 368V16c0-26.5-21.5-48-48-48H48C21.5-32 0-10.5 0 16v352c0 26.5 21.5 48 48 48h480c26.5 0 48-21.5 48-48zM428 195h45.3v13.8H444V231h28.3v13.8H444V263h29.3v14H428v-82zm-86.2 82l35-84.2h8.6l35.5 84.2h-17.5l-22.2-55.2-21.9 55.2h-17.5zm-83-41.6c0-24.6 19.9-44.6 44.6-44.6 24.6 0 44.6 19.9 44.6 44.6 0 24.6-19.9 44.6-44.6 44.6-24.6 0-44.6-19.9-44.6-44.6zm-68 .5c0-32.5 33.6-52.5 63.3-38.2v19c-19.3-19.3-46.8-5.8-46.8 19.2 0 23.7 26.7 39.1 46.8 19v19c-30.2 15-63.3-6.8-63.3-38zm-33.9-28.3c-7.6 0-13.8 3.7-17.5 10.8l-10.3-9.9c17.8-26.1 56.6-18.2 56.6 11.3 0 13.1-5.4 19-23.6 25.6-9.6 3.4-12.3 5.9-12.3 10.3 0 8.7 14.5 14.1 24.9 2.5l8.4 10.8c-19.1 17.1-49.7 8.9-49.7-14.3 0-11.3 5.2-17.2 20.2-22.7 25.7-9.1 14.7-24.4 3.3-24.4zm-57.4 28.3c0 24.1-18 41.1-44.1 41.1H32v-82h23.4c30.9 0 44.1 22.4 44.1 40.9zm23.4 41.1h-16v-82h16v82zM544 160C510.7 139.2 317.6 35.6 128 0h401c8.2 0 15 6.8 15 15v145zm0 35l-25.9 34.5c12.1 2.5 18.7 10.6 18.7 23.2 0 28.5-30.3 24.4-52.9 24.4v-82h16v32.8h2.2l22.2-32.8H544z"/><glyph glyph-name="cc-jcb" unicode="" horiz-adv-x="576" d="M431.5 203.7V236c41.2 0 38.5-.2 38.5-.2 7.3-1.3 13.3-7.3 13.3-16 0-8.8-6-14.5-13.3-15.8-1.2-.4-3.3-.3-38.5-.3zm42.8-20.2c-2.8.7-3.3.5-42.8.5v-35c39.6 0 40-.2 42.8.5 7.5 1.5 13.5 8 13.5 17 0 8.7-6 15.5-13.5 17zM576 368V16c0-26.5-21.5-48-48-48H48C21.5-32 0-10.5 0 16v352c0 26.5 21.5 48 48 48h480c26.5 0 48-21.5 48-48zM182 255.7h-57c0-67.1 10.7-109.7-35.8-109.7-19.5 0-38.8 5.7-57.2 14.8v-28c30-8.3 68-8.3 68-8.3 97.9 0 82 47.7 82 131.2zm178.5-4.5c-63.4 16-165 14.9-165-59.3 0-77.1 108.2-73.6 165-59.2V161C312.9 136.3 253 139 253 192s59.8 55.6 107.5 31.2v28zM544 161.5c0 18.5-16.5 30.5-38 32v.8c19.5 2.7 30.3 15.5 30.3 30.2 0 19-15.7 30-37 31 0 0 6.3.3-120.3.3V128.3h122.7c24.3-.1 42.3 12.9 42.3 33.2z"/><glyph glyph-name="cc-mastercard" unicode="" horiz-adv-x="576" d="M482.9 37.7c0-6.8-4.6-11.7-11.2-11.7-6.8 0-11.2 5.2-11.2 11.7 0 6.5 4.4 11.7 11.2 11.7 6.6 0 11.2-5.2 11.2-11.7zM172.1 49.4c-7.1 0-11.2-5.2-11.2-11.7 0-6.5 4.1-11.7 11.2-11.7 6.5 0 10.9 4.9 10.9 11.7-.1 6.5-4.4 11.7-10.9 11.7zm117.5.3c-5.4 0-8.7-3.5-9.5-8.7h19.1c-.9 5.7-4.4 8.7-9.6 8.7zm107.8-.3c-6.8 0-10.9-5.2-10.9-11.7 0-6.5 4.1-11.7 10.9-11.7 6.8 0 11.2 4.9 11.2 11.7 0 6.5-4.4 11.7-11.2 11.7zm105.9-26.1c0-.3.3-.5.3-1.1 0-.3-.3-.5-.3-1.1-.3-.3-.3-.5-.5-.8-.3-.3-.5-.5-1.1-.5-.3-.3-.5-.3-1.1-.3-.3 0-.5 0-1.1.3-.3 0-.5.3-.8.5-.3.3-.5.5-.5.8-.3.5-.3.8-.3 1.1 0 .5 0 .8.3 1.1 0 .5.3.8.5 1.1.3.3.5.3.8.5.5.3.8.3 1.1.3.5 0 .8 0 1.1-.3.5-.3.8-.3 1.1-.5s.2-.6.5-1.1zm-2.2-1.4c.5 0 .5.3.8.3.3.3.3.5.3.8 0 .3 0 .5-.3.8-.3 0-.5.3-1.1.3h-1.6v-3.5h.8V22h.3l1.1-1.4h.8l-1.1 1.3zM576 367V15c0-26.5-21.5-48-48-48H48C21.5-33 0-11.5 0 15v352c0 26.5 21.5 48 48 48h480c26.5 0 48-21.5 48-48zM64 227.4c0-76.5 62.1-138.5 138.5-138.5 27.2 0 53.9 8.2 76.5 23.1-72.9 59.3-72.4 171.2 0 230.5-22.6 15-49.3 23.1-76.5 23.1-76.4.1-138.5-62-138.5-138.2zm224-108.8c70.5 55 70.2 162.2 0 217.5-70.2-55.3-70.5-162.6 0-217.5zM145.7 42.3c0 8.7-5.7 14.4-14.7 14.7-4.6 0-9.5-1.4-12.8-6.5-2.4 4.1-6.5 6.5-12.2 6.5-3.8 0-7.6-1.4-10.6-5.4V56h-8.2V19.3h8.2c0 18.9-2.5 30.2 9 30.2 10.2 0 8.2-10.2 8.2-30.2h7.9c0 18.3-2.5 30.2 9 30.2 10.2 0 8.2-10 8.2-30.2h8.2v23zM190.6 56h-7.9v-4.4C180 54.9 176.2 57 171 57c-10.3 0-18.2-8.2-18.2-19.3 0-11.2 7.9-19.3 18.2-19.3 5.2 0 9 1.9 11.7 5.4v-4.6h7.9V56zm40.5-25.6c0 15-22.9 8.2-22.9 15.2 0 5.7 11.9 4.8 18.5 1.1l3.3 6.5c-9.4 6.1-30.2 6-30.2-8.2 0-14.3 22.9-8.3 22.9-15 0-6.3-13.5-5.8-20.7-.8l-3.5-6.3c11.2-7.6 32.6-6 32.6 7.5zm35.4-9.3l-2.2 6.8c-3.8-2.1-12.2-4.4-12.2 4.1v16.6h13.1V56h-13.1v11.2h-8.2V56h-7.6v-7.3h7.6V32c0-17.6 17.3-14.4 22.6-10.9zm13.3 13.4h27.5c0 16.2-7.4 22.6-17.4 22.6-10.6 0-18.2-7.9-18.2-19.3 0-20.5 22.6-23.9 33.8-14.2l-3.8 6c-7.8-6.4-19.6-5.8-21.9 4.9zM338.9 56c-4.6 2-11.6 1.8-15.2-4.4V56h-8.2V19.3h8.2V40c0 11.6 9.5 10.1 12.8 8.4l2.4 7.6zm10.6-18.3c0 11.4 11.6 15.1 20.7 8.4l3.8 6.5c-11.6 9.1-32.7 4.1-32.7-15 0-19.8 22.4-23.8 32.7-15l-3.8 6.5c-9.2-6.5-20.7-2.6-20.7 8.6zM416.2 56H408v-4.4c-8.3 11-29.9 4.8-29.9-13.9 0-19.2 22.4-24.7 29.9-13.9v-4.6h8.2V56zm33.7 0c-2.4 1.2-11 2.9-15.2-4.4V56h-7.9V19.3h7.9V40c0 11 9 10.3 12.8 8.4l2.4 7.6zm40.3 14.9h-7.9V51.6c-8.2 10.9-29.9 5.1-29.9-13.9 0-19.4 22.5-24.6 29.9-13.9v-4.6h7.9v51.7zm7.6 75.1v-4.6h.8v4.6h1.9v.8h-4.6v-.8h1.9zm6.6-123.8c0 .5 0 1.1-.3 1.6-.3.3-.5.8-.8 1.1-.3.3-.8.5-1.1.8-.5 0-1.1.3-1.6.3-.3 0-.8-.3-1.4-.3-.5-.3-.8-.5-1.1-.8-.5-.3-.8-.8-.8-1.1-.3-.5-.3-1.1-.3-1.6 0-.3 0-.8.3-1.4 0-.3.3-.8.8-1.1.3-.3.5-.5 1.1-.8.5-.3 1.1-.3 1.4-.3.5 0 1.1 0 1.6.3.3.3.8.5 1.1.8.3.3.5.8.8 1.1.3.6.3 1.1.3 1.4zm3.2 124.7h-1.4l-1.6-3.5-1.6 3.5h-1.4v-5.4h.8v4.1l1.6-3.5h1.1l1.4 3.5v-4.1h1.1v5.4zm4.4 80.5c0 76.2-62.1 138.3-138.5 138.3-27.2 0-53.9-8.2-76.5-23.1 72.1-59.3 73.2-171.5 0-230.5 22.6-15 49.5-23.1 76.5-23.1 76.4-.1 138.5 61.9 138.5 138.4z"/><glyph glyph-name="cc-paypal" unicode="" horiz-adv-x="576" d="M186.3 189.8c0-12.2-9.7-21.5-22-21.5-9.2 0-16 5.2-16 15 0 12.2 9.5 22 21.7 22 9.3 0 16.3-5.7 16.3-15.5zM80.5 238.3h-4.7c-1.5 0-3-1-3.2-2.7l-4.3-26.7 8.2.3c11 0 19.5 1.5 21.5 14.2 2.3 13.4-6.2 14.9-17.5 14.9zm284 0H360c-1.8 0-3-1-3.2-2.7l-4.2-26.7 8 .3c13 0 22 3 22 18-.1 10.6-9.6 11.1-18.1 11.1zM576 368V16c0-26.5-21.5-48-48-48H48C21.5-32 0-10.5 0 16v352c0 26.5 21.5 48 48 48h480c26.5 0 48-21.5 48-48zM128.3 232.6c0 21-16.2 28-34.7 28h-40c-2.5 0-5-2-5.2-4.7L32 153.8c-.3-2 1.2-4 3.2-4h19c2.7 0 5.2 2.9 5.5 5.7l4.5 26.6c1 7.2 13.2 4.7 18 4.7 28.6 0 46.1 17 46.1 45.8zm84.2-8.8h-19c-3.8 0-4-5.5-4.2-8.2-5.8 8.5-14.2 10-23.7 10-24.5 0-43.2-21.5-43.2-45.2 0-19.5 12.2-32.2 31.7-32.2 9 0 20.2 4.9 26.5 11.9-.5-1.5-1-4.7-1-6.2 0-2.3 1-4 3.2-4H200c2.7 0 5 2.9 5.5 5.7l10.2 64.3c.3 1.9-1.2 3.9-3.2 3.9zm40.5-97.9l63.7 92.6c.5.5.5 1 .5 1.7 0 1.7-1.5 3.5-3.2 3.5h-19.2c-1.7 0-3.5-1-4.5-2.5l-26.5-39-11 37.5c-.8 2.2-3 4-5.5 4h-18.7c-1.7 0-3.2-1.8-3.2-3.5 0-1.2 19.5-56.8 21.2-62.1-2.7-3.8-20.5-28.6-20.5-31.6 0-1.8 1.5-3.2 3.2-3.2h19.2c1.8.1 3.5 1.1 4.5 2.6zm159.3 106.7c0 21-16.2 28-34.7 28h-39.7c-2.7 0-5.2-2-5.5-4.7l-16.2-102c-.2-2 1.3-4 3.2-4h20.5c2 0 3.5 1.5 4 3.2l4.5 29c1 7.2 13.2 4.7 18 4.7 28.4 0 45.9 17 45.9 45.8zm84.2-8.8h-19c-3.8 0-4-5.5-4.3-8.2-5.5 8.5-14 10-23.7 10-24.5 0-43.2-21.5-43.2-45.2 0-19.5 12.2-32.2 31.7-32.2 9.3 0 20.5 4.9 26.5 11.9-.3-1.5-1-4.7-1-6.2 0-2.3 1-4 3.2-4H484c2.7 0 5 2.9 5.5 5.7l10.2 64.3c.3 1.9-1.2 3.9-3.2 3.9zm47.5 33.3c0 2-1.5 3.5-3.2 3.5h-18.5c-1.5 0-3-1.2-3.2-2.7l-16.2-104-.3-.5c0-1.8 1.5-3.5 3.5-3.5h16.5c2.5 0 5 2.9 5.2 5.7L544 256.8v.3zm-90-51.8c-12.2 0-21.7-9.7-21.7-22 0-9.7 7-15 16.2-15 12 0 21.7 9.2 21.7 21.5.1 9.8-6.9 15.5-16.2 15.5z"/><glyph glyph-name="cc-stripe" unicode="" horiz-adv-x="576" d="M396.9 191.5c0-19.1-8.8-33.4-21.9-33.4-8.3 0-13.3 3-16.8 6.7l-.2 52.8c3.7 4.1 8.8 7 17 7 12.9.1 21.9-14.5 21.9-33.1zM576 368V16c0-26.5-21.5-48-48-48H48C21.5-32 0-10.5 0 16v352c0 26.5 21.5 48 48 48h480c26.5 0 48-21.5 48-48zM122.2 166.9c0 42.3-54.3 34.7-54.3 50.7 0 5.5 4.6 7.7 12.1 7.7 10.8 0 24.5-3.3 35.3-9.1v33.4c-11.8 4.7-23.5 6.5-35.3 6.5-28.8 0-48-15-48-40.2 0-39.3 54-32.9 54-49.9 0-6.6-5.7-8.7-13.6-8.7-11.8 0-26.9 4.9-38.9 11.3v-33.9c13.2-5.7 26.6-8.1 38.8-8.1 29.6.2 49.9 14.7 49.9 40.3zm68.9 86.9h-27v30.8l-34.7-7.4-.2-113.9c0-21 15.8-36.5 36.9-36.5 11.6 0 20.2 2.1 24.9 4.7v28.9c-4.5-1.8-27-8.3-27 12.6v50.5h27v30.3zm73.8 0c-4.7 1.7-21.3 4.8-29.6-10.5l-2.2 10.5h-30.7V129.3h35.5v84.4c8.4 11 22.6 8.9 27.1 7.4v32.7zm44.2 0h-35.7V129.3h35.7v124.5zm0 47.3l-35.7-7.6v-28.9l35.7 7.6v28.9zm122.7-108.8c0 41.3-23.5 63.8-48.4 63.8-13.9 0-22.9-6.6-27.8-11.1l-1.8 8.8h-31.3V88l35.5 7.5.1 40.2c5.1-3.7 12.7-9 25.1-9 25.4.1 48.6 20.5 48.6 65.6zm112.2-1.2c0 36.4-17.6 65.1-51.3 65.1-33.8 0-54.3-28.7-54.3-64.9 0-42.8 24.2-64.5 58.8-64.5 17 0 29.7 3.9 39.4 9.2v28.6c-9.7-4.9-20.8-7.9-34.9-7.9-13.8 0-26 4.9-27.6 21.5h69.5c.1 2 .4 9.4.4 12.9zm-51.6 36.1c-8.9 0-18.7-6.7-18.7-22.7h36.7c0 16-9.3 22.7-18 22.7z"/><glyph glyph-name="cc-visa" unicode="" horiz-adv-x="576" d="M470.1 216.7s7.6-37.2 9.3-45H446c3.3 8.9 16 43.5 16 43.5-.2-.3 3.3 9.1 5.3 14.9l2.8-13.4zM576 368V16c0-26.5-21.5-48-48-48H48C21.5-32 0-10.5 0 16v352c0 26.5 21.5 48 48 48h480c26.5 0 48-21.5 48-48zM152.5 116.8L215.7 272h-42.5l-39.3-106-4.3 21.5-14 71.4c-2.3 9.9-9.4 12.7-18.2 13.1H32.7l-.7-3.1c15.8-4 29.9-9.8 42.2-17.1l35.8-135h42.5zm94.4-.2L272.1 272h-40.2l-25.1-155.4h40.1zm139.9 50.8c.2 17.7-10.6 31.2-33.7 42.3-14.1 7.1-22.7 11.9-22.7 19.2.2 6.6 7.3 13.4 23.1 13.4 13.1.3 22.7-2.8 29.9-5.9l3.6-1.7 5.5 33.6c-7.9 3.1-20.5 6.6-36 6.6-39.7 0-67.6-21.2-67.8-51.4-.3-22.3 20-34.7 35.2-42.2 15.5-7.6 20.8-12.6 20.8-19.3-.2-10.4-12.6-15.2-24.1-15.2-16 0-24.6 2.5-37.7 8.3l-5.3 2.5-5.6-34.9c9.4-4.3 26.8-8.1 44.8-8.3 42.2-.1 69.7 20.8 70 53zM528 116.6L495.6 272h-31.1c-9.6 0-16.9-2.8-21-12.9l-59.7-142.5H426s6.9 19.2 8.4 23.3H486c1.2-5.5 4.8-23.3 4.8-23.3H528z"/><glyph glyph-name="centercode" unicode="" horiz-adv-x="512" d="M329.2 179.4c-3.8-35.2-35.4-60.6-70.6-56.8-35.2 3.8-60.6 35.4-56.8 70.6 3.8 35.2 35.4 60.6 70.6 56.8 35.1-3.8 60.6-35.4 56.8-70.6zM243.4-55.7C96.7-48-8.2 82.5 10.1 223.7c11.2 86.6 65.8 156.9 139.1 192 161 77.1 349.7-37.4 354.7-216.6C508 52.1 385.5-63.1 243.4-55.7zm179.9 180c27.9 118-160.5 205.9-237.2 234.2-57.5-56.3-69.1-188.6-33.8-344.4 68.8-15.8 169.1 26.4 271 110.2z"/><glyph glyph-name="chrome" unicode="" horiz-adv-x="496" d="M131.5 230.5L55.1 347.9c47.6 59.2 119 91.8 192 92.1 42.3.3 85.5-10.5 124.8-33.2 43.4-25.2 76.4-61.4 97.4-103L264 314.6c-58.1 3.4-113.4-29.3-132.5-84.1zm32.9-38.5c0-46.2 37.4-83.6 83.6-83.6s83.6 37.4 83.6 83.6-37.4 83.6-83.6 83.6-83.6-37.3-83.6-83.6zm314.9 89.2L339.6 274c37.9-44.3 38.5-108.2 6.6-157.2L234.1-55.6c46.5-2.5 94.4 7.7 137.8 32.9 107.4 62 150.9 192 107.4 303.9zM133.7 144.4L40.4 327.9C14.9 288.9 0 242.1 0 192 0 68 90.8-34.7 209.5-52.9l63.7 124.8C215.6 61.1 160 92.7 133.7 144.4z"/><glyph glyph-name="cloudscale" unicode="" horiz-adv-x="448" d="M318.1 294l-9.4-7.6c-22.5 19.3-51.5 33.6-83.3 33.6C153.8 320 96 259.2 96 187.7c0-6.6.4-13.1 1.4-19.4-2 56 41.8 97.4 92.6 97.4 24.2 0 46.2-9.4 62.6-24.7l-25.2-20.4c-8.3.9-16.8-1.8-23.1-8.1-11.1-11-11.1-28.9 0-40 11.1-11 28.9-11 40 0 6.3 6.3 9 14.9 8.1 23.1l75.2 88.8c6.3 6.5-3.3 15.9-9.5 9.6zm-83.8-111.5c-5.6-5.5-14.6-5.5-20.2 0-5.6 5.6-5.6 14.6 0 20.2s14.6 5.6 20.2 0 5.6-14.7 0-20.2zM224 416C100.5 416 0 315.5 0 192S100.5-32 224-32 448 68.5 448 192 347.5 416 224 416zm0-384c-88.2 0-160 71.8-160 160s71.8 160 160 160 160-71.8 160-160S312.2 32 224 32z"/><glyph glyph-name="cloudsmith" unicode="" horiz-adv-x="332" d="M332.5 28.1c0-46.4-37.6-84.1-84-84.1s-84 37.7-84 84.1 37.6 84 84 84 84-37.6 84-84zm-84 243.9c46.4 0 80 37.6 80 84s-33.6 84-80 84-88-37.6-88-84-29.6-76-76-76-84-41.6-84-88 37.6-80 84-80 84 33.6 84 80 33.6 80 80 80z"/><glyph glyph-name="cloudversify" unicode="" horiz-adv-x="616" d="M148.6 144c8.2-68.5 67.4-115.5 146-111.3 51.2-43.3 136.8-45.8 186.4 5.6 69.2-1.1 118.5 44.6 131.5 99.5 14.8 62.5-18.2 132.5-92.1 155.1-33 88.1-131.4 101.5-186.5 85-57.3-17.3-84.3-53.2-99.3-109.7-7.8-2.7-26.5-8.9-45-24.1 11.7 0 15.2-8.9 15.2-19.5v-20.4c0-10.7-8.7-19.5-19.5-19.5h-20.2c-10.7 0-19.5 6-19.5 16.7v6.6H98.8C95 208 88 203.7 88 196.1v-40.4c0-6.4 5.3-11.8 11.7-11.8h48.9zm227.4-8c-10.7-46.3 21.7-72.4 55.3-86.8C324.1 15.4 259.7 100 296 160c-33.2-21.6-33.7-71.2-29.2-92.9-17.9 12.4-53.8 32.4-57.4 79.8-3 39.9 21.5 75.7 57 93.9C297 256.6 369.9 249.3 400 200c-14.1 48-53.8 70.1-101.8 74.8 30.9 30.7 64.4 50.3 114.2 43.7 69.8-9.3 133.2-82.8 67.7-150.5 35 16.3 48.7 54.4 47.5 76.9l10.5-19.6c11.8-22 15.2-47.6 9.4-72-9.2-39-40.6-68.8-79.7-76.5-32.1-6.3-83.1 5.1-91.8 59.2zM128 240H88.2c-8.9 0-16.2 7.3-16.2 16.2v39.6c0 8.9 7.3 16.2 16.2 16.2H128c8.9 0 16.2-7.3 16.2-16.2v-39.6c0-8.9-7.3-16.2-16.2-16.2zM10.1 280C4.5 280 0 284.5 0 290.1v27.8c0 5.6 4.5 10.1 10.1 10.1h27.7c5.5 0 10.1-4.5 10.1-10.1v-27.8c0-5.6-4.5-10.1-10.1-10.1H10.1zM168 305.3v21.4c0 5.1 4.2 9.3 9.3 9.3h21.4c5.1 0 9.3-4.2 9.3-9.3v-21.4c0-5.1-4.2-9.3-9.3-9.3h-21.4c-5.1 0-9.3 4.2-9.3 9.3zM56 212.5v-25c0-6.3-5.1-11.5-11.4-11.5H19.4C13.1 176 8 181.2 8 187.5v25c0 6.3 5.1 11.5 11.4 11.5h25.1c6.4 0 11.5-5.2 11.5-11.5z"/><glyph glyph-name="codepen" unicode="" horiz-adv-x="512" d="M502.285 288.296l-234 156c-7.987 4.915-16.511 4.96-24.571 0l-234-156C3.714 284.297 0 277.153 0 270.011V114.012c0-7.143 3.714-14.286 9.715-18.286l234-156.022c7.987-4.915 16.511-4.96 24.571 0l234 156.022c6 3.999 9.715 11.143 9.715 18.286v155.999c-.001 7.142-3.715 14.286-9.716 18.285zM278 384.869l172.286-114.858-76.857-51.429L278 282.297v102.572zm-44 0V282.297l-95.429-63.715-76.857 51.429L234 384.869zM44 228.868l55.143-36.857L44 155.154v73.714zM234-.847L61.714 114.011l76.857 51.429L234 101.725V-.847zm22 140.858l-77.715 52 77.715 52 77.715-52-77.715-52zM278-.847v102.572l95.429 63.715 76.857-51.429L278-.847zm190 156.001l-55.143 36.857L468 228.868v-73.714z"/><glyph glyph-name="codiepie" unicode="" horiz-adv-x="472" d="M422.5 245.1c30.7 0 33.5-53.1-.3-53.1h-10.8v-44.3h-26.6v97.4h37.7zM472 95.4C429.9 3.5 350.4-56 248-56 111-56 0 55 0 192s111 248 248 248c97.4 0 172.8-53.7 218.2-138.4l-186-108.8L472 95.4zm-38.5-12.5l-60.3 30.7c-27.1-44.3-70.4-71.4-122.4-71.4-82.5 0-149.2 66.7-149.2 148.9 0 82.5 66.7 149.2 149.2 149.2 48.4 0 88.9-23.5 116.9-63.4l59.5 34.6c-40.7 62.6-104.7 100-179.2 100-121.2 0-219.5-98.3-219.5-219.5S126.8-27.5 248-27.5c78.6 0 146.5 42.1 185.5 110.4z"/><glyph glyph-name="connectdevelop" unicode="" horiz-adv-x="576" d="M550.5 207l-50.089 86.786c1.071 2.142 1.875 4.553 1.875 7.232 0 8.036-6.696 14.733-14.732 15.001l-55.447 95.893c.536 1.607 1.071 3.214 1.071 4.821 0 8.571-6.964 15.268-15.268 15.268-4.821 0-8.839-2.143-11.786-5.625H299.518C296.839 429.857 292.821 432 288 432s-8.839-2.143-11.518-5.625H170.411c-2.947 3.482-6.964 5.625-11.786 5.625-8.303 0-15.268-6.696-15.268-15.268 0-1.607.536-3.482 1.072-4.821l-55.983-97.233c-5.356-2.41-9.107-7.5-9.107-13.661 0-.535.268-1.071.268-1.607l-53.304-92.143c-7.232-1.339-12.59-7.5-12.59-15 0-7.232 5.089-13.393 12.054-15l55.179-95.358c-.536-1.607-.804-2.946-.804-4.821 0-7.232 5.089-13.393 12.054-14.732l51.697-89.732c-.536-1.607-1.071-3.482-1.071-5.357 0-8.571 6.964-15.268 15.268-15.268 4.821 0 8.839 2.143 11.518 5.357h106.875C279.161-45.857 283.447-48 288-48s8.839 2.143 11.518 5.357h107.143c2.678-2.946 6.696-4.821 10.982-4.821 8.571 0 15.268 6.964 15.268 15.268 0 1.607-.267 2.946-.803 4.285l51.697 90.268c6.964 1.339 12.054 7.5 12.054 14.732 0 1.607-.268 3.214-.804 4.821l54.911 95.358c6.964 1.339 12.322 7.5 12.322 15-.002 7.232-5.092 13.393-11.788 14.732zM153.535-2.732l-43.66 75.803h43.66V-2.732zm0 83.839h-43.66c-.268 1.071-.804 2.142-1.339 3.214l44.999 47.41V81.107zm0 62.411l-50.357-53.304c-1.339.536-2.679 1.34-4.018 1.607L43.447 188.25c.535 1.339.535 2.679.535 4.018s0 2.41-.268 3.482l51.965 90c2.679.268 5.357 1.072 7.768 2.679l50.089-51.965v-92.946zm0 102.322l-45.803 47.41c1.339 2.143 2.143 4.821 2.143 7.767 0 .268-.268.804-.268 1.072l43.928 15.804V245.84zm0 80.625l-43.66-15.804 43.66 75.536v-59.732zm326.519-39.108l.804-1.339L445.5 118.875l-63.75 67.232 98.036 101.518.268-.268zM291.75 92.893l11.518-11.786H280.5l11.25 11.786zm-.268 11.25l-83.303 85.446 79.553 84.375 83.036-87.589-79.286-82.232zm5.357-5.893l79.286 82.232 67.5-71.25-5.892-28.125H313.714L296.839 98.25zm113.572 305.357c1.071-.536 2.142-1.072 3.482-1.34l57.857-100.714v-.536c0-2.946.803-5.624 2.143-7.767L376.393 192l-83.035 87.589 117.053 124.018zm-9.107 2.143L287.732 285.482l-57.054 60.268 166.339 60h4.287zm-123.483 0c2.678-2.678 6.16-4.285 10.179-4.285s7.5 1.607 10.179 4.285h75l-148.393-53.571-50.893 53.571h103.928zm-116.249-5.625l1.071 2.142a33.834 33.834 0 0 1 2.679.804l51.161-53.84-54.911-19.821v70.715zm0-79.286l60.803 21.964 59.732-63.214-79.553-84.107-40.982 42.053v83.304zm0-92.678L198 190.393l-36.428-38.304v76.072zm0-87.858l42.053 44.464 82.768-85.982-17.143-17.678H161.572v59.196zm6.964-162.053c-1.607 1.607-3.482 2.678-5.893 3.482l-1.071 1.607v89.732h99.91L169.875-21.75h-1.339zm129.911 0c-2.679 2.41-6.428 4.285-10.447 4.285s-7.767-1.875-10.447-4.285h-96.429l91.607 94.821h38.304l91.607-94.821H298.447zm120 11.786l-4.286-7.5c-1.339-.268-2.41-.803-3.482-1.339l-89.196 91.875h114.376L418.447-9.964zm12.856 22.232l12.858 60.803h21.964l-34.822-60.803zm34.822 68.839h-20.357l4.553 21.16 17.143-18.214c-.535-.803-1.071-1.874-1.339-2.946zm66.161 107.411l-55.447-96.697c-1.339-.535-2.679-1.071-4.018-1.874l-20.625 21.964 34.554 163.928 45.803-79.286c-.267-1.339-.803-2.678-.803-4.285 0-1.339.268-2.411.536-3.75z"/><glyph glyph-name="contao" unicode="" horiz-adv-x="512" d="M45.4 143C59.8 75.9 71.8 14 113.6-32H34C15.3-32 0-16.8 0 2v380c0 18.7 15.2 34 34 34h57.7c-13.8-12.6-26.1-27.2-36.9-43.6-45.4-70-27-146.8-9.4-229.4zM478 416h-90.2c21.4-21.4 39.2-49.5 52.7-84.1l-137.1-29.3c-14.9 29-37.8 53.3-82.6 43.9-24.6-5.3-41-19.3-48.3-34.6-8.8-18.7-13.2-39.8 8.2-140.3 21.1-100.2 33.7-117.7 49.5-131.2 12.9-11.1 33.4-17 58.3-11.7 44.5 9.4 55.7 40.7 57.4 73.2l137.4 29.6C486.5 60 464.6 6.3 425.9-32.1H478c18.7 0 34 15.2 34 34V382c0 18.8-15.2 34-34 34z"/><glyph glyph-name="cpanel" unicode="" horiz-adv-x="640" d="M52.9 234.3h40l-6.2-23.6c-1.9-6.5-7.4-10.9-14.3-10.9H53.8c-24.9 0-24.7-37.4 0-37.4h11.3c4.2 0 7.6-3.9 6.4-8.3L64.4 128H52c-33.5 0-59 31.4-50.3 65.2 7.3 27 28.3 41.1 51.2 41.1M73.1 128L108 258.1c1.8 6.4 7.2 10.9 14.3 10.9h37c24.1 0 45.4-16.4 51-41.2 6.6-29.1-14.5-65.3-51.7-65.3h-32l6.4 23.8c1.8 6.2 7.3 10.8 14.3 10.8h10.3c12.4 0 20.8 11.7 18.3 22.6-2.1 9.2-9.9 14.8-18.3 14.8h-19.8L112 138.8c-1.9-6.2-7.4-10.7-14.2-10.7l-24.7-.1m220.6 69.4c.3 1 1.9 5.3-2.1 5.3h-57.5c-9.7 0-16.6 8.9-14.2 18.5l3.5 13.4h77.9c18.8 0 33.3-17.6 28.5-36.8l-14-51.8c-2.8-10.6-12.2-17.8-23.4-17.8l-57.5.2c-42.9 0-38.5 63.8.7 63.8H284l-3.5-13.2c-1.9-6.2-7.4-10.8-14.2-10.8h-21.6c-5.3 0-5.3-7.9 0-7.9h34.9c4.6 0 5.1 3.9 5.5 5.3l8.6 31.8m103.1 36.9c34.4 0 59.3-32.3 50.3-65.4l-8.8-33.1c-1.2-4.9-5.7-7.8-10.3-7.8h-19.1c-4.5 0-7.6 4-6.4 8.3l10.6 40c3.3 11.6-5.6 23.4-18.1 23.4h-19.8l-17.2-64c-1.2-4.8-5.6-7.8-10.4-7.8h-18.9c-4.2 0-7.6 3.9-6.4 8.3l26.2 98h48.3M498 196.4l-8-30c-.9-3.3 1.5-6.7 5.1-6.7h73.3l-5.7-21c-1.9-6.2-7.4-10.7-14.2-10.7h-66.7c-20 0-33.3 19-28.3 36.7l10.8 40c4.8 17.6 20.7 29.6 38.6 29.6h47.3c19 0 33.2-17.7 28.3-36.8l-3.2-12c-2.9-11-12.7-17.6-23.2-17.6h-53.4l3.5 13c1.6 6.2 7.2 10.8 14.2 10.8H538c2 0 3.3 1 3.9 3l.7 2.6c.7 2.7-1.3 5.1-3.9 5.1h-32.9c-4.1 0-6.9-2.1-7.8-6zm70.2-68.4l35.6 133.1c1.2 4.7 5.5 7.9 10.4 7.9h18.9c4.5 0 7.7-4 6.5-8.3l-26.5-98.2c-5.1-20.7-24.2-34.5-44.9-34.5"/><glyph glyph-name="creative-commons-by" unicode="" horiz-adv-x="496" d="M314.9 253.6V152.2h-28.3V31.7h-77.1v120.4h-28.3v101.5c0 4.4 1.6 8.2 4.6 11.3 3.1 3.1 6.9 4.7 11.3 4.7H299c4.1 0 7.8-1.6 11.1-4.7 3.1-3.2 4.8-6.9 4.8-11.3zm-101.5 63.7c0 23.3 11.5 35 34.5 35s34.5-11.7 34.5-35c0-23-11.5-34.5-34.5-34.5s-34.5 11.5-34.5 34.5zM247.6 440C389.4 440 496 329.9 496 192 496 44.9 377.5-56 247.6-56 113.6-56 0 53.5 0 192c0 132.9 104.7 248 247.6 248zm.8-44.7c-118.2 0-203.7-97.9-203.7-203.3 0-109.8 91.2-202.8 203.7-202.8 103.2 0 202.8 81.1 202.8 202.8.1 113.8-90.2 203.3-202.8 203.3z"/><glyph glyph-name="creative-commons-nc-eu" unicode="" horiz-adv-x="496" d="M247.7 440C103.6 440 0 323.2 0 192 0 55.7 111.7-56 247.7-56 377.9-56 496 44.9 496 192c0 139-107.6 248-248.3 248zm.6-450.7c-112 0-203.6 92.5-203.6 202.7 0 23.2 3.7 45.2 10.9 66l65.7-29.1h-4.7v-29.5h23.3c0-6.2-.4-3.2-.4-19.5h-22.8v-29.5h27c11.4-67 67.2-101.3 124.6-101.3 26.6 0 50.6 7.9 64.8 15.8l-10 46.1c-8.7-4.6-28.2-10.8-47.3-10.8-28.2 0-58.1 10.9-67.3 50.2h90.3l128.3-56.8c-1.5-2.1-56.2-104.3-178.8-104.3zm-16.7 190.6l-.5.4.9-.4h-.4zm77.2 19.5h3.7v29.5h-70.3l-28.6 12.6c2.5 5.5 5.4 10.5 8.8 14.3 12.9 15.8 31.1 22.4 51.1 22.4 18.3 0 35.3-5.4 46.1-10l11.6 47.3c-15 6.6-37 12.4-62.3 12.4-39 0-72.2-15.8-95.9-42.3-5.3-6.1-9.8-12.9-13.9-20.1l-81.6 36.1c64.6 96.8 157.7 93.6 170.7 93.6 113 0 203-90.2 203-203.4 0-18.7-2.1-36.3-6.3-52.9l-136.1 60.5z"/><glyph glyph-name="creative-commons-nc-jp" unicode="" horiz-adv-x="496" d="M247.7 440C103.6 440 0 323.2 0 192 0 55.6 111.8-56 247.7-56 377.9-56 496 44.8 496 192c0 138.8-107.5 248-248.3 248zm.6-450.7c-112 0-203.6 92.5-203.6 202.7 0 21.1 3 41.2 9 60.3l127-56.5h-27.9v-38.6h58.1l5.7-11.8v-18.7h-63.8V88h63.8V32h61.7v56h64.2v35.7l81-36.1c-1.5-2.2-57.1-98.3-175.2-98.3zm87.6 137.3h-57.6v18.7l2.9 5.6 54.7-24.3zm6.5 51.4v17.8h-38.6l63 116H301l-43.4-96-23 10.2-39.6 85.7h-65.8l27.3-51-81.9 36.5c27.8 44.1 82.6 98.1 173.7 98.1 112.8 0 203-90 203-203.4 0-21-2.7-40.6-7.9-59l-101 45.1z"/><glyph glyph-name="creative-commons-nc" unicode="" horiz-adv-x="496" d="M247.6 440C387.4 440 496 332.1 496 192 496 44.8 377.5-56 247.6-56 113.1-56 0 54.8 0 192c0 132.9 104.7 248 247.6 248zM55.8 258.9c-7.4-20.4-11.1-42.7-11.1-66.9 0-110.9 92.1-202.4 203.7-202.4 122.4 0 177.2 101.8 178.5 104.1l-93.4 41.6c-7.7-37.1-41.2-53-68.2-55.4V41.8h-28.8V80c-27.5.3-52.6 10.2-75.3 29.7l34.1 34.5c31.7-29.4 86.4-31.8 86.4 2.2 0 6.2-2.2 11.2-6.6 15.1-14.2 6-1.8.1-219.3 97.4zm192.6 136.8c-38.4 0-112.4-8.7-170.5-93l94.8-42.5c10 31.3 40.4 42.9 63.8 44.3v38.1h28.8v-38.1c22.7-1.2 43.4-8.9 62-23L295 248.3c-42.7 29.9-83.5 8-70-11.1 53.4-24.1 43.8-19.8 93-41.6l127.1-56.7c4.1 17.4 6.2 35.1 6.2 53.1 0 57-19.8 105-59.3 143.9-39.3 39.9-87.2 59.8-143.6 59.8z"/><glyph glyph-name="creative-commons-nd" unicode="" horiz-adv-x="496" d="M247.6 440C389.4 440 496 329.9 496 192 496 44.9 377.5-56 247.6-56 113.6-56 0 53.5 0 192c0 132.9 104.7 248 247.6 248zm.8-44.7c-118.2 0-203.7-97.9-203.7-203.3 0-109.8 91.2-202.8 203.7-202.8 103.2 0 202.8 81.1 202.8 202.8.1 113.8-90.2 203.3-202.8 203.3zm94-144.3v-42.5H162.1V251h180.3zm0-79.8v-42.5H162.1v42.5h180.3z"/><glyph glyph-name="creative-commons-pd-alt" unicode="" horiz-adv-x="496" d="M247.6 440C389.4 440 496 329.9 496 192 496 44.9 377.5-56 247.6-56 113.6-56 0 53.5 0 192c0 132.9 104.7 248 247.6 248zm.8-44.7c-118.2 0-203.7-97.9-203.7-203.3 0-109.8 91.2-202.8 203.7-202.8 103.2 0 202.8 81.1 202.8 202.8.1 113.8-90.2 203.3-202.8 203.3zM135.5 124.7V262h68.2c33.7 0 50.5-15.5 50.5-46.5 0-9-3-46.5-57.1-46.5h-27v-44.3h-34.6zm34.1 111.6v-41.6h29.2c27.9 0 30 41.6-.9 41.6h-28.3zm93.9-111.6V262h53.2c21.4 0 70-5.2 70-68.6 0-63.5-48.6-68.6-70-68.6h-53.2zm34.1 108.5v-79.7h19.9c24 0 34.5 15.3 34.5 39.9 0 42-31.2 39.9-35 39.9l-19.4-.1z"/><glyph glyph-name="creative-commons-pd" unicode="" horiz-adv-x="496" d="M248 440C111 440 0 328.9 0 192 0 55 111-56 248-56S496 55 496 192c0 136.9-111 248-248 248zm0-449.5c-139.2 0-235.8 138-190.2 267.9l78.8-35.1c-2.1-10.5-3.3-21.5-3.3-32.9 0-99 73.9-126.9 120.4-126.9 22.9 0 53.5 6.7 79.4 29.5L297 136.9c-5.5-6.3-17.6-16.7-36.3-16.7-37.8 0-53.7 39.9-53.9 71.9C437.2 89.5 423.3 95.6 424.7 95.3 390.4 32.9 324.1-9.5 248-9.5zm194.2 150l-224 100c18.8 34 54.9 30.7 74.7 11l40.4 41.6c-27.1 23.3-58 27.5-78.1 27.5-47.4 0-80.9-20.5-100.7-51.6l-74.9 33.4c36.1 54.9 98.1 91.2 168.5 91.2 111.1 0 201.5-90.4 201.5-201.5 0-18-2.4-35.4-6.8-52-.3.1-.4.2-.6.4z"/><glyph glyph-name="creative-commons-remix" unicode="" horiz-adv-x="496" d="M247.6 440C389.4 440 496 329.9 496 192 496 44.9 377.5-56 247.6-56 113.6-56 0 53.5 0 192c0 132.9 104.7 248 247.6 248zm.8-44.7c-118.2 0-203.7-97.9-203.7-203.3 0-109.8 91.2-202.8 203.7-202.8 103.2 0 202.8 81.1 202.8 202.8.1 113.8-90.2 203.3-202.8 203.3zm161.7-207.7l4.9-2.2v-70c-7.2-3.6-63.4-27.5-67.3-28.8-6.5 1.8-113.7 46.8-137.3 56.2l-64.2-26.6-63.3 27.5v63.8l59.3 24.8c-.7.7-.4-5-.4 70.4l67.3 29.7L361 269.5v-61.6l49.1-20.3zm-70.4-81.5v43.8h-.4v1.8l-113.8 46.5V153l113.8-46.9v.4l.4-.4zm7.5 57.6l39.9 16.4-36.8 15.5-39-16.4 35.9-15.5zm52.3-38.1v43L355.2 150v-43.4l44.3 19z"/><glyph glyph-name="creative-commons-sa" unicode="" horiz-adv-x="496" d="M247.6 440C389.4 440 496 329.9 496 192 496 44.9 377.5-56 247.6-56 113.6-56 0 53.5 0 192c0 132.9 104.7 248 247.6 248zm.8-44.7c-118.2 0-203.7-97.9-203.7-203.3 0-109.8 91.2-202.8 203.7-202.8 103.2 0 202.8 81.1 202.8 202.8.1 113.8-90.2 203.3-202.8 203.3zM137.7 227c13 83.9 80.5 95.7 108.9 95.7 99.8 0 127.5-82.5 127.5-134.2 0-63.6-41-132.9-128.9-132.9-38.9 0-99.1 20-109.4 97h62.5c1.5-30.1 19.6-45.2 54.5-45.2 23.3 0 58 18.2 58 82.8 0 82.5-49.1 80.6-56.7 80.6-33.1 0-51.7-14.6-55.8-43.8h18.2l-49.2-49.2-49 49.2h19.4z"/><glyph glyph-name="creative-commons-sampling-plus" unicode="" horiz-adv-x="496" d="M247.6 440C389.4 440 496 329.9 496 192 496 44.9 377.5-56 247.6-56 113.6-56 0 53.5 0 192c0 132.9 104.7 248 247.6 248zm.8-44.7c-118.2 0-203.7-97.9-203.7-203.3 0-109.8 91.2-202.8 203.7-202.8 103.2 0 202.8 81.1 202.8 202.8.1 113.8-90.2 203.3-202.8 203.3zm107-205.6c-4.7 0-9-2.8-10.7-7.2l-4-9.5-11 92.8c-1.7 13.9-22 13.4-23.1-.4l-4.3-51.4-5.2 68.8c-1.1 14.3-22.1 14.2-23.2 0l-3.5-44.9-5.9 94.3c-.9 14.5-22.3 14.4-23.2 0l-5.1-83.7-4.3 66.3c-.9 14.4-22.2 14.4-23.2 0l-5.3-80.2-4.1 57c-1.1 14.3-22 14.3-23.2.2l-7.7-89.8-1.8 12.2c-1.7 11.4-17.1 13.6-22 3.3l-13.2-27.7H87.5v-23.2h51.3c4.4 0 8.4 2.5 10.4 6.4l10.7-73.1c2-13.5 21.9-13 23.1.7l3.8 43.6 5.7-78.3c1.1-14.4 22.3-14.2 23.2.1l4.6 70.4 4.8-73.3c.9-14.4 22.3-14.4 23.2.1l4.9 80.5 4.5-71.8c.9-14.3 22.1-14.5 23.2-.2l4.6 58.6 4.9-64.4c1.1-14.3 22-14.2 23.1-.1l6.8 83 2.7-22.3c1.4-11.8 17.7-14.1 22.3-3.1l18 43.4h50.5V190l-58.4-.3zm-78-5.2h-21.9v-21.9c0-4.1-3.3-7.5-7.5-7.5-4.1 0-7.5 3.3-7.5 7.5v21.9h-21.9c-4.1 0-7.5 3.3-7.5 7.5 0 4.1 3.4 7.5 7.5 7.5h21.9v21.9c0 4.1 3.4 7.5 7.5 7.5s7.5-3.3 7.5-7.5v-21.9h21.9c4.1 0 7.5-3.3 7.5-7.5 0-4.1-3.4-7.5-7.5-7.5z"/><glyph glyph-name="creative-commons-sampling" unicode="" horiz-adv-x="496" d="M247.6 440C389.4 440 496 329.9 496 192 496 44.9 377.5-56 247.6-56 113.6-56 0 53.5 0 192c0 132.9 104.7 248 247.6 248zm.8-44.7c-118.2 0-203.7-97.9-203.7-203.3 0-109.8 91.2-202.8 203.7-202.8 103.2 0 202.8 81.1 202.8 202.8.1 113.8-90.2 203.3-202.8 203.3zm3.6-53.2c2.8.3 11.5-1 11.5-11.5l6.6-107.2 4.9 59.3c0 6 4.7 10.6 10.6 10.6 5.9 0 10.6-4.7 10.6-10.6 0-2.5-.5 5.7 5.7-81.5l5.8 64.2c.3 2.9 2.9 9.3 10.2 9.3 3.8 0 9.9-2.3 10.6-8.9l11.5-96.5 5.3 12.8c1.8 4.4 5.2 6.6 10.2 6.6h58v-21.3h-50.9l-18.2-44.3c-3.9-9.9-19.5-9.1-20.8 3.1l-4 31.9-7.5-92.6c-.3-3-3-9.3-10.2-9.3-3 0-9.8 2.1-10.6 9.3 0 1.9.6-5.8-6.2 77.9l-5.3-72.2c-1.1-4.8-4.8-9.3-10.6-9.3-2.9 0-9.8 2-10.6 9.3 0 1.9.5-6.7-5.8 87.7L247 64.1c0-6.3-3.6-12.4-10.6-12.4-5.2 0-10.6 4.1-10.6 12l-5.8 87.7c-5.8-92.5-5.3-84-5.3-85.9-1.1-4.8-4.8-9.3-10.6-9.3-3 0-9.8 2.1-10.6 9.3 0 .7-.4 1.1-.4 2.6l-6.2 88.6L182 100c-.7-6.5-6.7-9.3-10.6-9.3-5.8 0-9.6 4.1-10.6 8.9L149.7 176c-2-4-3.5-8.4-11.1-8.4H87.2v21.3H132l13.7 27.9c4.4 9.9 18.2 7.2 19.9-2.7l3.1-20.4 8.4 97.9c0 6 4.8 10.6 10.6 10.6.5 0 10.6.2 10.6-12.4l4.9-69.1 6.6 92.6c0 10.1 9.5 10.6 10.2 10.6.6 0 10.6-.7 10.6-10.6l5.3-80.6 6.2 97.9c.1 1.1-.6 10.3 9.9 11.5z"/><glyph glyph-name="creative-commons-share" unicode="" horiz-adv-x="496" d="M247.6 440C389.4 440 496 329.9 496 192 496 44.9 377.5-56 247.6-56 113.6-56 0 53.5 0 192c0 132.9 104.7 248 247.6 248zm.8-44.7c-118.2 0-203.7-97.9-203.7-203.3 0-109.8 91.2-202.8 203.7-202.8 103.2 0 202.8 81.1 202.8 202.8.1 113.8-90.2 203.3-202.8 203.3zm101-132.4c7.8 0 13.7-6.1 13.7-13.7V66.7c0-7.7-6.1-13.7-13.7-13.7H214.3c-7.7 0-13.7 6-13.7 13.7v54h-54c-7.8 0-13.7 6-13.7 13.7v182.5c0 8.2 6.6 12.7 12.4 13.7h136.4c7.7 0 13.7-6 13.7-13.7v-54h54zM159.9 147.7h40.7v101.4c0 7.4 5.8 12.6 12 13.7h55.8v40.3H159.9V147.7zm176.2 88.1H227.6V80.4h108.5v155.4z"/><glyph glyph-name="creative-commons" unicode="" horiz-adv-x="496" d="M254.8 233.2l-33.2-17.3c-9.4 19.6-25.2 19.9-27.5 19.9-22.1 0-33.2-14.6-33.2-43.8 0-23.6 9.2-43.8 33.2-43.8 14.5 0 24.7 7.1 30.6 21.3l30.6-15.5c-6.2-11.5-25.7-39-65.1-39-22.6 0-74 10.3-74 77.1 0 58.7 43 77.1 72.6 77.1 30.8-.2 52.7-12.1 66-36zm143.1 0l-32.8-17.3c-9.5 19.8-25.7 19.9-27.9 19.9-22.1 0-33.2-14.6-33.2-43.8 0-23.6 9.2-43.8 33.2-43.8 14.5 0 24.6 7.1 30.5 21.3l31-15.5c-2.1-3.7-21.4-39-65.1-39-22.7 0-74 9.9-74 77.1 0 58.7 43 77.1 72.6 77.1 30.8-.2 52.7-12.1 65.7-36zM247.6 440C389.4 440 496 329.9 496 192 496 44.9 377.5-56 247.6-56 113.6-56 0 53.5 0 192c0 132.9 104.7 248 247.6 248zm.8-44.7c-118.2 0-203.7-97.9-203.7-203.3 0-109.8 91.2-202.8 203.7-202.8 103.2 0 202.8 81.1 202.8 202.8.1 113.8-90.2 203.3-202.8 203.3z"/><glyph glyph-name="css3-alt" unicode="" horiz-adv-x="384" d="M0 416L34.9 20.2 192-32l157.1 52.2L384 416H0zm313.1-80l-4.8-47.3L193 239.4l-.3-.1h111.5L291.4 92.7 193.2 64 94.4 93.2 88 167.1h48.9l3.2-38.3 52.6-13.3 54.7 15.4 3.7 61.6-166.3.5v.1l-.2-.1-3.6 46.3L193.1 286l6.5 2.7H76.7L70.9 336h242.2z"/><glyph glyph-name="css3" unicode="" horiz-adv-x="512" d="M480 416L416 48 192.7-32 0 48l19.6 94.8h82l-8-40.6L210 57.8l134.1 44.4 18.8 97.1H29.5l16 82h333.7l10.5 52.7H56.3l16.3 82H480z"/><glyph glyph-name="cuttlefish" unicode="" horiz-adv-x="440" d="M344 142.5C326.5 110.9 286.6 88 248 88c-56.6 0-104 47.4-104 104s47.4 104 104 104c38.6 0 78.5-22.9 96-54.5 13.7 50.9 41.7 93.3 87 117.8-45.3 49.6-110.5 80.7-183 80.7C111 440 0 329 0 192S111-56 248-56c72.5 0 137.7 31.1 183 80.7-45.3 24.5-73.3 66.9-87 117.8z"/><glyph glyph-name="d-and-d" unicode="" horiz-adv-x="576" d="M82.5 349.1c-.6 17.2 2 33.8 12.7 48.2.3-7.4 1.2-14.5 4.2-21.6 5.9 27.5 19.7 49.3 42.3 65.5-1.9-5.9-3.5-11.8-3-17.7 8.7 7.4 18.8 17.8 44.4 22.7 14.7 2.8 29.7 2 42.1-1 38.5-9.3 61-34.3 69.7-72.3 5.3-23.1.7-45-8.3-66.4-5.2-12.4-12-24.4-20.7-35.1-2 1.9-3.9 3.8-5.8 5.6-42.8 40.8-26.8 25.2-37.4 37.4-1.1 1.2-1 2.2-.1 3.6 8.3 13.5 11.8 28.2 10 44-1.1 9.8-4.3 18.9-11.3 26.2-14.5 15.3-39.2 15-53.5-.6-11.4-12.5-14.1-27.4-10.9-43.6.2-1.3.4-2.7 0-3.9-3.4-13.7-4.6-27.6-2.5-41.6.1-.5.1-1.1.1-1.6 0-.3-.1-.5-.2-1.1-21.8 11-36 28.3-43.2 52.2-8.3-17.8-11.1-35.5-6.6-54.1-15.6 15.2-21.3 34.3-22 55.2zm469.6-123.2c-11.6 11.6-25 20.4-40.1 26.6-12.8 5.2-26 7.9-39.9 7.1-10-.6-19.6-3.1-29-6.4-2.5-.9-5.1-1.6-7.7-2.2-4.9-1.2-7.3 3.1-4.7 6.8 3.2 4.6 3.4 4.2 15 12 .6.4 1.2.8 2.2 1.5h-2.5c-.6 0-1.2-.2-1.9-.3-19.3-3.3-30.7-15.5-48.9-29.6-10.4-8.1-13.8-3.8-12 .5 1.4 3.5 3.3 6.7 5.1 10 1 1.8 2.3 3.4 3.5 5.1-.2.2-.5.3-.7.5-27-18.3-46.7-42.4-57.7-73.3.3-.3.7-.6 1-.9.3.6.5 1.2.9 1.7 10.4 12.1 22.8 21.8 36.6 29.8 18.2 10.6 37.5 18.3 58.7 20.2 4.3.4 8.7.1 13.1.1-1.8-.7-3.5-.9-5.3-1.1-18.5-2.4-35.5-9-51.5-18.5-30.2-17.9-54.5-42.2-75.1-70.4-.3-.4-.4-.9-.7-1.3 14.5-5.3 24-17.3 36.1-25.6.2.1.3.2.4.4l1.2 2.7c12.2 26.9 27 52.3 46.7 74.5 16.7 18.8 38 25.3 62.5 20 5.9-1.3 11.4-4.4 17.2-6.8 2.3 1.4 5.1 3.2 8 4.7 8.4 4.3 17.4 7 26.7 9 14.7 3.1 29.5 4.9 44.5 1.3v.5c-.5.4-1.2.8-1.7 1.4zM316.7 50.4c-39.4 33-22.8 19.5-42.7 35.6-.8-.9 0 .2-1.9-3-11.2-19.1-25.5-35.3-44-47.6-10.3-6.8-21.5-11.8-34.1-11.8-21.6 0-38.2 9.5-49.4 27.8-12 19.5-13.3 40.7-8.2 62.6 7.8 33.8 30.1 55.2 38.6 64.3-18.7 6.2-33-1.7-46.4-13.9.8 13.9 4.3 26.2 11.8 37.3-24.3-10.6-45.9-25-64.8-43.9-.3 5.8 5.4 43.7 5.6 44.7.3 2.7-.6 5.3-3 7.4-24.2-24.7-44.5-51.8-56.1-84.6 7.4 5.9 14.9 11.4 23.6 16.2-8.3-22.3-19.6-52.8-7.8-101.1 4.6-19 11.9-36.8 24.1-52.3 2.9-3.7 6.3-6.9 9.5-10.3.2.2.4.3.6.5-1.4 7-2.2 14.1-1.5 21.9 2.2-3.2 3.9-6 5.9-8.6 12.6-16 28.7-27.4 47.2-35.6 25-11.3 51.1-13.3 77.9-8.6 54.9 9.7 90.7 48.6 116 98.8 1 1.8.6 2.9-.9 4.2zm172 46.4c-9.5 3.1-22.2 4.2-28.7 2.9 9.9-4 14.1-6.6 18.8-12 12.6-14.4 10.4-34.7-5.4-45.6-11.7-8.1-24.9-10.5-38.9-9.1-1.2.1-2.3.4-3 .6 2.8 3.7 6 7 8.1 10.8 9.4 16.8 5.4 42.1-8.7 56.1-2.1 2.1-4.6 3.9-7 5.9-.3-1.3-.1-2.1.1-2.8 4.2-16.6-8.1-32.4-24.8-31.8-7.6.3-13.9 3.8-19.6 8.5-19.5 16.1-39.1 32.1-58.5 48.3-5.9 4.9-12.5 8.1-20.1 8.7-4.6.4-9.3.6-13.9.9-5.9.4-8.8 2.8-10.4 8.4-.9 3.4-1.5 6.8-2.2 10.2-1.5 8.1-6.2 13-14.3 14.2-4.4.7-8.9 1-13.3 1.5-13 1.4-19.8 7.4-22.6 20.3-5-11-1.6-22.4 7.3-29.9 4.5-3.8 9.3-7.3 13.8-11.2 4.6-3.8 7.4-8.7 7.9-14.8.4-4.7.8-9.5 1.8-14.1 2.2-10.6 8.9-18.4 17-25.1 16.5-13.7 33-27.3 49.5-41.1 17.9-15 13.9-32.8 13-56-.9-22.9 12.2-42.9 33.5-51.2 1-.4 2-.6 3.6-1.1-15.7 18.2-10.1 44.1.7 52.3.3-2.2.4-4.3.9-6.4 9.4-44.1 45.4-64.2 85-56.9 16 2.9 30.6 8.9 42.9 19.8 2 1.8 3.7 4.1 5.9 6.5-19.3-4.6-35.8-.1-50.9 10.6.7.3 1.3.3 1.9.3 21.3-1.8 40.6 3.4 57 17.4 19.5 16.6 26.6 42.9 17.4 66-8.3 20.1-23.6 32.3-43.8 38.9zM99.4 268.7c-5.3 9.2-13.2 15.6-22.1 21.3 13.7.5 26.6-.2 39.6-3.7-7 12.2-8.5 24.7-5 38.7 5.3-11.9 13.7-20.1 23.6-26.8 19.7-13.2 35.7-19.6 46.7-30.2 3.4-3.3 6.3-7.1 9.6-10.9-.8 2.1-1.4 4.1-2.2 6-5 10.6-13 18.6-22.6 25-1.8 1.2-2.8 2.5-3.4 4.5-3.3 12.5-3 25.1-.7 37.6 1 5.5 2.8 10.9 4.5 16.3.8 2.4 2.3 4.6 4 6.6.6-6.9 0-25.5 19.6-46 10.8-11.3 22.4-21.9 33.9-32.7 9-8.5 18.3-16.7 25.5-26.8 1.1-1.6 2.2-3.3 3.8-4.7-5 13-14.2 24.1-24.2 33.8-9.6 9.3-19.4 18.4-29.2 27.4-3.3 3-4.6 6.7-5.1 10.9-1.2 10.4 0 20.6 4.3 30.2.5 1 1.1 2 1.9 3.3.5-4.2.6-7.9 1.4-11.6 4.8-23.1 20.4-36.3 49.3-63.5 10-9.4 19.3-19.2 25.6-31.6 4.8-9.3 7.3-19 5.7-29.6-.1-.6.5-1.7 1.1-2 6.2-2.6 10-6.9 9.7-14.3 7.7 2.6 12.5 8 16.4 14.5 4.2-20.2-9.1-50.3-27.2-58.7.4 4.5 5 23.4-16.5 27.7-6.8 1.3-12.8 1.3-22.9 2.1 4.7 9 10.4 20.6.5 22.4-24.9 4.6-52.8-1.9-57.8-4.6 8.2-.4 16.3-1 23.5-3.3-2-6.5-4-12.7-5.8-18.9-1.9-6.5 2.1-14.6 9.3-9.6 1.2.9 2.3 1.9 3.3 2.7-3.1-17.9-2.9-15.9-2.8-18.3.3-10.2 9.5-7.8 15.7-7.3-2.5-11.8-29.5-27.3-45.4-25.8 7 4.7 12.7 10.3 15.9 17.9-6.5-.8-12.9-1.6-19.2-2.4l-.3.9c4.7 3.4 8 7.8 10.2 13.1 8.7 21.1-3.6 38-25 39.9-9.1.8-17.8-.8-25.9-5.5 6.2 15.6 17.2 26.6 32.6 34.5-15.2 4.3-8.9 2.7-24.6 6.3 14.6 9.3 30.2 13.2 46.5 14.6-5.2 3.2-48.1 3.6-70.2-20.9 7.9-1.4 15.5-2.8 23.2-4.2-23.8-7-44-19.7-62.4-35.6 1.1 4.8 2.7 9.5 3.3 14.3.6 4.5.8 9.2.1 13.6-1.5 9.4-8.9 15.1-19.7 16.3-7.9.9-15.6-.1-23.3-1.3-.9-.1-1.7-.3-2.9 0 15.8 14.8 36 21.7 53.1 33.5 6 4.5 6.8 8.2 3 14.9zm128.4-26.8c3.3-16 12.6-25.5 23.8-24.3-4.6 11.3-12.1 19.5-23.8 24.3z"/><glyph glyph-name="dashcube" unicode="" horiz-adv-x="448" d="M326.6 344H110.4c-51.1 0-91.2-43.3-91.2-93.5V21c0-50.5 40.1-85 91.2-85h227.2c51.1 0 91.2 34.5 91.2 85v427L326.6 344zM153.9 31.5c-17.7 0-32.4 15.1-32.4 32.8v142.9c0 17.7 14.7 32.5 32.4 32.5h140.7c17.7 0 32-14.8 32-32.5V83.7l51.1-52.3H153.9z"/><glyph glyph-name="delicious" unicode="" horiz-adv-x="448" d="M446.5 380c-.4 1.5-.9 3-1.4 4.5-.9 2.5-2 4.8-3.3 7.1-1.4 2.4-3 4.8-4.7 6.9-2.1 2.5-4.4 4.8-6.9 6.8-1.1.9-2.2 1.7-3.3 2.5-1.3.9-2.6 1.7-4 2.4-1.8 1-3.6 1.8-5.5 2.5-1.7.7-3.5 1.3-5.4 1.7-3.8 1-7.9 1.5-12 1.5H48C21.5 416 0 394.5 0 368V16c0-4.1.5-8.2 1.5-12 2-7.7 5.8-14.6 11-20.3 1-1.1 2.1-2.2 3.3-3.3 5.7-5.2 12.6-9 20.3-11 3.8-1 7.9-1.5 12-1.5h352c26.5 0 48 21.5 48 48V368c-.1 4.1-.6 8.2-1.6 12zM416 16c0-8.8-7.2-16-16-16H224v192H32v176c0 8.8 7.2 16 16 16h176V192h192V16z"/><glyph glyph-name="deploydog" unicode="" horiz-adv-x="512" d="M382.2 312h51.7V72.4h-51.7v20.7c-19.8-24.8-52.8-24.1-73.8-14.7-26.2 11.7-44.3 38.1-44.3 71.8 0 29.8 14.8 57.9 43.3 70.8 20.2 9.1 52.7 10.6 74.8-12.9V312zm-64.7-161.8c0-18.2 13.6-33.5 33.2-33.5 19.8 0 33.2 16.4 33.2 32.9 0 17.1-13.7 33.2-33.2 33.2-19.6 0-33.2-16.4-33.2-32.6zM188.5 312h51.7V72.4h-51.7v20.7c-19.8-24.8-52.8-24.1-73.8-14.7-26.2 11.7-44.3 38.1-44.3 71.8 0 29.8 14.8 57.9 43.3 70.8 20.2 9.1 52.7 10.6 74.8-12.9V312zm-64.7-161.8c0-18.2 13.6-33.5 33.2-33.5 19.8 0 33.2 16.4 33.2 32.9 0 17.1-13.7 33.2-33.2 33.2-19.7 0-33.2-16.4-33.2-32.6zM448 352c17.5 0 32-14.4 32-32V64c0-17.5-14.4-32-32-32H64c-17.5 0-32 14.4-32 32v256c0 17.5 14.4 32 32 32h384m0 32H64c-35.2 0-64-28.8-64-64V64C0 28.8 28.8 0 64 0h384c35.2 0 64 28.8 64 64v256c0 35.2-28.8 64-64 64z"/><glyph glyph-name="deskpro" unicode="" horiz-adv-x="480" d="M205.9-64L237-25.6c12.3.2 25.6 1.4 36.5 6.6 38.9 18.6 38.4 61.9 38.3 63.8-.1 5-.8 4.4-28.9 37.4H362c-.2-50.1-7.3-68.5-10.2-75.7-9.4-23.7-43.9-62.8-95.2-69.4-8.7-1.1-32.8-1.2-50.7-1.1zm200.4 167.7c38.6 0 58.5 13.6 73.7 30.9l-175.5.3-17.4-31.3 119.2.1zm-43.6 223.9V159.3h-73.5l-32.7-55.5H250c-52.3 0-58.1 56.5-58.3 58.9-1.2 13.2-21.3 11.6-20.1-1.8 1.4-15.8 8.8-40 26.4-57.1h-91c-25.5 0-110.8 26.8-107 114v213.3c0 16 9.7 16.6 15 16.8h82c.2 0 .3-.1.5-.1 4.3.4 50.1 2.1 50.1-43.7 0-13.3 20.2-13.4 20.2 0 0 18.2-5.5 32.8-15.8 43.7h84.2c108.7.4 126.5-79.4 126.5-120.2zm-132.5-56l64-29.3c13.3 45.5-42.2 71.7-64 29.3z"/><glyph glyph-name="deviantart" unicode="" horiz-adv-x="320" d="M320 354.8l-98.2-179.1 7.4-9.5H320V38.5H159.1l-13.5-9.2-43.7-84c-.3 0-8.6-8.6-9.2-9.2H0v93.2l93.2 179.4-7.4 9.2H0v127.6h156l13.5 9.2 43.7 84c.3 0 8.6 8.6 9.2 9.2H320v-93.1z"/><glyph glyph-name="digg" unicode="" horiz-adv-x="512" d="M81.7 275.7H0V101.3h132.7V352h-51v-76.3zm0-133.4H50.9v92.3h30.8v-92.3zm297.2 133.4V101.3h81.8V72.8h-81.8V32H512v243.7H378.9zm81.8-133.4h-30.8v92.3h30.8v-92.3zm-235.6-41h82.1V72.8h-82.1V32h133.3v243.7H225.1V101.3zm51.2 133.3h30.8v-92.3h-30.8v92.3zM153.3 352h51.3v-51h-51.3v51zm0-76.3h51.3V101.3h-51.3v174.4z"/><glyph glyph-name="digital-ocean" unicode="" horiz-adv-x="512" d="M256-56v96.1c101.8 0 180.8 100.9 141.7 208-14.3 39.6-46.1 71.4-85.8 85.7-107.1 38.8-208.1-39.9-208.1-141.7H8c0 162.2 156.9 288.7 327 235.6 74.2-23.3 133.6-82.4 156.6-156.6C544.8 100.8 418.6-56 256-56zm.3 191.4h-95.6V39.8h95.6v95.6zm-95.6-95.6H87v-73.6h73.7v73.6zM87 101.4H25.4V39.8H87v61.6z"/><glyph glyph-name="discord" unicode="" horiz-adv-x="448" d="M297.216 204.8c0-15.616-11.52-28.416-26.112-28.416-14.336 0-26.112 12.8-26.112 28.416s11.52 28.416 26.112 28.416c14.592 0 26.112-12.8 26.112-28.416zm-119.552 28.416c-14.592 0-26.112-12.8-26.112-28.416s11.776-28.416 26.112-28.416c14.592 0 26.112 12.8 26.112 28.416.256 15.616-11.52 28.416-26.112 28.416zM448 395.264V-64C383.506-7.006 404.132-25.872 329.216 43.776l13.568-47.36H52.48C23.552-3.584 0 19.968 0 49.152v346.112C0 424.448 23.552 448 52.48 448h343.04c28.928 0 52.48-23.552 52.48-52.736zm-72.96-242.688c0 82.432-36.864 149.248-36.864 149.248-36.864 27.648-71.936 26.88-71.936 26.88l-3.584-4.096c43.52-13.312 63.744-32.512 63.744-32.512-60.811 33.329-132.244 33.335-191.232 7.424-9.472-4.352-15.104-7.424-15.104-7.424s21.248 20.224 67.328 33.536l-2.56 3.072s-35.072.768-71.936-26.88c0 0-36.864-66.816-36.864-149.248 0 0 21.504-37.12 78.08-38.912 0 0 9.472 11.52 17.152 21.248-32.512 9.728-44.8 30.208-44.8 30.208 3.766-2.636 9.976-6.053 10.496-6.4 43.21-24.198 104.588-32.126 159.744-8.96 8.96 3.328 18.944 8.192 29.44 15.104 0 0-12.8-20.992-46.336-30.464 7.68-9.728 16.896-20.736 16.896-20.736 56.576 1.792 78.336 38.912 78.336 38.912z"/><glyph glyph-name="discourse" unicode="" horiz-adv-x="448" d="M225.9 416C103.3 416 0 317.5 0 195.9 0 192 .1-32 .1-32l225.8.2C348.6-31.8 448 70.5 448 192.1 448 313.7 348.6 416 225.9 416zM224 64c-19.4 0-37.9 4.3-54.4 12.1L88.5 56l22.9 75c-9.8 18.1-15.4 38.9-15.4 61 0 70.7 57.3 128 128 128s128-57.3 128-128S294.7 64 224 64z"/><glyph glyph-name="dochub" unicode="" horiz-adv-x="416" d="M397.9 288H256v140.4L397.9 288zM304 256V126c0-66.8-36.5-100.1-113.3-100.1H96v337.3h94.7c12 0 23.1-.8 33.1-2.5v84c-10.9 2.2-22.4 3.3-34.6 3.3H0V-64h189.2C329.7-64 400 .6 400 129.9V256h-96z"/><glyph glyph-name="docker" unicode="" horiz-adv-x="640" d="M349.9 211.7h-66.1v59.4h66.1v-59.4zm0 204.3h-66.1v-60.7h66.1V416zm78.2-144.8H362v-59.4h66.1v59.4zm-156.3 72.1h-66.1v-60.1h66.1v60.1zm78.1 0h-66.1v-60.1h66.1v60.1zm276.8-100c-14.4 9.7-47.6 13.2-73.1 8.4-3.3 24-16.7 44.9-41.1 63.7l-14 9.3-9.3-14c-18.4-27.8-23.4-73.6-3.7-103.8-8.7-4.7-25.8-11.1-48.4-10.7H2.4c-8.7-50.8 5.8-116.8 44-162.1 37.1-43.9 92.7-66.2 165.4-66.2 157.4 0 273.9 72.5 328.4 204.2 21.4-.4 67.6-.1 91.3 45.2 1.5 2.5 6.6 13.2 8.5 17.1l-13.3 8.9zm-511.1 27.9h-66v-59.4h66.1v59.4zm78.1 0h-66.1v-59.4h66.1v59.4zm78.1 0h-66.1v-59.4h66.1v59.4zm-78.1 72.1h-66.1v-60.1h66.1v60.1z"/><glyph glyph-name="draft2digital" unicode="" horiz-adv-x="480" d="M369.9 22.6V77L417 49.8l-47.1-27.2zM82.4 67.4c25.5 27.3 97.7 104.7 150.9 170 35.1 43.1 40.3 82.4 28.4 112.7-7.4 18.8-17.5 30.2-24.3 35.7 45.3-2.1 68-23.4 82.2-38.3 0 0 42.4-48.2 5.8-113.3-37-65.9-110.9-147.5-128.5-166.7H82.4zm51.8 219.2c0-12.4-10-22.4-22.4-22.4-12.4 0-22.4 10-22.4 22.4 0 12.4 10 22.4 22.4 22.4 12.4 0 22.4-10.1 22.4-22.4M336 132.1V67.4h-91.3c30.8 35 81.8 95.9 111.8 149.3 35.2 62.6 16.1 123.4-12.8 153.3-4.4 4.6-62.2 62.9-166 41.2-59.1-12.4-89.4-43.4-104.3-67.3-13.1-20.9-17-39.8-18.2-47.7-5.5-33 19.4-67.1 56.7-67.1 31.7 0 57.3 25.7 57.3 57.4 0 27.1-19.7 52.1-48 56.8 1.8 7.3 17.7 21.1 26.3 24.7 41.1 17.3 78-5.2 83.3-33.5 8.3-44.3-37.1-90.4-69.7-127.6C84.5 119.9 18.3 51.2 0 32.1l336 .1V-32l144 81.9-144 82.2z"/><glyph glyph-name="dribbble-square" unicode="" horiz-adv-x="448" d="M90.2 219.8c8.9 42.4 37.4 77.7 75.7 95.7 3.6-4.9 28-38.8 50.7-79-64-17-120.3-16.8-126.4-16.7zM314.6 294c-33.6 29.8-79.3 41.1-122.6 30.6 3.8-5.1 28.6-38.9 51-80 48.6 18.3 69.1 45.9 71.6 49.4zM140.1 84c40.5-31.6 93.3-36.7 137.3-18-2 12-10 53.8-29.2 103.6-55.1-18.8-93.8-56.4-108.1-85.6zm98.8 108.2c-3.4 7.8-7.2 15.5-11.1 23.2C159.6 195 93.4 195.8 87.4 196c0-1.4-.1-2.8-.1-4.2 0-35.1 13.3-67.1 35.1-91.4 22.2 37.9 67.1 77.9 116.5 91.8zm34.9-16.3c17.9-49.1 25.1-89.1 26.5-97.4 30.7 20.7 52.5 53.6 58.6 91.6-4.6 1.5-42.3 12.7-85.1 5.8zm-20.3 48.4c4.8-9.8 8.3-17.8 12-26.8 45.5 5.7 90.7-3.4 95.2-4.4-.3 32.3-11.8 61.9-30.9 85.1-2.9-3.9-25.8-33.2-76.3-53.9zM448 368V16c0-26.5-21.5-48-48-48H48C21.5-32 0-10.5 0 16v352c0 26.5 21.5 48 48 48h352c26.5 0 48-21.5 48-48zm-64-176c0 88.2-71.8 160-160 160S64 280.2 64 192 135.8 32 224 32s160 71.8 160 160z"/><glyph glyph-name="dribbble" unicode="" horiz-adv-x="512" d="M256 440C119.252 440 8 328.748 8 192S119.252-56 256-56 504 55.252 504 192 392.748 440 256 440zm163.97-114.366c29.503-36.046 47.369-81.957 47.835-131.955-6.984 1.477-77.018 15.682-147.502 6.818-5.752 14.041-11.181 26.393-18.617 41.614 78.321 31.977 113.818 77.482 118.284 83.523zm-23.549 24.496c-3.81-5.427-35.697-48.286-111.021-76.519-34.712 63.776-73.185 116.168-79.04 124.008 67.176 16.193 137.966-1.27 190.061-47.489zm-230.48 33.25c5.585-7.659 43.438-60.116 78.537-122.509-99.087-26.313-186.36-25.934-195.834-25.809 13.736 65.733 58.034 120.365 117.297 148.318zM44.17 191.677c0 2.166.043 4.322.108 6.473 9.268-.19 111.92-1.513 217.706 30.146 6.064-11.868 11.857-23.915 17.174-35.949-76.599-21.575-146.194-83.527-180.531-142.306C64.794 87.595 44.17 137.27 44.17 191.677zm81.807-167.113c22.127 45.233 82.178 103.622 167.579 132.756 29.74-77.283 42.039-142.053 45.189-160.638-68.112-29.013-150.015-21.053-212.768 27.882zm248.38-8.489c-2.171 12.886-13.446 74.897-41.152 151.033 66.38 10.626 124.7-6.768 131.947-9.055-9.442-58.941-43.273-109.844-90.795-141.978z"/><glyph glyph-name="dropbox" unicode="" horiz-adv-x="528" d="M264.4 331.7l-132-84.3 132-84.3-132-84.3L0 163.9l132.3 84.3L0 331.7 132.3 416l132.1-84.3zM131.6 52.3l132 84.3 132-84.3-132-84.3-132 84.3zm132.8 111.6l132 84.3-132 83.6L395.7 416 528 331.7l-132.3-84.3L528 163.2 395.7 78.9l-131.3 85z"/><glyph glyph-name="drupal" unicode="" horiz-adv-x="448" d="M319.5 333.3c-22.2 14-43.5 19.5-64.7 33.5-13 8.8-31.3 30-46.5 48.3-2.7-29.3-11.5-41.2-22-49.5-21.3-17-34.8-22.2-53.5-32.3C117 325 32 266.5 32 157.5 32 48.3 123.8-32 225.8-32 327.5-32 416 42 416 154c0 112.3-83 171-96.5 179.3zM322 7.7C301.9-12.4 231.9-21 205.3 3.5c-4.8 4.8.3 12 6.5 12 0 0 17-13.3 51.5-13.3 27 0 46 7.7 54.5 14 6.1 4.6 8.4-4.3 4.2-8.5zm-54.5 52.6c8.7 3.6 29 3.8 36.8-1.3 4.1-2.8 16.1-18.8 6.2-23.7-8.4-4.2-1.2 15.7-26.5 15.7-14.7 0-19.5-5.2-26.7-11-7-6-9.8-8-12.2-4.7-6 8.2 15.9 22.3 22.4 25zM360 43c-15.2 1-45.5 48.8-65 49.5-30.9.9-104.1-80.7-161.3-42-38.8 26.6-14.6 104.8 51.8 105.2 49.5.5 83.8-49 108.5-48.5 21.3.3 61.8 41.8 81.8 41.8 48.7 0 23.3-109.3-15.8-106z"/><glyph glyph-name="dyalog" unicode="" horiz-adv-x="416" d="M0 416V296.8h64V352h107.2C284.6 352 352 271.8 352 192.1 352 116 293.4 32 171.2 32H0v-64h171.2C331.9-32 416 80.7 416 192.1c0 58.7-22.1 113.4-62.3 154.3-44.8 45.6-108 69.6-182.5 69.6H0z"/><glyph glyph-name="earlybirds" unicode="" horiz-adv-x="480" d="M313.2 400.5c1.2 13 21.3 14 36.6 8.7.9-.3 26.2-9.7 19-15.2-27.9 7.4-56.4-18.2-55.6 6.5zm-201-6.9c30.7 8.1 62-20 61.1 7.1-1.3 14.2-23.4 15.3-40.2 9.6-1-.3-28.7-10.5-20.9-16.7zM319.4 288c-8.8 0-16-7.2-16-16s7.2-16 16-16 16 7.2 16 16-7.2 16-16 16zm-159.7 0c-8.8 0-16-7.2-16-16s7.2-16 16-16 16 7.2 16 16-7.2 16-16 16zm318.5-163.2c-9.9-24-40.7-11-63.9 1.2C400.8 56.9 356.2 14.6 288 1.8c.3-.9-2 .1 24-1 33.6-1.4 63.8 3.1 97.4 8-19.8 13.8-11.4 37.1-9.8 38.1 1.4.9 14.7-1.7 21.6-11.5 8.6 12.5 28.4 14.8 30.2 13.6 1.6-1.1 6.6-20.9-6.9-34.6 4.7.9 8.2 1.6 9.8 2.1 2.6.8 17.7-11.3 3.1-13.3-14.3-2.3-22.6-5.1-47.1-10.8-45.9-10.7-85.9-11.8-117.7-12.8l1-11.6c3.8-18.1-23.4-24.3-27.6-6.2.8-17.9-27.1-21.8-28.4 1l-.5-5.3c-.7-18.4-28.4-17.9-28.3.6-7.5-13.5-28.1-6.8-26.4 8.5l1.2 12.4c-36.7-.9-59.7-3.1-61.8-3.1-20.9 0-20.9 31.6 0 31.6 2.4 0 27.7-1.3 63.2-2.8-61.1 15.5-103.7 55-114.9 118.2-25-12.8-57.5-26.8-68.2-.8-10.5 25.4 21.5 42.6 66.8 73.4.7 6.6 1.6 13.3 2.7 19.8-14.4 19.6-11.6 36.3-16.1 60.4-16.8-2.4-23.2 9.1-23.6 23.1.3 7.3 2.1 14.9 2.4 15.4 1.1 1.8 10.1 2 12.7 2.6 6 31.7 50.6 33.2 90.9 34.5 19.7 21.8 45.2 41.5 80.9 48.3-15.3 19.4-3.4 39.9-2.4 40.4 1.7.8 21.2-4.3 26.3-23.2 5.2 8.8 18.3 11.4 19.6 10.7 1.1-.6 6.4-15-4.9-25.9 40.3-3.5 72.2-24.7 96-50.7 36.1-1.5 71.8-5.9 77.1-34 2.7-.6 11.6-.8 12.7-2.6.3-.5 2.1-8.1 2.4-15.4-.5-13.9-6.8-25.4-23.6-23.1-3.2-17.3-2.7-32.9-8.7-47.7 2.4-11.7 4-23.8 4.8-36.4 37-25.4 70.3-42.5 60.3-66.9zM207.4 288.1c.9 44-37.9 42.2-78.6 40.3-21.7-1-38.9-1.9-45.5-13.9-11.4-20.9 5.9-92.9 23.2-101.2 9.8-4.7 73.4-7.9 86.3 7.1 8.2 9.4 15 49.4 14.6 67.7zm52-58.3c-4.3 12.4-6 30.1-15.3 32.7-2 .5-9 .5-11 0-10-2.8-10.8-22.1-17-37.2 15.4 0 19.3-9.7 23.7-9.7 4.3 0 6.3 11.3 19.6 14.2zm135.7 84.7c-6.6 12.1-24.8 12.9-46.5 13.9-40.2 1.9-78.2 3.8-77.3-40.3-.5-18.3 5-58.3 13.2-67.8 13-14.9 76.6-11.8 86.3-7.1 15.8 7.6 36.5 78.9 24.3 101.3z"/><glyph glyph-name="ebay" unicode="" horiz-adv-x="640" d="M405.2 184.2c-29.1-.9-47.2-6.2-47.2-25.3 0-12.4 9.9-25.8 35-25.8 33.7 0 51.6 18.4 51.6 48.4v3.3c-11.8 0-26.3-.1-39.4-.6m71.5-39.7c0-9.3.3-18.6 1-26.8h-29.8c-.8 6.9-1.1 13.6-1.1 20.2-16.1-19.8-35.3-25.5-61.9-25.5-39.5 0-60.6 20.9-60.6 45 0 35 28.8 47.3 78.6 48.4 13.7.3 29 .4 41.7.4v3.4c0 23.4-15 33-41 33-19.3 0-33.6-8-35-21.8h-33.7c3.6 34.4 39.7 43.1 71.5 43.1 38.1 0 70.3-13.5 70.3-53.8v-65.6zm-349 56.8c-2.3 54.7-87.5 56.6-94.4 0h94.4zm-95-21.4c3.5-58.3 79.2-57.4 91.2-21.6H157c-6.4-34.4-43-46.1-74.4-46.1-57.2 0-82.5 31.5-82.5 74 0 46.8 26.2 77.6 83 77.6 45.3 0 78.4-23.7 78.4-75.4v-8.5H32.7zm211-45.7c29.8 0 50.2 21.5 50.2 53.8 0 32.4-20.4 53.8-50.2 53.8-29.6 0-50.2-21.4-50.2-53.8 0-32.3 20.6-53.8 50.2-53.8m-82.2 186h32.1v-80.6c15.7 18.7 37.4 24.2 58.7 24.2 35.7 0 75.4-24.1 75.4-76.2 0-43.6-31.5-75.4-76-75.4-23.3 0-45.1 8.3-58.7 24.9 0-6.6-.4-13.2-1.1-19.5h-31.5c.5 10.2 1.1 22.8 1.1 33.1v169.5zM640 258.5L540.8 63.7h-35.9l28.5 54.1-74.6 140.7h37.5l54.9-109.9L606 258.5h34z"/><glyph glyph-name="edge" unicode="" horiz-adv-x="512" d="M25.714 219.837c.111.162.23.323.342.485-.021-.162-.045-.323-.065-.485h-.277zm460.572-15.508c0 44.032-7.754 84.465-28.801 122.405-40.987 73.387-113.573 113.265-198.592 113.265-139.931.277-218.276-105.213-232.837-219.678 42.429 61.312 117.073 121.376 220.375 124.966 0 0 109.666 0 99.419-104.957H169.997c6.369 37.386 18.554 58.986 34.339 78.926-75.048-34.893-121.85-96.096-120.742-188.315.83-71.448 50.124-144.836 120.743-171.976 83.357-31.847 192.776-7.2 240.132 21.324V84.693c-80.864-56.494-270.871-60.925-272.255 67.572h314.073v52.064z"/><glyph glyph-name="elementor" unicode="" horiz-adv-x="448" d="M425.6 416H22.4C10 416 0 406 0 393.6V-9.6C0-22 10-32 22.4-32h403.2C438-32 448-22 448-9.6v403.2c0 12.4-10 22.4-22.4 22.4M164.3 92.5h-39.8v199h39.8v-199zm159.3 0H204.1v39.8h119.5V92.5zm0 79.6H204.1v39.8h119.5v-39.8zm0 79.7H204.1v39.8h119.5v-39.8z"/><glyph glyph-name="ember" unicode="" horiz-adv-x="640" d="M639.9 193.4c-1.1 10.7-10.7 6.8-10.7 6.8s-15.6-12.1-29.3-10.7c-13.7 1.3-9.4 32-9.4 32s3 28.1-5.1 30.4c-8.1 2.4-18-7.3-18-7.3s-12.4-13.7-18.3-31.2l-1.6-.5s1.9 30.6-.3 37.6c-1.6 3.5-16.4 3.2-18.8-3s-14.2-49.2-15-67.2c0 0-23.1-19.6-43.3-22.8s-25 9.4-25 9.4 54.8 15.3 52.9 59.1c-1.9 43.8-44.2 27.6-49 24-4.6-3.5-29.4-18.4-36.6-59.7-.2-1.4-.7-7.5-.7-7.5s-21.2-14.2-33-18c0 0 33 55.6-7.3 80.9-18.3 11-32.8-12.1-32.8-12.1s54.5 60.7 42.5 112c-5.8 24.4-18 27.1-29.2 23.1-17-6.7-23.5-16.7-23.5-16.7s-22-32-27.1-79.5-12.6-105.1-12.6-105.1-10.5-10.2-20.2-10.7-5.4 28.7-5.4 28.7 7.5 44.6 7 52.1-1.1 11.6-9.9 14.2c-8.9 2.7-18.5-8.6-18.5-8.6s-25.5-38.7-27.7-44.6l-1.3-2.4-1.3 1.6s18 52.7.8 53.5c-17.2.8-28.5-18.8-28.5-18.8s-19.6-32.8-20.4-36.5l-1.3 1.6s8.1 38.2 6.4 47.6c-1.6 9.4-10.5 7.5-10.5 7.5s-11.3 1.3-14.2-5.9-13.7-55.3-15-70.7c0 0-28.2-20.2-46.8-20.4-18.5-.3-16.7 11.8-16.7 11.8s68 23.3 49.4 69.2c-8.3 11.8-18 15.5-31.7 15.3-13.7-.3-30.3-8.6-41.3-33.3-5.3-11.8-6.8-23-7.8-31.5 0 0-12.3-2.4-18.8 2.9s-10 0-10 0-11.2-14-.1-18.3 28.1-6.1 28.1-6.1c1.6-7.5 6.2-19.5 19.6-29.7 20.2-15.3 58.8 1.3 58.8 1.3l15.9 8.8s.5-14.6 12.1-16.7c11.6-2.1 16.4-1 36.5 47.9 11.8 25 12.6 23.6 12.6 23.6l1.3.3s-9.1-46.8-5.6-59.7C187.7 128.6 203 130 203 130s8.3-2.4 15 21.2c6.7 23.6 19.6 49.9 19.6 49.9h1.6s-5.6-48.1 3-63.7c8.6-15.6 30.9-5.3 30.9-5.3s15.6 7.8 18 10.2c0 0 18.5-15.8 44.6-12.9 58.3 11.5 79.1 25.9 79.1 25.9s10-24.4 41.1-26.7c35.5-2.7 54.8 18.6 54.8 18.6s-.3-13.5 12.1-18.6c12.4-5.1 20.7 22.8 20.7 22.8l20.7 57.2h1.9s1.1-37.3 21.5-43.2 47 13.7 47 13.7 6.4 3.5 5.3 14.3zm-578-5.3c.8 32 21.8 45.9 29 39 7.3-7 4.6-22-9.1-31.4-13.7-9.5-19.9-7.6-19.9-7.6zm272.8 123.8s19.1 49.7 23.6 25.5-40-96.2-40-96.2c.5 16.2 16.4 70.7 16.4 70.7zm22.8-138.4c-12.6-33-43.3-19.6-43.3-19.6s-3.5 11.8 6.4 44.9 33.3 20.2 33.3 20.2 16.2-12.4 3.6-45.5zm84.6 14.6s-3 10.5 8.1 30.6c11 20.2 19.6 9.1 19.6 9.1s9.4-10.2-1.3-25.5-26.4-14.2-26.4-14.2z"/><glyph glyph-name="empire" unicode="" horiz-adv-x="496" d="M287.6 393.8c-10.8 2.2-22.1 3.3-33.5 3.6v18.2c78.1-2.2 146.1-44 184.6-106.6l-15.8-9.1c-6.1 9.7-12.7 18.8-20.2 27.1l-18-15.5c-26 29.6-61.4 50.7-101.9 58.4l4.8 23.9zM53.4 125.6l23 7.7c-6.4 18.3-10 38.2-10 58.7s3.3 40.4 9.7 58.7l-22.7 7.7c3.6 10.8 8.3 21.3 13.6 31l-15.8 9.1C34 267 24.1 230.5 24.1 192s10-75 27.1-106.6L67 94.5c-5.3 10-9.7 20.3-13.6 31.1zM213.1 14c-40.4 8-75.8 29.1-101.9 58.7l-18-15.8C85.7 65.5 78.8 74.6 73 84.3l-16-9.4C95.5 12.6 163.8-29.4 241.9-31.7v18.3c-11.3.3-22.7 1.7-33.5 3.6l4.7 23.8zM93.3 327.1l18-15.5c26 29.6 61.4 50.7 101.9 58.4l-4.7 23.8c10.8 2.2 22.1 3.3 33.5 3.6v18.2c-78.1-2.2-146.1-44-184.6-106.6l15.8-9.1c6 9.7 12.6 18.9 20.1 27.2zM402.7 56.9l-18 15.8C358.7 43.1 323.3 22 282.8 14l4.7-23.8c-10.8-1.9-22.1-3.3-33.5-3.6v-18.3c78.1 2.2 146.4 44.3 184.9 106.6l-16.1 9.4c-5.7-9.7-12.6-18.8-20.1-27.4zM496 192C496 55 385-56 248-56S0 55 0 192s111 248 248 248 248-111 248-248zm-12.2 0c0 130.1-105.7 235.8-235.8 235.8S12.2 322.1 12.2 192 117.9-43.8 248-43.8 483.8 61.9 483.8 192zm-39 106.6l-15.8-9.1c5.3-9.7 10-20.2 13.6-31l-22.7-7.7c6.4-18.3 9.7-38.2 9.7-58.7s-3.6-40.4-10-58.7l23-7.7c-3.9-10.8-8.3-21-13.6-31l15.8-9.1C462 117 471.9 153.5 471.9 192s-9.9 75-27.1 106.6zm-183-177.7c16.3 3.3 30.4 11.6 40.7 23.5l51.2-44.8c11.9 13.6 21.3 29.3 27.1 46.8l-64.2 22.1c2.5 7.5 3.9 15.2 3.9 23.5s-1.4 16.1-3.9 23.5l64.5 22.1c-6.1 17.4-15.5 33.2-27.4 46.8l-51.2-44.8c-10.2 11.9-24.4 20.5-40.7 23.8l13.3 66.4c-8.6 1.9-17.7 2.8-27.1 2.8-9.4 0-18.5-.8-27.1-2.8l13.3-66.4c-16.3-3.3-30.4-11.9-40.7-23.8l-51.2 44.8c-11.9-13.6-21.3-29.3-27.4-46.8l64.5-22.1c-2.5-7.5-3.9-15.2-3.9-23.5s1.4-16.1 3.9-23.5l-64.2-22.1c5.8-17.4 15.2-33.2 27.1-46.8l51.2 44.8c10.2-11.9 24.4-20.2 40.7-23.5l-13.3-66.7c8.6-1.7 17.7-2.8 27.1-2.8 9.4 0 18.5 1.1 27.1 2.8l-13.3 66.7z"/><glyph glyph-name="envira" unicode="" horiz-adv-x="448" d="M0 416c477.6 0 366.6-317.3 367.1-366.3L448-32h-26l-70.4 71.2c-39-4.2-124.4-34.5-214.4 37C47 147.7 52 233.3 0 416zm79.7-46c-49.7 23.5-5.2-9.2-5.2-9.2 45.2-31.2 66-73.7 90.2-119.9 31.5-60.2 79-139.7 144.2-167.7 65-28 34.2-12.5 6 8.5-28.2 21.2-68.2 87-91 130.2-31.7 60-61 118.6-144.2 158.1z"/><glyph glyph-name="erlang" unicode="" horiz-adv-x="640" d="M21.7 201.6c-.1-86.8 29-159.5 78.7-212.1H0v405h87.2c-41.5-50.2-65.6-116.2-65.5-192.9zM640 394.4h-83.6c31.4-42.7 48.7-97.5 46.2-162.7.5-6 .5-11.7 0-24.1H230.2C230 97.9 269.1 12.7 368.8 12.3c68.5.3 118 51 151.9 106.1l96.4-48.2c-17.4-30.9-36.5-57.8-57.9-80.8H640v405zm-80.8-405h-.2.2zm-3.1 405h.3l-.1.1-.2-.1zm-230.7-9.6c-45.9-.1-85.1-33.5-89.2-83.2h169.9c-1.1 49.7-34.5 83.1-80.7 83.2z"/><glyph glyph-name="ethereum" unicode="" horiz-adv-x="320" d="M311.9 187.2L160 94.4 8 187.2 160 448l151.9-260.8zM160 64.6L8 157.4 160-64l152 221.4-152-92.8z"/><glyph glyph-name="etsy" unicode="" horiz-adv-x="384" d="M384 100c-1.75-10.75-13.75-110-15.5-132C250.621-27.701 148.605-27.257 0-32v25.5c45.457 8.948 60.627 8.019 61 35.25 1.793 72.322 3.524 244.143 0 322-1.029 28.46-12.13 26.765-61 36v25.5c73.886-2.358 255.933-8.551 362.999 3.75-3.5-38.25-7.75-126.5-7.75-126.5H332c-11.053 42.835-18.759 90.5-54.75 90.5h-137c-10.25 0-10.75-3.5-10.75-9.75V206.5c58-.5 88.5 2.5 88.5 2.5 29.77.951 27.56 8.502 40.75 65.251h25.75c-4.407-101.351-3.91-61.829-1.75-160.25H257c-9.155 40.086-9.065 61.045-39.501 61.5 0 0-21.5 2-88 2v-139c0-26 14.25-38.25 44.25-38.25H263c63.636 0 66.564 24.996 98.751 99.75H384z"/><glyph glyph-name="expeditedssl" unicode="" horiz-adv-x="496" d="M248 404.6c-117.4 0-212.6-95.2-212.6-212.6S130.6-20.6 248-20.6 460.6 74.6 460.6 192 365.4 404.6 248 404.6zm-97.4-132.9c0 53.7 43.7 97.4 97.4 97.4s97.4-43.7 97.4-97.4v-26.6c0-5-3.9-8.9-8.9-8.9h-17.7c-5 0-8.9 3.9-8.9 8.9v26.6c0 82.1-124 82.1-124 0v-26.6c0-5-3.9-8.9-8.9-8.9h-17.7c-5 0-8.9 3.9-8.9 8.9v26.6zM389.7 68c0-9.7-8-17.7-17.7-17.7H124c-9.7 0-17.7 8-17.7 17.7v141.7c0 9.7 8 17.7 17.7 17.7h248c9.7 0 17.7-8 17.7-17.7V68zm-248 137.3V72.4c0-2.5-1.9-4.4-4.4-4.4h-8.9c-2.5 0-4.4 1.9-4.4 4.4v132.9c0 2.5 1.9 4.4 4.4 4.4h8.9c2.5 0 4.4-1.9 4.4-4.4zm141.7-48.7c0-13-7.2-24.4-17.7-30.4V94.6c0-5-3.9-8.9-8.9-8.9h-17.7c-5 0-8.9 3.9-8.9 8.9v31.6c-10.5 6.1-17.7 17.4-17.7 30.4 0 19.7 15.8 35.4 35.4 35.4s35.5-15.8 35.5-35.4zM248 440C111 440 0 329 0 192S111-56 248-56 496 55 496 192 385 440 248 440zm0-478.3C121-38.3 17.7 65 17.7 192S121 422.3 248 422.3 478.3 319 478.3 192 375-38.3 248-38.3z"/><glyph glyph-name="facebook-f" unicode="" horiz-adv-x="264" d="M76.7-64v229H0v91h76.7v71.7c0 77.9 47.6 120.3 117.1 120.3 33.3 0 61.9-2.5 70.2-3.6V363h-48.2c-37.8 0-45.1-18-45.1-44.3V256H256l-11.7-91h-73.6V-64"/><glyph glyph-name="facebook-messenger" unicode="" horiz-adv-x="448" d="M224 416C15.9 416-77.5 170 84.6 47.4V-32l75.7 42c142.2-39.8 285.4 59.9 285.4 198.7C445.8 323.2 346.5 416 224 416zm23.4-278.1L190 197.5 79.6 136.4l121.1 128.5 57.4-59.6 110.4 61.1-121.1-128.5z"/><glyph glyph-name="facebook-square" unicode="" horiz-adv-x="448" d="M448 368V16c0-26.5-21.5-48-48-48h-85.3v177.2h60.6l8.7 67.6h-69.3V256c0 19.6 5.4 32.9 33.5 32.9H384v60.4c-6.2.8-27.4 2.7-52.2 2.7-51.6 0-87-31.5-87-89.4v-49.9H184v-67.6h60.9V-32H48C21.5-32 0-10.5 0 16v352c0 26.5 21.5 48 48 48h352c26.5 0 48-21.5 48-48z"/><glyph glyph-name="facebook" unicode="" horiz-adv-x="448" d="M448 391.3V-7.2c0-13.7-11.1-24.7-24.7-24.7H309.1v173.4h58.2l8.7 67.6h-67v43.2c0 19.6 5.4 32.9 33.5 32.9h35.8v60.5c-6.2.8-27.4 2.7-52.2 2.7-51.6 0-87-31.5-87-89.4v-49.9h-58.4v-67.6h58.4V-32H24.7C11.1-32 0-20.9 0-7.3v398.6C0 404.9 11.1 416 24.7 416h398.5c13.7 0 24.8-11.1 24.8-24.7z"/></font>
</defs>
</svg>
