<svg xmlns="http://www.w3.org/2000/svg"><defs><font id="open-iconic" horiz-adv-x="800"><font-face font-family="Icons" font-weight="400" units-per-em="800" panose-1="2 0 5 3 0 0 0 0 0 0" ascent="800" descent="0" bbox="-0.5 -101 802 800.126" underline-thickness="50" underline-position="-100" unicode-range="U+E000-E0DE"/><glyph unicode="" d="M300 700h500V0H300v100h400v500H300v100zm100-200l200-150-200-150v100H0v100h400v100z"/><glyph glyph-name="1" unicode="" d="M300 700h500V0H300v100h400v500H300v100zM200 500V400h400V300H200V200L0 350z"/><glyph glyph-name="2" unicode="" d="M350 700c193 0 350-157 350-350v-50h100L600 100 400 300h100v50c0 138-112 250-250 250S0 488 0 350c0 193 157 350 350 350z"/><glyph glyph-name="3" unicode="" d="M450 700c193 0 350-157 350-350 0 138-112 250-250 250S300 488 300 350v-50h100L200 100 0 300h100v50c0 193 157 350 350 350z"/><glyph glyph-name="4" unicode="" d="M0 700h800V600H0v100zm100-200h600V400H100v100zM0 300h800V200H0v100zm100-200h600V0H100v100z"/><glyph glyph-name="5" unicode="" d="M0 700h800V600H0v100zm0-200h600V400H0v100zm0-200h800V200H0v100zm0-200h600V0H0v100z"/><glyph glyph-name="6" unicode="" d="M0 700h800V600H0v100zm200-200h600V400H200v100zM0 300h800V200H0v100zm200-200h600V0H200v100z"/><glyph glyph-name="7" unicode="" d="M400 700c75 0 146-23 206-59l-75-225-322 234c57 31 122 50 191 50zM125 588l191-138L6 228c-4 24-6 47-6 72 0 114 49 215 125 288zm563-13c69-72 112-168 112-275 0-35-8-68-16-100H566zM216 253L328-94C200-71 96 15 41 128zm156-153h372C680-9 567-85 434-97z"/><glyph glyph-name="8" unicode="" horiz-adv-x="600" d="M200 800h100V300h200L253 0 0 300h200v500z"/><glyph glyph-name="9" unicode="" d="M400 800c221 0 400-179 400-400S621 0 400 0 0 179 0 400s179 400 400 400zM300 700V400H100l300-300 300 300H500v300H300z"/><glyph glyph-name="a" unicode="" d="M400 800c221 0 400-179 400-400S621 0 400 0 0 179 0 400s179 400 400 400zm0-100L100 400l300-300v200h300v200H400v200z"/><glyph glyph-name="b" unicode="" d="M400 800c221 0 400-179 400-400S621 0 400 0 0 179 0 400s179 400 400 400zm0-100V500H100V300h300V100l300 300z"/><glyph glyph-name="c" unicode="" d="M400 800c221 0 400-179 400-400S621 0 400 0 0 179 0 400s179 400 400 400zm0-100L100 400h200V100h200v300h200z"/><glyph glyph-name="d" unicode="" d="M300 600V400h500V300H300V100L0 347z"/><glyph glyph-name="e" unicode="" d="M500 600l300-247-300-253v200H0v100h500v200z"/><glyph glyph-name="f" unicode="" horiz-adv-x="600" d="M200 800h200V300h200L303 0 0 300h200v500z"/><glyph glyph-name="10" unicode="" d="M300 700V500h500V300H300V100L0 397z"/><glyph glyph-name="11" unicode="" d="M500 700l300-297-300-303v200H0v200h500v200z"/><glyph glyph-name="12" unicode="" horiz-adv-x="600" d="M297 800l303-300H400V0H200v500H0z"/><glyph glyph-name="13" unicode="" horiz-adv-x="600" d="M247 800l253-300H300V0H200v500H0z"/><glyph glyph-name="14" unicode="" d="M400 800h100V0H400v800zM200 700h100V100H200v600zm400-100h100V200H600v400zM0 500h100V300H0v200z"/><glyph glyph-name="15" unicode="" d="M116 600l72-72c-54-54-88-126-88-209s34-159 88-213l-72-72C44 106 0 209 0 319s44 209 116 281zm568 0c72-72 116-171 116-281S756 106 684 34l-72 72c54 54 88 130 88 213s-34 155-88 209zM259 460l69-72c-18-18-28-41-28-69s10-54 28-72l-69-72c-36 36-59 89-59 144s23 105 59 141zm282-1c36-36 59-85 59-140s-23-108-59-144l-69 72c18 18 28 44 28 72s-10 51-28 69z"/><glyph glyph-name="16" unicode="" horiz-adv-x="400" d="M200 800c110 0 200-90 200-200s-90-200-200-200S0 490 0 600s90 200 200 200zM100 319c31-11 65-19 100-19s68 8 100 19V0L200 100 100 0v319z"/><glyph glyph-name="17" unicode="" d="M400 800c220 0 400-180 400-400S620 0 400 0 0 180 0 400s180 400 400 400zm0-100c-166 0-300-134-300-300 0-66 21-126 56-175l419 419c-49 35-109 56-175 56zm244-125L225 156c49-35 109-56 175-56 166 0 300 134 300 300 0 66-21 126-56 175z"/><glyph glyph-name="18" unicode="" d="M0 700h100V100h700V0H0v700zm500 0h200V200H500v500zM200 500h200V200H200v300z"/><glyph glyph-name="19" unicode="" d="M397 800c13 1 23-4 34-13 2-2 214-254 241-287h128V400H700V34c0-18-16-34-34-34H134c-18 0-34 16-34 34v366H0v100h128l234 281c9 11 22 18 35 19zm3-128L256 500h288zM250 300c-28 0-50-22-50-50V150c0-28 22-50 50-50s50 22 50 50v100c0 28-22 50-50 50zm300 0c-28 0-50-22-50-50V150c0-28 22-50 50-50s50 22 50 50v100c0 28-22 50-50 50z"/><glyph glyph-name="1a" unicode="" d="M9 700h682c6 0 9-4 9-10V500h100V300H700V109c0-6-3-9-9-9H9c-6 0-9 3-9 9v582c0 6 3 9 9 9zm91-100V200h500v400H100z"/><glyph glyph-name="1b" unicode="" d="M9 700h682c6 0 9-4 9-10V500h100V300H700V109c0-6-3-9-9-9H9c-6 0-9 3-9 9v582c0 6 3 9 9 9z"/><glyph glyph-name="1c" unicode="" d="M92 650c0 23 19 50 45 50h513c28 0 50-22 50-50s-22-50-50-50h-50V459c9-17 120-231 166-309 16-26 34-61 34-106 0-39-15-77-41-103h-3c-26-25-62-41-100-41H144c-39 0-77 15-103 41S0 5 0 44c0 46 18 80 34 106 46 78 157 292 166 309v141h-50c-2 0-6-1-8-1-28 0-50 23-50 51zm408-50H300V438l-6-10s-63-123-119-228h450c-56 105-119 228-119 228l-6 10v162z"/><glyph glyph-name="1d" unicode="" d="M400 800c110 0 200-90 200-200 0-104 52-198 134-266 41-34 66-82 66-134H0c0 52 25 100 66 134 82 68 134 162 134 266 0 110 90 200 200 200zM300 100h200C500 45 455 0 400 0S300 45 300 100z"/><glyph glyph-name="1e" unicode="" horiz-adv-x="600" d="M150 800h50l350-250-225-147 225-153L200 0h-50v250l-75-75-75 75 150 150L0 550l75 75 75-75v250zm100-150V450l150 100zm0-300V150l150 100z"/><glyph glyph-name="1f" unicode="" d="M0 800h500c110 0 200-90 200-200 0-47-17-91-44-125 85-40 144-125 144-225C800 112 688 0 550 0H0v100c55 0 100 45 100 100v400c0 55-45 100-100 100v100zm300-100V500h100c55 0 100 45 100 100s-45 100-100 100H300zm0-300V100h150c83 0 150 67 150 150s-67 150-150 150H300z"/><glyph glyph-name="20" unicode="" horiz-adv-x="600" d="M300 800V500h200L200 0v300H0z"/><glyph glyph-name="21" unicode="" d="M100 800h300V500l100 100 100-100v300h50c28 0 50-22 50-50V200H150c-28 0-50-22-50-50s22-50 50-50h550V0H150C67 0 0 67 0 150v550l3 19c8 39 39 70 78 78z"/><glyph glyph-name="22" unicode="" horiz-adv-x="400" d="M0 800h400V0L200 200 0 0v800z"/><glyph glyph-name="23" unicode="" d="M0 800h800V700H0v100zm0-200h300V497h203v103h297V9c0-6-3-9-9-9H9C3 0 0 3 0 9v591z"/><glyph glyph-name="24" unicode="" d="M300 800h200c55 0 100-45 100-100V600h191c6 0 9-3 9-9V350c0-28-22-50-50-50H50c-28 0-50 22-50 50v241c0 6 3 9 9 9h191v100c0 55 45 100 100 100zm0-100V600h200v100H300zM0 209c16-6 32-9 50-9h700c18 0 34 3 50 9V9c0-6-3-9-9-9H9C3 0 0 3 0 9v200z"/><glyph glyph-name="25" unicode="" horiz-adv-x="600" d="M300 800c58 0 110-16 147-53s53-89 53-147H400c0 39-11 61-25 75s-36 25-75 25c-35 0-55-10-72-31s-28-55-28-94c0-51 20-107 28-175h172V300H222c-14-60-49-127-113-200h491V0H0v122l16 12c69 69 95 121 106 166H0v100h125c-8 50-25 106-25 175 0 58 16 114 50 156 34 43 88 69 150 69z"/><glyph glyph-name="26" unicode="" d="M34 700h716c28 0 50-22 50-50V-50c0-28-22-50-50-50H50C22-100 0-78 0-50v702c0 20 15 42 34 48zm116-100c-28 0-50-22-50-50s22-50 50-50 50 22 50 50-22 50-50 50zm200 0c-28 0-50-22-50-50s22-50 50-50h300c28 0 50 22 50 50s-22 50-50 50H350zM100 400V0h600v400H100z"/><glyph glyph-name="27" unicode="" d="M744 797l6-3 44-44c4-4 3-8 0-12L528 363l-15-13-25-12c-23 72-78 127-150 150l12 25 13 15 375 266zM266 400c74 0 134-60 134-134C400 119 281 0 134 0 86 0 39 12 0 34c80 46 134 133 134 232 0 74 58 134 132 134z"/><glyph glyph-name="28" unicode="" d="M9 451c0 23 19 50 46 50 8 0 19-3 26-7l131-66 29 22c-79 81-1 250 118 250s197-167 119-250l28-22 131 66c6 4 12 7 21 7 28 0 50-22 50-50 0-17-12-37-27-45l-115-56c9-16 19-33 25-50h68c28 0 50-22 50-50s-22-50-50-50h-50c0-23-2-45-6-66l78-40c21-5 37-28 37-49 0-28-22-50-50-50-10 0-23 5-31 11l-65 35C548-5 510-45 469-69c-35 19-60 45-60 72v247c0 28-22 50-50 50-24 0-45-17-50-40 1-3 1-8 1-11s0-8-1-11V3c0-28-24-53-59-72-41 25-79 64-103 110L81 6C73 0 60-5 50-5 22-5 0 17 0 45c0 21 16 44 37 49l78 40c-4 21-6 43-6 66H54c-28 0-50 22-50 50 0 26 22 50 50 50h74c6 17 16 34 25 50L37 406c-16 7-28 27-28 45z"/><glyph glyph-name="29" unicode="" d="M600 700h91c6 0 9-3 9-9V109c0-6-3-9-9-9h-91v600zM210 503l290 147V150L250 275v-3c-15 0-25-8-28-22l75-178c11-25 0-58-25-69s-58 0-69 25L100 300H9c-6 0-9 3-9 9v182c0 6 3 9 9 9h182z"/><glyph glyph-name="2a" unicode="" d="M9 800h682c6 0 9-3 9-9V9c0-6-3-9-9-9H9C3 0 0 3 0 9v782c0 6 3 9 9 9zm91-100V500h500v200H100zm0-300V300h100v100H100zm200 0V300h100v100H300zm200 0V100h100v300H500zM100 200V100h100v100H100zm200 0V100h100v100H300z"/><glyph glyph-name="2b" unicode="" d="M0 800h700V600H0v200zm0-300h700V9c0-6-3-9-9-9H9C3 0 0 3 0 9v491zm100-100V300h100v100H100zm200 0V300h100v100H300zm200 0V300h100v100H500zM100 200V100h100v100H100zm200 0V100h100v100H300z"/><glyph glyph-name="2c" unicode="" d="M409 800h182c6 0 10-4 12-9l94-182c2-5 6-9 12-9h82c6 0 9-3 9-9V9c0-6-3-9-9-9H9C3 0 0 3 0 9v441c0 83 67 150 150 150h141c6 0 10 4 12 9l94 182c2 5 6 9 12 9zM150 500c-28 0-50-22-50-50s22-50 50-50 50 22 50 50-22 50-50 50zm350 0c-110 0-200-90-200-200s90-200 200-200 200 90 200 200-90 200-200 200zm0-100c55 0 100-45 100-100s-45-100-100-100-100 45-100 100 45 100 100 100z"/><glyph glyph-name="2d" unicode="" d="M0 600h800L400 200z"/><glyph glyph-name="2e" unicode="" horiz-adv-x="400" d="M400 800V0L0 400z"/><glyph glyph-name="2f" unicode="" horiz-adv-x="400" d="M0 800l400-400L0 0v800z"/><glyph glyph-name="30" unicode="" d="M400 600l400-400H0z"/><glyph glyph-name="31" unicode="" d="M0 550c0 23 20 50 46 50h212c17 0 37-13 44-28l38-72h444c14 0 19-12 15-25l-81-250c-4-13-21-25-35-25H333c-14 0-30 12-34 25-27 83-54 167-81 250l-10 25H58c-2 0-5-1-7-1-28 0-51 23-51 51zm358-450c28 0 50-22 50-50S386 0 358 0s-50 22-50 50 22 50 50 50zm300 0c28 0 50-22 50-50S686 0 658 0s-50 22-50 50 22 50 50 50z"/><glyph glyph-name="32" unicode="" d="M0 700h500V600H200V300H100L0 200v500zm300-200h500V0L700 100H300v400z"/><glyph glyph-name="33" unicode="" d="M641 700l143-141L291 66c-71 76-146 148-219 222L0 359l141 141c50-51 101-101 153-150 116 117 234 231 347 350z"/><glyph glyph-name="34" unicode="" d="M150 600l250-250 250 250 150-150L400 50 0 450z"/><glyph glyph-name="35" unicode="" horiz-adv-x="600" d="M400 800l150-150-250-250 250-250L400 0 0 400z"/><glyph glyph-name="36" unicode="" horiz-adv-x="600" d="M150 800l400-400L150 0 0 150l250 250L0 650z"/><glyph glyph-name="37" unicode="" d="M400 600l400-400L650 50 400 300 150 50 0 200z"/><glyph glyph-name="38" unicode="" d="M400 800c221 0 400-179 400-400S621 0 400 0 0 179 0 400s179 400 400 400zm200-178L350 372 250 472l-72-72 172-172 322 322z"/><glyph glyph-name="39" unicode="" d="M400 800c221 0 400-179 400-400S621 0 400 0 0 179 0 400s179 400 400 400zM250 622l-72-72 150-150-150-150 72-72 150 150 150-150 72 72-150 150 150 150-72 72-150-150z"/><glyph glyph-name="3a" unicode="" d="M350 800c28 0 50-22 50-50v-50h75c14 0 25-11 25-25v-75H200v75c0 14 11 25 25 25h75v50c0 28 22 50 50 50zM25 700h75V500h500v200h75c14 0 25-11 25-25V25c0-14-11-25-25-25H25C11 0 0 11 0 25v650c0 14 11 25 25 25z"/><glyph glyph-name="3b" unicode="" d="M400 800c220 0 400-180 400-400S620 0 400 0 0 180 0 400s180 400 400 400zm0-100c-166 0-300-134-300-300s134-300 300-300 300 134 300 300-134 300-300 300zm-50-100h100V419c23-24 47-47 72-69l-72-72c-27 30-55 59-84 88l-16 12v222z"/><glyph glyph-name="3c" unicode="" d="M450 800c138 0 250-112 250-250v-50c58-21 100-85 100-150 0-18-3-34-9-50H600v50c0 83-67 150-150 150s-150-67-150-150v-50H28C11 330 0 363 0 400c0 110 90 200 200 200 23 114 129 200 250 200zm-16-400h7c3 0 6 1 9 1 28 0 50-22 50-50V200h150L450 0 250 200h150v152c0 20 15 42 34 48z"/><glyph glyph-name="3d" unicode="" d="M450 800c138 0 250-112 250-250v-50c58-21 100-85 100-150 0-18-3-34-9-50H650L450 500 250 300H28C11 330 0 363 0 400c0 110 90 200 200 200 23 114 129 200 250 200zm0-450l250-250H500V50c0-28-22-50-50-50s-50 22-50 50v50H200z"/><glyph glyph-name="3e" unicode="" d="M450 700c138 0 250-112 250-250v-50c58-21 100-85 100-150 0-83-67-150-150-150H200C90 100 0 190 0 300s90 200 200 200c23 114 129 200 250 200z"/><glyph glyph-name="3f" unicode="" d="M250 800c82 0 154-40 200-100-143 0-270-85-325-209-36-10-70-25-100-47C9 477 0 511 0 550c0 138 112 250 250 250zm200-200c138 0 250-112 250-250v-50c58-21 100-85 100-150C800 67 733 0 650 0H200C90 0 0 90 0 200s90 200 200 200c23 114 129 200 250 200z"/><glyph glyph-name="40" unicode="" d="M500 700h100L300 100H200zM100 600h100L100 400l100-200H100L0 400zm500 0h100l100-200-100-200H600l100 200z"/><glyph glyph-name="41" unicode="" d="M350 800h100l50-119 28-12 119 50 72-72-50-119 12-28 119-50V350l-119-50-12-28 50-119-72-72-119 50-28-12L450 0H350l-50 119-28 12-119-50-72 72 50 119-12 28L0 350v100l119 50 12 28-50 119 72 72 119-50 28 12zm50-250c-83 0-150-67-150-150s67-150 150-150 150 67 150 150-67 150-150 150z"/><glyph glyph-name="42" unicode="" d="M0 800h800V600H0v200zm200-300h400L400 300zM0 100h800V0H0v100z"/><glyph glyph-name="43" unicode="" d="M0 800h100V0H0v800zm600 0h200V0H600v800zM500 600V200L300 400z"/><glyph glyph-name="44" unicode="" d="M0 800h200V0H0v800zm700 0h100V0H700v800zM300 600l200-200-200-200v400z"/><glyph glyph-name="45" unicode="" d="M0 800h800V700H0v100zm400-300l200-200H200zM0 200h800V0H0v200z"/><glyph glyph-name="46" unicode="" d="M150 700c83 0 150-67 150-150v-50h100v50c0 83 67 150 150 150s150-67 150-150-67-150-150-150h-50V300h50c83 0 150-67 150-150S633 0 550 0 400 67 400 150v50H300v-50C300 67 233 0 150 0S0 67 0 150s67 150 150 150h50v100h-50C67 400 0 467 0 550s67 150 150 150zm0-100c-28 0-50-22-50-50s22-50 50-50h50v50c0 28-22 50-50 50zm400 0c-28 0-50-22-50-50v-50h50c28 0 50 22 50 50s-22 50-50 50zM300 400V300h100v100H300zM150 200c-28 0-50-22-50-50s22-50 50-50 50 22 50 50v50h-50zm350 0v-50c0-28 22-50 50-50s50 22 50 50-22 50-50 50h-50z"/><glyph glyph-name="47" unicode="" d="M0 791c0 5 4 9 9 9h782c6 0 9-4 9-10V0L600 200H9c-6 0-9 3-9 9v582z"/><glyph glyph-name="48" unicode="" d="M400 800c220 0 400-180 400-400S620 0 400 0 0 180 0 400s180 400 400 400zm0-100c-166 0-300-134-300-300s134-300 300-300 300 134 300 300-134 300-300 300zm200-100L500 300 200 200l100 300zM400 450c-28 0-50-22-50-50s22-50 50-50 50 22 50 50-22 50-50 50z"/><glyph glyph-name="49" unicode="" d="M400 800c220 0 400-180 400-400S620 0 400 0 0 180 0 400s180 400 400 400zm0-100V100c166 0 300 134 300 300S566 700 400 700z"/><glyph glyph-name="4a" unicode="" d="M0 800h800V700H0v100zm0-200h500V500H0v100zm0-300h800V200H0v100zm0-200h600V0H0v100zm750 0c28 0 50-22 50-50S778 0 750 0s-50 22-50 50 22 50 50 50z"/><glyph glyph-name="4b" unicode="" d="M25 700h750c14 0 25-11 25-25v-75H0v75c0 14 11 25 25 25zM0 500h800V125c0-14-11-25-25-25H25c-14 0-25 11-25 25v375zm100-200V200h100v100H100zm200 0V200h100v100H300z"/><glyph glyph-name="4c" unicode="" d="M100 800h100V700h450l100 100 50-50-100-100V200h100V100H700V0H600v100H100v500H0v100h100v100zm100-200V250l350 350H200zm400-50L250 200h350v350z"/><glyph glyph-name="4d" unicode="" d="M400 800c220 0 400-180 400-400S620 0 400 0 0 180 0 400s180 400 400 400zm0-100c-166 0-300-134-300-300s134-300 300-300 300 134 300 300-134 300-300 300zm0-100c28 0 50-22 50-50s-22-50-50-50-50 22-50 50 22 50 50 50zM200 452c0 20 15 42 34 48h14c12 0 28-7 36-16l91-90 25 6c55 0 100-45 100-100s-45-100-100-100-100 45-100 100l6 25-90 91c-9 8-16 24-16 36zm350 48c28 0 50-22 50-50s-22-50-50-50-50 22-50 50 22 50 50 50z"/><glyph glyph-name="4e" unicode="" d="M300 800h200V500h200L400 200 100 500h200v300zM0 100h800V0H0v100z"/><glyph glyph-name="4f" unicode="" d="M0 800h800V700H0v100zm400-200l300-300H500V0H300v300H100z"/><glyph glyph-name="50" unicode="" d="M200 700h600V100H200L0 400zm150-78l-72-72 150-150-150-150 72-72 150 150 150-150 72 72-150 150 150 150-72 72-150-150z"/><glyph glyph-name="51" unicode="" d="M400 700c220 0 400-180 400-400H700c0 166-134 300-300 300S100 466 100 300H0c0 220 180 400 400 400zm-59-209l59-88 59 88c81-25 141-101 141-191 0-110-90-200-200-200s-200 90-200 200c0 90 60 166 141 191z"/><glyph glyph-name="52" unicode="" d="M0 800h300V400h400V0H0v800zm400 0l300-300H400v300zM100 600V500h100v100H100zm0-200V300h100v100H100zm0-200V100h400v100H100z"/><glyph glyph-name="53" unicode="" horiz-adv-x="600" d="M200 700h100V600h75c30 0 58-6 81-22s44-44 44-78V400H400v94c-4 3-13 6-25 6H125c-14 0-25-11-25-25v-50c0-15 20-40 34-44l257-65c66-16 109-73 109-141v-50C500 57 443 0 375 0h-75v-100H200V0h-75C95 0 67 6 44 22S0 66 0 100v100h100v-94c4-3 13-6 25-6h250c14 0 25 11 25 25v50c0 15-20 40-34 44l-257 65C43 300 0 357 0 425v50c0 68 57 125 125 125h75v100z"/><glyph glyph-name="54" unicode="" d="M0 700h300V400L0 100v600zm500 0h300V400L500 100v600z"/><glyph glyph-name="55" unicode="" d="M300 700V100H0v300zm500 0V100H500v300z"/><glyph glyph-name="56" unicode="" d="M300 700V600c-111 0-200-89-200-200h200V100H0v300c0 165 135 300 300 300zm500 0V600c-111 0-200-89-200-200h200V100H500v300c0 165 135 300 300 300z"/><glyph glyph-name="57" unicode="" d="M0 700h300V400c0-165-135-300-300-300v100c111 0 200 89 200 200H0v300zm500 0h300V400c0-165-135-300-300-300v100c111 0 200 89 200 200H500v300z"/><glyph glyph-name="58" unicode="" horiz-adv-x="600" d="M300 800l34-34c11-11 266-270 266-488 0-165-135-300-300-300S0 113 0 278c0 218 255 477 266 488zM150 328c-28 0-50-22-50-50 0-110 90-200 200-200 28 0 50 22 50 50s-22 50-50 50c-55 0-100 45-100 100 0 28-22 50-50 50z"/><glyph glyph-name="59" unicode="" d="M400 800l400-500H0zM0 200h800V0H0v200z"/><glyph glyph-name="5a" unicode="" horiz-adv-x="600" d="M300 800l300-300H0zM0 300h600L300 0z"/><glyph glyph-name="5b" unicode="" d="M0 500h200V300H0v200zm300 0h200V300H300v200zm300 0h200V300H600v200z"/><glyph glyph-name="5c" unicode="" d="M0 700h800V600L400 400 0 600v100zm0-200l400-200 400 200V100H0v400z"/><glyph glyph-name="5d" unicode="" d="M400 800l400-200V0H0v600zm0-112L100 538V350l300-150 300 150v188zM200 500h400V400L400 300 200 400v100z"/><glyph glyph-name="5e" unicode="" d="M600 700c69 0 134-19 191-50l-16-106c-49 35-109 56-175 56-131 0-240-84-281-200h331l-16-100H300c0-36 8-68 19-100h297l-16-100H378C433 39 511 0 600 0c78 0 147 30 200 78V-44c-59-35-127-56-200-56-147 0-274 82-344 200H0l19 100h197c-8 32-16 66-16 100H0l25 100h191c45 172 198 300 384 300z"/><glyph glyph-name="5f" unicode="" d="M0 700h700V600H0v100zm0-200h500V400H0v100zm0-200h800V200H0v100zm0-200h100V0H0v100zm200 0h100V0H200v100zm200 0h100V0H400v100z"/><glyph glyph-name="60" unicode="" d="M0 800h800V700H0v100zm200-200h400L400 400zM0 200h800V0H0v200z"/><glyph glyph-name="61" unicode="" d="M0 800h100V0H0v800zm600 0h200V0H600v800zM200 600l200-200-200-200v400z"/><glyph glyph-name="62" unicode="" d="M0 800h200V0H0v800zm700 0h100V0H700v800zM600 600V200L400 400z"/><glyph glyph-name="63" unicode="" d="M0 800h800V600H0v200zm400-400l200-200H200zM0 100h800V0H0v100z"/><glyph glyph-name="64" unicode="" d="M0 800h200V700H100V100h600v100h100V0H0v800zm400 0h400V400L650 550 400 300 300 400l250 250z"/><glyph glyph-name="65" unicode="" d="M403 700c247 0 397-300 397-300S650 100 403 100C150 100 0 400 0 400s150 300 403 300zm-3-100c-110 0-200-90-200-200s90-200 200-200 200 90 200 200-90 200-200 200zm0-100c10 0 19-3 28-6-16-8-28-24-28-44 0-28 22-50 50-50 20 0 36 12 44 28 3-9 6-18 6-28 0-55-45-100-100-100s-100 45-100 100 45 100 100 100z"/><glyph glyph-name="66" unicode="" horiz-adv-x="900" d="M331 700h6c3 1 7 1 10 1 12 0 29-8 37-17l94-93 66 65c57 57 155 57 212 0 58-58 58-154 0-212l-65-66 93-94c10-8 18-25 18-38 0-28-22-50-50-50-13 0-32 9-40 20l-62 65-381-381H0v272l375 381-63 63c-9 8-16 24-16 36 0 20 16 42 35 48zm116-219L134 166 262 34l316 316z"/><glyph glyph-name="67" unicode="" d="M0 800h300V400h400V0H0v800zm400 0l300-300H400v300z"/><glyph glyph-name="68" unicode="" d="M200 800s200-100 200-300S102 198 200 0C200 0 0 100 0 300s300 300 200 500zm300-300s200-100 200-300C700 50 640 0 600 0H300c0 200 300 300 200 500z"/><glyph glyph-name="69" unicode="" d="M0 800h100V0H0v800zm200 0h300V700h300L600 497l200-197H400v100H200v400z"/><glyph glyph-name="6a" unicode="" horiz-adv-x="400" d="M150 800h150L200 600h200L250 300h150L100 0 0 300h134l66 200H0z"/><glyph glyph-name="6b" unicode="" d="M0 800h300V700h500V600H0v200zm0-300h800V50c0-28-22-50-50-50H50C22 0 0 22 0 50v450z"/><glyph glyph-name="6c" unicode="" d="M150 800c83 0 150-67 150-150 0-66-41-121-100-141V391c15 5 33 9 50 9h200c28 0 50 22 50 50v59c-59 20-100 75-100 141 0 83 67 150 150 150s150-67 150-150c0-66-41-121-100-141v-59c0-82-68-150-150-150H250c-14 0-25-7-34-16 50-24 84-74 84-134C300 67 233 0 150 0S0 67 0 150c0 66 41 121 100 141v218C41 529 0 584 0 650c0 83 67 150 150 150z"/><glyph glyph-name="6d" unicode="" d="M0 800h400L250 650l150-150-100-100-150 150L0 400v400zm500-400l150-150 150 150V0H400l150 150-150 150z"/><glyph glyph-name="6e" unicode="" d="M100 800l150-150 150 150V400H0l150 150L0 700zm300-400h400L650 250l150-150L700 0 550 150 400 0v400z"/><glyph glyph-name="6f" unicode="" d="M400 800c221 0 400-179 400-400S621 0 400 0 0 179 0 400s179 400 400 400zm0-100c-56 0-108-17-153-44l22-19c33-18 13-48-13-59-30-13-77 10-65-41 13-55-27-3-47-15-42-26 49-152 31-156l-59 34c-8 0-13-5-16-10 1-30 10-57 19-84 28-11 77-2 100-25 47-28 97-115 75-159 34-13 68-22 106-22 101 0 193 48 247 125 3 24-8 44-50 44-69 0-156 13-153 97 2 46 101 108 66 143-30 30 12 39 12 66 0 37-65 32-69 50s20 36 41 56c-30 10-60 19-94 19zm231-109c-38-11-94-35-87-53 6-15 52-1 65-13 11-10 16-59 44-31l22 22v3c-11 26-26 50-44 72z"/><glyph glyph-name="70" unicode="" d="M703 800l97-100-400-400-100 100-200-203L0 297l300 303 100-100zM0 100h800V0H0v100z"/><glyph glyph-name="71" unicode="" d="M0 700h100V600H0v100zm200 0h100V600H200v100zm200 0h100V600H400v100zm200 0h100V600H600v100zM0 500h100V400H0v100zm200 0h100V400H200v100zm200 0h100V400H400v100zm200 0h100V400H600v100zM0 300h100V200H0v100zm200 0h100V200H200v100zm200 0h100V200H400v100zm200 0h100V200H600v100zM0 100h100V0H0v100zm200 0h100V0H200v100zm200 0h100V0H400v100zm200 0h100V0H600v100z"/><glyph glyph-name="72" unicode="" d="M0 800h200V600H0v200zm300 0h200V600H300v200zm300 0h200V600H600v200zM0 500h200V300H0v200zm300 0h200V300H300v200zm300 0h200V300H600v200zM0 200h200V0H0v200zm300 0h200V0H300v200zm300 0h200V0H600v200z"/><glyph glyph-name="73" unicode="" d="M0 800h300V500H0v300zm500 0h300V500H500v300zM0 300h300V0H0v300zm500 0h300V0H500v300z"/><glyph glyph-name="74" unicode="" d="M19 800h662c11 0 19-8 19-19V450c0-28-22-50-50-50H50c-28 0-50 22-50 50v331c0 11 8 19 19 19zM0 309c16-6 32-9 50-9h600c18 0 34 3 50 9V19c0-11-8-19-19-19H19C8 0 0 8 0 19v290zm550-109c-28 0-50-22-50-50s22-50 50-50 50 22 50 50-22 50-50 50z"/><glyph glyph-name="75" unicode="" d="M0 700h300V600h-50c-28 0-50-22-50-50V400h300v150c0 28-22 50-50 50h-50v100h300V600h-50c-28 0-50-22-50-50V150c0-28 22-50 50-50h50V0H400v100h50c28 0 50 22 50 50v150H200V150c0-28 22-50 50-50h50V0H0v100h50c28 0 50 22 50 50v400c0 28-22 50-50 50H0v100z"/><glyph glyph-name="76" unicode="" d="M400 700c165 0 300-135 300-300V300h50c28 0 50-22 50-50V50c0-28-22-50-50-50H650c-28 0-50 22-50 50v350c0 111-89 200-200 200s-200-89-200-200V50c0-28-22-50-50-50H50C22 0 0 22 0 50v200c0 28 22 50 50 50h50v100c0 165 135 300 300 300z"/><glyph glyph-name="77" unicode="" d="M0 500c0 109 91 200 200 200s200-91 200-200c0 109 91 200 200 200s200-91 200-200c0-55-23-105-59-141L400 19 59 359C23 395 0 445 0 500z"/><glyph glyph-name="78" unicode="" d="M400 700l400-300-100 3V0H500v200H300V0H100v400H0z"/><glyph glyph-name="79" unicode="" d="M0 800h800V0H0v800zm100-100V400l100 100 400-400h100v100L500 400l100 100 100-100v300H100z"/><glyph glyph-name="7a" unicode="" d="M19 800h762c11 0 19-8 19-19V19c0-11-8-19-19-19H19C8 0 0 8 0 19v762c0 11 8 19 19 19zm81-200V300h100l100-100h200l100 100h100v300H100z"/><glyph glyph-name="7b" unicode="" d="M200 600c80 0 142-56 200-122 58 66 119 122 200 122 131 0 200-101 200-200s-69-200-200-200c-81 0-142 56-200 122-58-66-121-122-200-122C69 200 0 301 0 400s69 200 200 200zm0-100c-74 0-100-54-100-100s26-100 100-100c42 0 88 47 134 100-46 53-92 100-134 100zm400 0c-43 0-88-47-134-100 46-53 91-100 134-100 74 0 100 54 100 100s-26 100-100 100z"/><glyph glyph-name="7c" unicode="" horiz-adv-x="400" d="M300 800c55 0 100-45 100-100s-45-100-100-100-100 45-100 100 45 100 100 100zM150 550c83 0 150-69 150-150 0-66-100-214-100-250 0-28 22-50 50-50s50 22 50 50h100C400 67 333 0 250 0S100 64 100 150s100 222 100 250-22 50-50 50-50-22-50-50H0c0 83 67 150 150 150z"/><glyph glyph-name="7d" unicode="" d="M200 800h500V700H578c-77-197-156-392-234-588l-6-12h162V0H0v100h122c77 197 156 392 234 588l7 12H200v100z"/><glyph glyph-name="7e" unicode="" d="M0 700h800V600H0v100zm0-200h800V400H0v100zm0-200h800V200H0v100zm100-200h600V0H100v100z"/><glyph glyph-name="7f" unicode="" d="M0 700h800V600H0v100zm0-200h800V400H0v100zm0-200h800V200H0v100zm0-200h600V0H0v100z"/><glyph glyph-name="80" unicode="" d="M0 700h800V600H0v100zm0-200h800V400H0v100zm0-200h800V200H0v100zm200-200h600V0H200v100z"/><glyph glyph-name="81" unicode="" d="M550 800c138 0 250-112 250-250S688 300 550 300c-16 0-32 0-47 3l-3-3V200H300V0H0v200l303 303c-3 15-3 31-3 47 0 138 112 250 250 250zm50-100c-55 0-100-45-100-100s45-100 100-100 100 45 100 100-45 100-100 100z"/><glyph glyph-name="82" unicode="" d="M134 600h516c28 0 50-22 50-50V200h100V50c0-28-22-50-50-50H50C22 0 0 22 0 50v150h100v352c0 20 15 42 34 48zm66-100V200h100V100h200v100h100v300H200z"/><glyph glyph-name="83" unicode="" d="M0 800h400V400H0v400zm500-200h100V200H200v100h300v300zm200-200h100V0H400v100h300v300z"/><glyph glyph-name="84" unicode="" horiz-adv-x="600" d="M337 694c6 4 12 7 21 7 28 0 50-22 50-50 0-17-12-37-27-45L81 456c-8-6-21-11-31-11-28 0-50 22-50 50 0 21 16 44 37 49zm100-150c6 4 12 7 21 7 28 0 50-22 50-50 0-17-12-37-27-45L81 256c-8-6-21-11-31-11-28 0-50 22-50 50 0 21 16 44 37 49zm0-200c6 4 12 7 21 7 28 0 50-22 50-50 0-17-12-37-27-45l-106-56c24-4 43-26 43-50 0-28-23-51-51-51-2 0-6 1-8 1H159c-26 1-48 24-48 50 0 16 12 36 26 44zM151-50c0 23 20 50 46 50h112c28 0 50-22 50-50s-22-50-50-50H209c-2 0-6-1-8-1-28 0-50 23-50 51z"/><glyph glyph-name="85" unicode="" d="M199 800h100V600H99v100h100v100zm387-3h1c18 1 38 1 56-3 36-8 69-26 97-54 78-78 78-203 0-281L590 309c-8-13-28-24-43-24-28 0-50 22-50 50 0 15 11 35 24 43l150 150c40 40 39 105 0 144-41 41-110 34-144 0l-44-44c-8-13-27-24-42-24-28 0-50 22-50 50 0 15 11 35 24 43l43 44c32 33 72 53 128 56zM208 490c4 5 14 16 22 16h3c2 0 6 1 8 1 28 0 50-22 50-50 0-11-6-27-14-35L127 272c-40-40-39-105 0-144 41-41 110-34 144 0l44 44c8 13 27 24 42 24 28 0 50-22 50-50 0-15-11-35-24-43l-43-44c-22-22-48-37-75-47-70-25-151-9-207 47-78 78-78 203 0 281zm291-290h200V100H599V0H499v200z"/><glyph glyph-name="86" unicode="" d="M586 797c18 1 39 1 57-3 36-8 69-26 97-54 78-78 78-203 0-281L590 309c-62-62-132-81-182-78s-69 17-84 25-26 27-26 44c0 28 22 51 50 51 8 0 19-3 26-7 0 0 15-11 41-13s62 3 106 47l150 150c40 40 39 105 0 144-41 41-110 34-144 0-8-13-28-24-43-24-28 0-50 22-50 50 0 15 11 35 24 43 32 33 72 53 128 56zM386 566c50-2 64-17 85-22s37-28 37-49c0-28-22-50-50-50-10 0-23 5-31 11 0 0-19 9-47 10s-63-4-103-44L127 272c-40-40-39-105 0-144 41-41 110-34 144 0 8 13 27 24 42 24 28 0 50-22 50-50 0-15-10-35-23-43-22-22-48-37-75-47-70-25-151-9-207 47-78 78-78 203 0 281l150 150c60 60 128 78 178 76z"/><glyph glyph-name="87" unicode="" d="M0 700h300V400H0v300zm400 0h400V600H400v100zm0-200h300V400H400v100zM0 300h300V0H0v300zm400 0h400V200H400v100zm0-200h300V0H400v100z"/><glyph glyph-name="88" unicode="" d="M50 700c28 0 50-22 50-50s-22-50-50-50-50 22-50 50 22 50 50 50zm150 0h600V600H200v100zM50 500c28 0 50-22 50-50s-22-50-50-50-50 22-50 50 22 50 50 50zm150 0h600V400H200v100zM50 300c28 0 50-22 50-50s-22-50-50-50-50 22-50 50 22 50 50 50zm150 0h600V200H200v100zM50 100c28 0 50-22 50-50S78 0 50 0 0 22 0 50s22 50 50 50zm150 0h600V0H200v100z"/><glyph glyph-name="89" unicode="" d="M800 800L400 0 300 300 0 400z"/><glyph glyph-name="8a" unicode="" horiz-adv-x="600" d="M300 700c110 0 200-90 200-200V400h100V0H0v400h100v100c0 110 90 200 200 200zm0-100c-56 0-100-44-100-100V400h200v100c0 56-44 100-100 100z"/><glyph glyph-name="8b" unicode="" horiz-adv-x="600" d="M300 800c110 0 200-90 200-200V400h100V0H0v400h400v200c0 56-44 100-100 100s-100-44-100-100H100c0 110 90 200 200 200z"/><glyph glyph-name="8c" unicode="" d="M400 700V600c-111 0-200-89-200-200h100L150 200 0 400h100c0 165 135 300 300 300zm250-100l150-200H700c0-165-135-300-300-300v100c111 0 200 89 200 200H500z"/><glyph glyph-name="8d" unicode="" d="M100 800h600V500h100L650 250 500 500h100v200H200V600H100v200zm50-250l150-250H200V100h400v100h100V0H100v300H0z"/><glyph glyph-name="8e" unicode="" d="M600 700l200-150-200-150v100H100V400H0v100c0 55 45 100 100 100h500v100zM200 300V200h500v100h100V200c0-55-45-100-100-100H200V0L0 150z"/><glyph glyph-name="8f" unicode="" horiz-adv-x="900" d="M350 800c193 0 350-157 350-350 0-60-17-117-44-166 5-3 12-8 16-12l100-100c16-16 30-49 30-72C802 44 756-2 700-2c-23 0-56 14-72 30L528 128c-4 3-9 9-12 13-49-26-107-41-166-41C157 100 0 257 0 450s157 350 350 350zm0-600c142 0 250 108 250 250 0 139-111 250-250 250S100 589 100 450s111-250 250-250z"/><glyph glyph-name="90" unicode="" horiz-adv-x="600" d="M300 800c166 0 300-134 300-300C600 300 300 0 300 0S0 300 0 500c0 166 134 300 300 300zm0-100c-110 0-200-90-200-200s90-200 200-200 200 90 200 200-90 200-200 200z"/><glyph glyph-name="91" unicode="" horiz-adv-x="900" d="M0 800h800V259c1-3 1-8 1-11s0-7-1-10V0H0v800zm495-550c0 26 22 50 50 50h155v400H100V100h600v100H545c-28 0-50 22-50 50zM350 600c83 0 150-67 150-150 0-100-150-250-150-250S200 350 200 450c0 83 67 150 150 150zm0-100c-28 0-50-22-50-50s22-50 50-50 50 22 50 50-22 50-50 50z"/><glyph glyph-name="92" unicode="" horiz-adv-x="600" d="M0 700h200V100H0v600zm400 0h200V100H400v600z"/><glyph glyph-name="93" unicode="" horiz-adv-x="600" d="M0 700l600-300L0 100v600z"/><glyph glyph-name="94" unicode="" horiz-adv-x="600" d="M300 700c166 0 300-134 300-300S466 100 300 100 0 234 0 400s134 300 300 300z"/><glyph glyph-name="95" unicode="" d="M400 700V100L0 400zm0-300l400 300V100z"/><glyph glyph-name="96" unicode="" d="M0 700l400-300L0 100v600zm400-600v600l400-300z"/><glyph glyph-name="97" unicode="" d="M0 700h200V100H0v600zm200-300l500 300V100z"/><glyph glyph-name="98" unicode="" d="M0 700l500-300L0 100v600zm500-600v600h200V100H500z"/><glyph glyph-name="99" unicode="" horiz-adv-x="600" d="M0 700h600V100H0v600z"/><glyph glyph-name="9a" unicode="" d="M200 800h400V600h200V200H600V0H200v200H0v400h200v200z"/><glyph glyph-name="9b" unicode="" d="M0 700h800V600H0v100zm0-297h800V303H0v100zm0-300h800V3H0v100z"/><glyph glyph-name="9c" unicode="" horiz-adv-x="600" d="M278 700c7 2 13 4 22 4 55 0 100-45 100-100V400c0-55-45-100-100-100s-100 45-100 100v202c0 44 35 88 78 98zM34 500h7c3 0 6 1 9 1 28 0 50-22 50-50v-51c0-111 89-200 200-200s200 89 200 200v50c0 28 22 50 50 50s50-22 50-50v-50c0-148-109-270-250-294V0h50c55 0 100-45 100-100H100C100-45 145 0 200 0h50v106C109 130 0 252 0 400v52c0 20 15 42 34 48z"/><glyph glyph-name="9d" unicode="" d="M0 500h800V300H0v200z"/><glyph glyph-name="9e" unicode="" d="M34 700h716c28 0 50-22 50-50V150c0-28-22-50-50-50H500V0h100c55 0 100-45 100-100H100C100-45 145 0 200 0h100v100H50c-28 0-50 22-50 50v502c0 20 15 42 34 48zm66-100V200h600v400H100z"/><glyph glyph-name="9f" unicode="" d="M272 700c-14-40-22-83-22-128 0-221 179-400 400-400 45 0 88 8 128 22C725 36 576-78 400-78 179-78 0 101 0 322c0 176 114 325 272 378z"/><glyph glyph-name="a0" unicode="" d="M350 700l150-150H400V400h150v100l150-150-150-150v100H400V150h100L350 0 200 150h100v150H150V200L0 350l150 150V400h150v150H200z"/><glyph glyph-name="a1" unicode="" d="M800 800V250c0-83-67-150-150-150s-150 67-150 150 67 150 150 150c17 0 35-4 50-9v206c-201-6-327-27-400-50V150C300 67 233 0 150 0S0 67 0 150s67 150 150 150c17 0 35-4 50-9v409s100 100 600 100z"/><glyph glyph-name="a2" unicode="" horiz-adv-x="700" d="M499 700c51 0 102-20 141-59 78-78 78-203 0-281L390 116c-48-48-127-48-175 0s-48 127 0 175l96 97 69-69-90-94-7-3c-10-10-10-28 0-38s28-10 38 0l250 247c37 40 39 102 0 141s-104 40-144 0L149 297c-66-69-68-179 0-247 69-69 181-69 250 0l9 12 116 113 69-69L468-19C361-126 187-126 80-19s-107 281 0 388l278 272c39 39 90 59 141 59z"/><glyph glyph-name="a3" unicode="" d="M600 800l200-200-100-100-200 200zM400 600l200-200L200 0H0v200z"/><glyph glyph-name="a4" unicode="" d="M550 800c83 0 150-90 150-200s-67-200-150-200c-22 0-40 8-59 19 6 26 9 52 9 81 0 84-27 158-72 212 27 52 71 88 122 88zM250 700c83 0 150-90 150-200s-67-200-150-200-150 90-150 200 67 200 150 200zm475-316c44-22 75-66 75-118V100H600v66c0 50-17 96-44 134 66 2 126 33 169 84zM75 284c45-53 106-84 175-84s130 31 175 84c44-22 75-66 75-118V0H0v166c0 52 31 96 75 118z"/><glyph glyph-name="a5" unicode="" d="M400 800c110 0 200-112 200-250s-90-250-200-250-200 112-200 250 90 250 200 250zM191 300c54-61 128-100 209-100s155 39 209 100c106-5 191-92 191-200V0H0v100c0 108 85 195 191 200z"/><glyph glyph-name="a6" unicode="" horiz-adv-x="600" d="M19 800h462c11 0 19-8 19-19V19c0-11-8-19-19-19H19C8 0 0 8 0 19v762c0 11 8 19 19 19zm81-100V200h300v500H100zm150-550c-28 0-50-22-50-50s22-50 50-50 50 22 50 50-22 50-50 50z"/><glyph glyph-name="a7" unicode="" d="M350 800c17 0 34-1 50-3V400L103 697c63 64 150 103 247 103zm150-106c169-25 300-168 300-344C800 157 643 0 450 0c-85 0-161 31-222 81l272 272v341zM91 562l237-234-212-212C46 171 0 254 0 350c0 84 35 158 91 212z"/><glyph glyph-name="a8" unicode="" d="M92 650c0 23 20 50 46 50h412c28 0 50-22 50-50s-22-50-50-50h-50V400h100c55 0 100-45 100-100H400V0l-56-100L300 0v300H0c0 55 45 100 100 100h100v200h-50c-2 0-6-1-8-1-28 0-50 23-50 51z"/><glyph glyph-name="a9" unicode="" d="M400 800c221 0 400-179 400-400S621 0 400 0 0 179 0 400s179 400 400 400zM300 600V200l300 200z"/><glyph glyph-name="aa" unicode="" d="M300 800h200V500h300V300H500V0H300v300H0v200h300v300z"/><glyph glyph-name="ab" unicode="" d="M300 800h100V400H300v400zM172 656l62-78-40-31c-58-46-94-117-94-197 0-139 111-250 250-250s250 111 250 250c0 80-39 151-97 197l-37 31 62 78 38-31c82-64 134-164 134-275C700 157 543 0 350 0S0 157 0 350c0 111 53 211 134 275z"/><glyph glyph-name="ac" unicode="" d="M200 800h400V600H200v200zM9 500h782c6 0 9-3 9-9V209c0-6-3-9-9-9h-91v200H100V200H9c-6 0-9 3-9 9v282c0 6 3 9 9 9zm191-200h400V0H200v300z"/><glyph glyph-name="ad" unicode="" d="M0 700h100V0H0v700zm700 0h100V0H700v700zM200 600h200V500H200v100zm100-200h200V300H300v100zm100-200h200V100H400v100z"/><glyph glyph-name="ae" unicode="" d="M325 700c42-141 87-280 131-419 29 74 59 148 88 222 30-57 58-114 87-172h169V231H569l-13 28c-37-92-74-184-112-275-38 129-79 257-119 385-42-133-83-267-125-400-28 88-56 175-84 262H0v100h188l9-34 3-6c42 137 83 273 125 409z"/><glyph glyph-name="af" unicode="" d="M200 600c0 57 43 100 100 100s100-43 100-100c0-28-18-48-28-72-3-6-3-16-3-28h231V269c12 0 22 0 28 3 24 10 44 28 72 28 57 0 100-43 100-100s-43-100-100-100c-28 0-48 18-72 28-6 3-16 3-28 3v-231H369c0 12 0 22 3 28 10 24 28 44 28 72 0 57-43 100-100 100S200 57 200 0c0-28 18-48 28-72 3-6 3-16 3-28H0v600h231c0 12 0 22-3 28-10 24-28 44-28 72z"/><glyph glyph-name="b0" unicode="" horiz-adv-x="500" d="M247 700c84 0 148-20 191-59s59-93 59-141c0-117-69-181-119-225s-81-67-81-150v-25H197v25c0 117 65 181 115 225s85 67 85 150c0 25-8 48-28 66s-56 34-122 34-97-18-116-37-27-43-31-69L0 506c5 38 19 88 59 128s103 66 188 66zM197 0h100v-100H197V0z"/><glyph glyph-name="b1" unicode="" d="M450 800c138 0 250-112 250-250v-50c58-21 100-85 100-150 0-69-48-127-112-144-22 55-75 94-138 94-20 0-39-5-56-12-17 64-75 112-144 112s-127-48-144-112c-17 7-36 12-56 12-37 0-71-12-97-34-33 36-53 82-53 134 0 110 90 200 200 200 23 114 129 200 250 200zM334 300h7c3 0 6 1 9 1 28 0 50-22 50-50V50c0-28-22-50-50-50s-50 22-50 50v202c0 20 15 42 34 48zM134 200h7c3 0 6 1 9 1 28 0 50-22 50-50V50c0-28-22-50-50-50s-50 22-50 50v102c0 20 15 42 34 48zm400 0h7c3 0 6 1 9 1 28 0 50-22 50-50V50c0-28-22-50-50-50s-50 22-50 50v102c0 20 15 42 34 48z"/><glyph glyph-name="b2" unicode="" d="M600 800l200-150-200-150v100h-50L397 409l175-206 6-3h22v100l200-150L600 0v100h-25c-35 0-56 12-78 38L331 328 178 138c-22-27-43-38-78-38H0v100h100l166 206-163 191-3 3H0v100h100c34 0 56-12 78-38l153-178 141 178c22 27 43 38 78 38h50v100z"/><glyph glyph-name="b3" unicode="" d="M400 800c110 0 209-47 281-119l119 119V500H500l109 109c-54 55-126 91-209 91-166 0-300-134-300-300s134-300 300-300c83 0 158 34 212 88l72-72C612 44 510 0 400 0 180 0 0 180 0 400s180 400 400 400z"/><glyph glyph-name="b4" unicode="" d="M400 800h400V400L634 566 234 166 400 0H0v400l166-166 400 400z"/><glyph glyph-name="b5" unicode="" horiz-adv-x="600" d="M250 800l250-300H300V300h200L250 0 0 300h200v200H0z"/><glyph glyph-name="b6" unicode="" d="M300 600V400h200v200l300-250-300-250v200H300V100L0 350z"/><glyph glyph-name="b7" unicode="" d="M0 800c441 0 800-359 800-800H600c0 333-267 600-600 600v200zm0-300c275 0 500-225 500-500H300c0 167-133 300-300 300v200zm0-300c110 0 200-90 200-200H0v200z"/><glyph glyph-name="b8" unicode="" d="M100 800c386 0 700-314 700-700H700c0 332-268 600-600 600v100zm0-200c276 0 500-224 500-500H500c0 222-178 400-400 400v100zm0-200c165 0 300-135 300-300H300c0 111-89 200-200 200v100zm0-200c55 0 100-45 100-100S155 0 100 0 0 45 0 100s45 100 100 100z"/><glyph glyph-name="b9" unicode="" d="M300 800h400c55 0 100-45 100-100V500H400v150c0 28-22 50-50 50s-50-22-50-50V400h400V100C700 45 655 0 600 0H100C45 0 0 45 0 100v200h100V150c0-28 22-50 50-50s50 22 50 50v550c0 55 45 100 100 100z"/><glyph glyph-name="ba" unicode="" d="M75 700h225V600H100V100h400v100h100V75c0-41-34-75-75-75H75C34 0 0 34 0 75v550c0 41 34 75 75 75zm525 0l200-200-200-200v100H400c-94 0-173-65-194-153 23 199 189 353 394 353v100z"/><glyph glyph-name="bb" unicode="" d="M500 700l300-284-300-316v200H400C200 300 52 198 0 0c0 295 100 500 500 500v200z"/><glyph glyph-name="bc" unicode="" d="M381 791l19 9 19-9c127-53 253-108 381-160v-31c0-166-67-313-147-419-40-53-83-97-125-128S446 0 400 0s-86 22-128 53-85 75-125 128C67 288 0 434 0 600v31c128 52 254 107 381 160zm19-691v591L106 569c8-126 58-243 122-328 35-46 73-86 106-110s62-31 66-31z"/><glyph glyph-name="bd" unicode="" d="M600 800h100V0H600v800zM400 700h100V0H400v700zM200 500h100V0H200v500zM0 300h100V0H0v300z"/><glyph glyph-name="be" unicode="" d="M300 800h100V600h200l100-100-100-100H400V0H300v500H100L0 600l100 100h200v100z"/><glyph glyph-name="bf" unicode="" d="M200 800h100V200h200L250 0 0 200h200v600zm200 0h200V700H400v100zm0-200h300V500H400v100zm0-200h400V300H400v100z"/><glyph glyph-name="c0" unicode="" d="M200 800h100V200h200L250 0 0 200h200v600zm200 0h400V700H400v100zm0-200h300V500H400v100zm0-200h200V300H400v100z"/><glyph glyph-name="c1" unicode="" d="M75 700h650c41 0 75-34 75-75V75c0-41-34-75-75-75H75C34 0 0 34 0 75v550c0 41 34 75 75 75zm25-100V500h100v100H100zm200 0V500h400v100H300zM100 400V300h100v100H100zm200 0V300h400v100H300zM100 200V100h100v100H100zm200 0V100h400v100H300z"/><glyph glyph-name="c2" unicode="" d="M400 800l100-300h300L550 300 650 0 400 200 150 0l100 300L0 500h300z"/><glyph glyph-name="c3" unicode="" d="M400 800c28 0 50-22 50-50s-22-50-50-50-50 22-50 50 22 50 50 50zM150 700c28 0 50-22 50-50s-22-50-50-50-50 22-50 50 22 50 50 50zm500 0c28 0 50-22 50-50s-22-50-50-50-50 22-50 50 22 50 50 50zM400 600c110 0 200-90 200-200s-90-200-200-200-200 90-200 200 90 200 200 200zM50 450c28 0 50-22 50-50s-22-50-50-50-50 22-50 50 22 50 50 50zm700 0c28 0 50-22 50-50s-22-50-50-50-50 22-50 50 22 50 50 50zM150 200c28 0 50-22 50-50s-22-50-50-50-50 22-50 50 22 50 50 50zm500 0c28 0 50-22 50-50s-22-50-50-50-50 22-50 50 22 50 50 50zM400 100c28 0 50-22 50-50S428 0 400 0s-50 22-50 50 22 50 50 50z"/><glyph glyph-name="c4" unicode="" d="M34 800h632c18 0 34-16 34-34V34c0-18-16-34-34-34H34C16 0 0 16 0 34v732c0 18 16 34 34 34zm66-100V200h500v500H100zm250-550c-38 0-63-42-44-75s69-33 88 0-6 75-44 75z"/><glyph glyph-name="c5" unicode="" d="M0 800h300l500-500L500 0 0 500v300zm200-100c-55 0-100-45-100-100s45-100 100-100 100 45 100 100-45 100-100 100z"/><glyph glyph-name="c6" unicode="" d="M0 600h200l300-300-200-200L0 400v200zm340 0h160l300-300-200-200-78 78 119 122zM150 500c-28 0-50-22-50-50s22-50 50-50 50 22 50 50-22 50-50 50z"/><glyph glyph-name="c7" unicode="" d="M400 800c220 0 400-180 400-400S620 0 400 0 0 180 0 400s180 400 400 400zm0-100c-166 0-300-134-300-300s134-300 300-300 300 134 300 300-134 300-300 300zm0-100c110 0 200-90 200-200s-90-200-200-200-200 90-200 200 90 200 200 200zm0-100c-56 0-100-44-100-100s44-100 100-100 100 44 100 100-44 100-100 100z"/><glyph glyph-name="c8" unicode="" d="M0 700h559L459 600H100V100h500v159l100 100V0H0v700zm700 0l100-100-400-400-200 200 100 100 100-100z"/><glyph glyph-name="c9" unicode="" d="M9 800h782c6 0 9-3 9-9V9c0-6-3-9-9-9H9C3 0 0 3 0 9v782c0 6 3 9 9 9zm141-78l-72-72 100-100L78 450l72-72 172 172zm250-222V400h300v100H400z"/><glyph glyph-name="ca" unicode="" d="M0 800h800V600h-50c0 55-45 100-100 100H500V150c0-28 22-50 50-50h50V0H200v100h50c28 0 50 22 50 50v550H150c-55 0-100-45-100-100H0v200z"/><glyph glyph-name="cb" unicode="" d="M0 700h100V300H0v400zm200 0h350c21 0 39-13 47-31 0 0 103-291 103-319s-22-50-50-50H500c-28 0-50-25-50-50s39-158 47-184-5-55-31-63-52 5-66 31-109 219-128 238-44 28-72 28v400z"/><glyph glyph-name="cc" unicode="" d="M400 666c10 19 28 32 47 34l19-3c26-8 39-37 31-63s-47-159-47-184 22-50 50-50h150c28 0 50-22 50-50S597 31 597 31c-8-18-26-31-47-31H200v400c28 0 53 9 72 28s114 212 128 238zM0 400h100V0H0v400z"/><glyph glyph-name="cd" unicode="" d="M200 700h300V600H400v-6c25-4 50-8 72-16l-34-94c-28 11-58 16-88 16-139 0-250-111-250-250S211 0 350 0s250 111 250 250c0 31-5 60-16 88l91 37c14-38 25-81 25-125 0-193-157-350-350-350S0 57 0 250c0 176 130 323 300 347v3H200v100zm500-116S404 236 384 216s-48-20-68 0-20 48 0 68 384 300 384 300z"/><glyph glyph-name="ce" unicode="" d="M600 700l200-150-200-150v100H0v100h600v100zM200 300V200h600V100H200V0L0 150z"/><glyph glyph-name="cf" unicode="" d="M300 800h100c55 0 100-45 100-100h100c55 0 100-45 100-100H0c0 55 45 100 100 100h100c0 55 45 100 100 100zM100 500h100V150c0-28 22-50 50-50s50 22 50 50v350h100V150c0-28 22-50 50-50s50 22 50 50v350h100V19c0-11-8-19-19-19H119c-11 0-19 8-19 19v481z"/><glyph glyph-name="d0" unicode="" d="M100 800h200V400c0-55 45-100 100-100s100 45 100 100v400h100V400c0-110-90-200-200-200h-50c-138 0-250 90-250 200v400zM0 100h700V0H0v100z"/><glyph glyph-name="d1" unicode="" d="M9 700h182c6 0 9-3 9-9V209c0-6-3-9-9-9H9c-6 0-9 3-9 9v482c0 6 3 9 9 9zm600 0h182c6 0 9-3 9-9V209c0-6-3-9-9-9H609c-6 0-9 3-9 9v482c0 6 3 9 9 9zM309 500h182c6 0 9-3 9-9V209c0-6-3-9-9-9H309c-6 0-9 3-9 9v282c0 6 3 9 9 9zM0 100h800V0H0v100z"/><glyph glyph-name="d2" unicode="" d="M10 700h181c6 0 9-3 9-9V500H0v191c0 6 4 9 10 9zm600 0h181c6 0 9-3 9-9V500H600v191c0 6 5 9 10 9zM310 600h181c6 0 9-3 9-9v-91H300v91c0 6 4 9 10 9zM0 400h800V300H0v100zm0-200h200V9c0-6-3-9-9-9H9C3 0 0 3 0 9v191zm300 0h200v-91c0-6-3-9-9-9H310c-6 0-10 3-10 9v91zm300 0h200V9c0-6-3-9-9-9H610c-6 0-10 3-10 9v191z"/><glyph glyph-name="d3" unicode="" d="M0 700h800V600H0v100zm9-200h182c6 0 9-3 9-9V9c0-6-3-9-9-9H9C3 0 0 3 0 9v482c0 6 3 9 9 9zm300 0h182c6 0 9-3 9-9V209c0-6-3-9-9-9H309c-6 0-9 3-9 9v282c0 6 3 9 9 9zm300 0h182c6 0 9-3 9-9V9c0-6-3-9-9-9H609c-6 0-9 3-9 9v482c0 6 3 9 9 9z"/><glyph glyph-name="d4" unicode="" d="M50 600h500c28 0 50-22 50-50V400l100 100h100V200H700L600 300V150c0-28-22-50-50-50H50c-28 0-50 22-50 50v400c0 28 22 50 50 50z"/><glyph glyph-name="d5" unicode="" d="M334 800h66V0h-66L200 200H0v400h200zm166-200v100c26 0 52-4 75-10 130-33 225-150 225-290s-95-258-225-291h-3c-23-6-47-9-72-9v100c17 0 34 2 50 6 86 22 150 100 150 194s-64 172-150 194c-16 4-33 6-50 6zm0-100l25-3c44-11 75-51 75-97s-32-86-75-97l-25-3v200z"/><glyph glyph-name="d6" unicode="" horiz-adv-x="600" d="M334 800h66V0h-66L200 200H0v400h200zm166-300l25-3c44-11 75-51 75-97s-32-86-75-97l-25-3v200z"/><glyph glyph-name="d7" unicode="" horiz-adv-x="400" d="M334 800h66V0h-66L200 200H0v400h200z"/><glyph glyph-name="d8" unicode="" d="M309 800h82c6 0 10-4 12-9l294-682 3-19V9c0-6-3-9-9-9H9C3 0 0 3 0 9v81l3 19 294 682c2 5 6 9 12 9zm-9-300V300h100v200H300zm0-300V100h100v100H300z"/><glyph glyph-name="d9" unicode="" d="M375 800c138 0 269-39 378-109l-53-82c-93 60-205 91-325 91-119 0-229-32-322-91L0 691c109 70 237 109 375 109zm0-300c78 0 154-23 216-62l-53-85c-46 30-104 47-163 47-60 0-112-17-159-47l-54 85c62 40 134 62 213 62zm0-300c55 0 100-45 100-100S430 0 375 0 275 45 275 100s45 100 100 100z"/><glyph glyph-name="da" unicode="" horiz-adv-x="900" d="M551 800c16 0 32 0 47-3l-97-97V500h200l97 97c3-15 3-31 3-47 0-138-112-250-250-250-32 0-62 8-90 19L173 28C153 8 127 0 101 0S49 8 29 28c-39 39-39 105 0 144l291 287c-11 28-19 59-19 91 0 138 112 250 250 250zM101 150c-28 0-50-22-50-50s22-50 50-50 50 22 50 50-22 50-50 50z"/><glyph glyph-name="db" unicode="" d="M141 700c84-84 169-167 253-250 82 83 167 165 247 250l143-141-253-253c84-82 167-166 253-247L641-84C560 2 476 85 394 169L141-84 0 59c85 80 167 164 250 247C167 390 84 475 0 559z"/><glyph glyph-name="dc" unicode="" d="M0 800h100l231-300h38l231 300h100L475 500h225V400H400V300h300V200H400V0H300v200H0v100h300v100H0v100h225z"/><glyph glyph-name="dd" unicode="" horiz-adv-x="900" d="M350 800c193 0 350-157 350-350 0-61-17-119-44-169 4-2 10-6 13-9l103-100c16-16 30-49 30-72C802 44 756-2 700-2c-23 0-56 14-72 30L528 131c-3 3-7 9-9 13-50-28-108-44-169-44C157 100 0 257 0 450s157 350 350 350zm0-100c-139 0-250-111-250-250s111-250 250-250c62 0 119 23 163 60 7 11 19 25 31 31l3 3c34 43 53 97 53 156 0 139-111 250-250 250zm-50-100h100V500h100V400H400V300H300v100H200v100h100v100z"/><glyph glyph-name="de" unicode="" horiz-adv-x="900" d="M350 800c193 0 350-157 350-350 0-61-17-119-44-169 4-2 10-6 13-9l103-100c16-16 30-49 30-72C802 44 756-2 700-2c-23 0-56 14-72 30L528 131c-3 3-7 9-9 13-50-28-108-44-169-44C157 100 0 257 0 450s157 350 350 350zm0-100c-139 0-250-111-250-250s111-250 250-250c62 0 119 23 163 60 7 11 19 25 31 31l3 3c34 43 53 97 53 156 0 139-111 250-250 250zM200 500h300V400H200v100z"/></font>
</defs>
</svg>
