<?xml version="1.0" standalone="no"?>
<!DOCTYPE svg PUBLIC "-//W3C//DTD SVG 1.1//EN" "http://www.w3.org/Graphics/SVG/1.1/DTD/svg11.dtd" >
<svg xmlns="http://www.w3.org/2000/svg">
<metadata>
Created by FontForge 20120731 at Wed May 25 10:25:15 2016
 By admin
</metadata>
<defs>
<font id="iconfont" horiz-adv-x="1024" >
  <font-face 
    font-family="iconfont"
    font-weight="500"
    font-stretch="normal"
    units-per-em="1024"
    panose-1="2 0 6 3 0 0 0 0 0 0"
    ascent="896"
    descent="-128"
    x-height="792"
    bbox="-0.361111 -219 1362.12 896"
    underline-thickness="50"
    underline-position="-100"
    unicode-range="U+0078-E663"
  />
<missing-glyph horiz-adv-x="374" 
d="M34 0v682h272v-682h-272zM68 34h204v614h-204v-614z" />
    <glyph glyph-name=".notdef" horiz-adv-x="374" 
d="M34 0v682h272v-682h-272zM68 34h204v614h-204v-614z" />
    <glyph glyph-name=".null" horiz-adv-x="0" 
 />
    <glyph glyph-name="nonmarkingreturn" horiz-adv-x="341" 
 />
    <glyph glyph-name="x" unicode="x" horiz-adv-x="1001" 
d="M281 543q-27 -1 -53 -1h-83q-18 0 -36.5 -6t-32.5 -18.5t-23 -32t-9 -45.5v-76h912v41q0 16 -0.5 30t-0.5 18q0 13 -5 29t-17 29.5t-31.5 22.5t-49.5 9h-133v-97h-438v97zM955 310v-52q0 -23 0.5 -52t0.5 -58t-10.5 -47.5t-26 -30t-33 -16t-31.5 -4.5q-14 -1 -29.5 -0.5
t-29.5 0.5h-32l-45 128h-439l-44 -128h-29h-34q-20 0 -45 1q-25 0 -41 9.5t-25.5 23t-13.5 29.5t-4 30v167h911zM163 247q-12 0 -21 -8.5t-9 -21.5t9 -21.5t21 -8.5q13 0 22 8.5t9 21.5t-9 21.5t-22 8.5zM316 123q-8 -26 -14 -48q-5 -19 -10.5 -37t-7.5 -25t-3 -15t1 -14.5
t9.5 -10.5t21.5 -4h37h67h81h80h64h36q23 0 34 12t2 38q-5 13 -9.5 30.5t-9.5 34.5q-5 19 -11 39h-368zM336 498v228q0 11 2.5 23t10 21.5t20.5 15.5t34 6h188q31 0 51.5 -14.5t20.5 -52.5v-227h-327z" />
    <glyph glyph-name="uniE600" unicode="&#xe600;" 
d="M732.5 627.5q-91.5 91.5 -220.5 91.5t-220.5 -91.5t-91.5 -220.5q0 -87 44 -161q12 -24 31 -59.5t80 -130.5t136 -197l2 -2h1q0 -1 0.5 -1h0.5v-1h1v-1q1 -1 3 -1q2 -1 3 -2v-1h2h2q1 -1 2 -1h2h2v0v0h2h2q1 0 2 1h2q1 1 2 1t2 1q1 0 1 1h1l2 2q1 0 1 0.5t1 0.5q0 1 1 1
q1 2 2 3q169 237 247 386q44 74 44 161q0 129 -91.5 220.5zM512 217q-78 0 -133.5 55.5t-55.5 134t55.5 134t133.5 55.5t133.5 -55.5t55.5 -134t-55.5 -134t-133.5 -55.5zM512 545q-57 0 -97.5 -40.5t-40.5 -97.5t40.5 -97.5t97.5 -40.5t97.5 40.5t40.5 97.5t-40.5 97.5
t-97.5 40.5z" />
    <glyph glyph-name="uniE601" unicode="&#xe601;" 
d="M889 -212h-754q-35 0 -60.5 25t-25.5 61v852q0 36 25.5 61t60.5 25h575l265 -269v-669q0 -36 -25.5 -61t-60.5 -25zM135 768q-17 0 -29 -12.5t-12 -29.5v-852q0 -17 12 -29.5t29 -12.5h754q17 0 29 12.5t12 29.5v651l-239 243h-556zM221 596h252v-44h-252v44zM221 482
h252v-44h-252v44zM221 369h252v-45h-252v45zM221 195h579v-45h-579v45zM221 48h579v-44h-579v44zM951 513h-181q-35 0 -60 25t-25 61v185h44v-185q0 -17 12 -29.5t29 -12.5h181v-44z" />
    <glyph glyph-name="uniE602" unicode="&#xe602;" 
d="M888 449q1 15 1 18q0 122 -87 209t-210 87q-87 0 -159 -46.5t-108 -122.5q-37 29 -84 29q-56 0 -96 -40t-40 -97q0 -21 6 -41q-45 -26 -70.5 -72t-25.5 -100q0 -83 59 -141.5t142 -59.5h151q-120 104 -137 139q-25 55 18 106l173 207q34 40 87 40q52 0 86 -41l174 -207
q42 -51 17 -105q-7 -16 -45.5 -53t-60 -55t-35.5 -30v0h169q81 0 138.5 57t57.5 138q0 61 -33.5 109.5t-87.5 71.5zM704 266l-173 205q-9 11 -23 11t-23 -12l-174 -204q-9 -12 -5.5 -18.5t18.5 -6.5h91h35v-200q0 -15 11 -25.5t26 -10.5h41q15 0 24 10.5t9 25.5v200h39h91
q15 0 18.5 6.5t-5.5 18.5z" />
    <glyph glyph-name="uniE603" unicode="&#xe603;" 
d="M907 691q-19 0 -33 -14l-491 -491l-230 231q-14 15 -35 15q-19 0 -32 -13.5t-13 -32.5q0 -20 15 -34l262 -263q14 -14 33 -14t33 14l522 523q14 14 14 33t-13 32.5t-32 13.5z" />
    <glyph glyph-name="uniE604" unicode="&#xe604;" 
d="M960 236h-384v-384h-128v384h-384v128h384v384h128v-384h384v-128z" />
    <glyph glyph-name="uniE605" unicode="&#xe605;" horiz-adv-x="1025" 
d="M847 669h-84l-28 55q-13 26 -23.5 34.5t-32.5 8.5h-335q-22 0 -33 -9.5t-23 -33.5l-28 -55h-84q-46 0 -78.5 -32.5t-32.5 -79.5v-445q0 -46 32.5 -78.5t78.5 -32.5h671q46 0 78.5 32.5t32.5 78.5v445q0 47 -32.5 79.5t-78.5 32.5zM902 106q0 -23 -16 -39.5t-39 -16.5
h-671q-23 0 -39 16.5t-16 39.5v445q0 23 16 39t39 16h112l28 56q4 6 10.5 17.5t9.5 16.5t8.5 11t12 8.5t15.5 2.5h279q9 0 15.5 -2.5t12 -8.5t9 -11t9.5 -16.5t10 -17.5l28 -56h112q23 0 39 -16t16 -39v-445zM511.5 572q-92.5 0 -158 -65t-65.5 -157t65.5 -157.5t158 -65.5
t158 65.5t65.5 157.5t-65.5 157t-158 65zM511.5 183q-69.5 0 -118.5 49t-49 118t49 118t118.5 49t118.5 -49t49 -118t-49 -118t-118.5 -49z" />
    <glyph glyph-name="uniE606" unicode="&#xe606;" 
d="M817 595q-29 97 -109.5 157.5t-184.5 60.5q-102 0 -184 -62t-111 -162q-64 -10 -108.5 -62.5t-44.5 -123.5q0 -75 49.5 -128.5t122.5 -63.5q15 0 23.5 9t8.5 23.5t-8.5 23t-23.5 8.5q-51 5 -83 42t-32 86q0 53 33.5 91.5t81.5 43.5q10 0 18 8t8 17q20 83 86 137.5
t151 54.5q86 0 154 -55t83 -137q0 -9 8 -17t17 -8q49 -5 85.5 -44t36.5 -91q0 -48 -33.5 -85.5t-81.5 -42.5q-14 0 -23 -10.5t-9 -21.5q0 -14 8.5 -23t23.5 -9q76 5 127.5 60t51.5 132q9 66 -34 121.5t-107 70.5zM523 429l-186 -173q-10 -10 -10 -22.5t10 -22.5
q13 -13 25.5 -13t19.5 7l109 102v-371h64v371l102 -102q10 -10 22.5 -10t22 9.5t9.5 22.5t-9 23z" />
    <glyph glyph-name="uniE607" unicode="&#xe607;" 
d="M965 -15h-911q-9 0 -15 6.5t-6 14.5v760q0 9 6 15t15 6h911q9 0 15 -6t6 -15v-760q0 -8 -6 -14.5t-15 -6.5zM75 27h869v718h-869v-718zM964 124q-8 0 -14 5l-207 169l-209 -140l-270 291l-195 -202q-6 -6 -15 -6t-15 6t-6 14.5t6 14.5l226 234l275 -297l206 137l231 -189
q7 -5 8 -13.5t-5 -15.5q-6 -8 -16 -8zM560 412q-54 0 -92 38t-38 91.5t38 91.5t91.5 38t91.5 -38t38 -91.5t-38 -91.5t-91 -38zM560 629q-37 0 -62.5 -25.5t-25.5 -62t25.5 -62t62 -25.5t62 25.5t25.5 62t-25.5 62t-61.5 25.5z" />
    <glyph glyph-name="uniE608" unicode="&#xe608;" 
d="M506 -57q-2 38 13 58q17 22 54 27q124 17 216 93q70 58 106 139t31.5 170.5t-48.5 167.5t-120 129q-107 73 -241 73q-56 0 -111 -14q-93 -23 -164.5 -79.5t-109.5 -136.5q-39 -81 -34.5 -170t50.5 -170t123 -133.5t171 -67.5l9 -2l-6 -33l-8 1q-102 17 -186 74t-134 145
t-54.5 185t37.5 185q41 87 119 148.5t178 86.5q60 15 120 15q145 0 261 -79q82 -56 130 -140.5t53 -182t-34 -186t-116 -151.5q-99 -82 -233 -101h-1q-22 -2 -30 -13t-6 -37v-9l-35 -1v9zM506 -57zM262 379l79 74l-79 75l25 23l94 -88l10 -10l-104 -97zM262 379zM630 453
l25 24v-1l80 75l25 -23l-80 -75l80 -74l-25 -24zM630 453zM592 203q-4 4 -11 10t-28 15t-43 9q-47 -1 -74 -33l-5 -6l-14 9l-14 11l6 7q6 8 15 16t33.5 18.5t52.5 10.5h1q28 0 54.5 -11t36.5 -19t16 -14l7 -7l-8 -6l-19 -16zM592 203z" />
    <glyph glyph-name="uniE609" unicode="&#xe609;" horiz-adv-x="1449" 
d="M1097 736q-56 72 -136 112q-84 42 -178 42q-79 0 -151.5 -30t-128.5 -86q-112 -112 -117 -270q-117 0 -200 -83t-83 -200t83 -200t200 -83h286q18 0 31.5 13t13.5 32t-13.5 32t-31.5 13h-286q-79 0 -135.5 56.5t-56.5 136t56.5 136.5t135.5 57h47q20 0 34 14q13 15 11 35
q-1 16 -1 30q0 127 89.5 217t216.5 90q73 0 137 -33q63 -31 105 -86q14 -18 36 -18q16 0 28 9q15 12 17 30.5t-9 33.5zM1195 280q18 5 37 11q16 5 32 9q16 5 26 9l-10 -41q-5 -17 -9 -25q-7 -21 -17.5 -38.5t-19.5 -30.5q-11 -16 -23 -29l-94 -28l78 -14q-16 -13 -33 -27
q-16 -11 -35.5 -24t-41 -23.5t-48 -11t-50.5 3.5q-27 4 -55 13q9 13 18 29q9 14 21 33q11 18 25 42q37 62 71 122q31 53 62 108q31 54 61 106q-36 -42 -76 -93q-35 -44 -77 -104t-86 -132q-9 -14 -20 -33q-9 -15 -25 -41q-12 -21 -26 -44l-26 -44q-30 -49 -63 -105
q1 16 6 42q5 21 15.5 53.5t30.5 75.5q13 28 20 43q6 13 11 24q4 9 6 12q-4 5 -2 19q2 12 9 36q8 23 25 65q18 43 46.5 92.5t65 98.5t78.5 94.5t86 80.5t88 58t86 26q1 -27 -6 -71q-6 -44 -15 -94.5t-20.5 -102t-22.5 -94.5zM1195 280z" />
    <glyph glyph-name="uniE60A" unicode="&#xe60a;" 
d="M512 833q-121 0 -223.5 -58.5t-163 -159.5t-63.5 -221q3 105 52 193t132.5 139t180.5 51q100 0 184 -52.5t133 -143.5t49 -197q0 -35 24.5 -60t59.5 -25t59.5 25t24.5 60q0 91 -35.5 174.5t-95.5 143.5t-143.5 95.5t-174.5 35.5zM512 -66q120 0 222.5 58.5t163 159.5
t63.5 221q-2 -105 -51.5 -193t-132.5 -139t-181 -51q-99 0 -183.5 53t-133 143.5t-48.5 197.5q0 35 -25 59.5t-60 24.5t-59.5 -24.5t-24.5 -59.5q0 -92 35.5 -175t96 -143.5t143.5 -96t175 -35.5z" />
    <glyph glyph-name="uniE60B" unicode="&#xe60b;" 
d="M703 -62l64 63l-381 384l384 380l-63 64l-449 -444z" />
    <glyph glyph-name="uniE60C" unicode="&#xe60c;" 
d="M123 670h305v-64h-305v64zM123 358h440v-64h-440v64zM123 46h767v-64h-767v64zM963 328l-50 40l-81 -101v401h-64v-405l-86 105l-50 -40l168 -204z" />
    <glyph glyph-name="uniE60D" unicode="&#xe60d;" 
d="M321 830l-64 -63l381 -384l-384 -380l63 -64l449 444z" />
    <glyph glyph-name="uniE60E" unicode="&#xe60e;" 
d="M542 633v-34l56 -12v46h-56zM426 633v-46l45 16v30h-45zM477 748v-111h65v56h56v55h-121zM127 388v-115h84v58h-36v57h-48zM66 273h57v-49h-57v49zM429 -25h49v-50h-49v50zM690 19l-28 -36h49zM605 -33h51v-62h115v-50h-293v49h125zM838 206l-43 -81l43 -24v105zM838 88
h121v-121zM843 388h56v-50h-56v50zM843 269h63v69h53v-184h-48v70h-68v45zM766 649h94v-96h-94v96zM719 540v159h182v-190h-150l44 -60h164v299h-304v-169zM169 649h92v-91h-92v91zM302 523v170h-183v-188h176l-42 -56h-187v299h305v-190zM169 54h98v-98h-98v98zM306 66
v-155h-183v190h156l-33 58h-180v-304h297v159zM521 524q5 1 13.5 0.5t33 -4t46.5 -11t50 -24t48.5 -40t35.5 -62t18 -87.5v-12q0 -9 -4 -33.5t-12 -47t-26 -50t-43 -48t-66.5 -35t-93.5 -16.5q-5 1 -13 1.5t-32 6t-45.5 14.5t-47.5 27.5t-44.5 43t-30.5 63.5t-11 86h-62
q0 -5 0.5 -15.5t5.5 -40t14.5 -56.5t31 -60.5t50.5 -58t77 -43t108 -21.5h17q11 0 41.5 5.5t58 15t62 31.5t59 52t42 80t18.5 111q1 6 0.5 16t-5.5 38.5t-15 54.5t-32 58t-52.5 55.5t-81.5 40.5t-115 18zM521 524h-11q-8 0 -29.5 -4.5t-41.5 -12t-45.5 -25t-44.5 -40.5
t-33.5 -61t-18.5 -85h-62q1 6 2 15.5t7 38t16.5 54t32 57.5t50.5 55.5t74.5 40.5t101.5 20zM703 54l182 -183q3 -2 8 -5.5t20 -4.5t29 10q4 3 8 8t5 21t-13 33l-181 176q-40 -43 -58 -55z" />
    <glyph glyph-name="uniE60F" unicode="&#xe60f;" 
d="M768 -149h-578q-40 0 -68.5 28.5t-28.5 68.5v642q0 40 28.5 68.5t68.5 28.5h450q13 0 22.5 -9.5t9.5 -23t-9.5 -23t-22.5 -9.5h-450q-14 0 -23 -9.5t-9 -22.5v-642q0 -14 9 -23.5t23 -9.5h578q13 0 22.5 9.5t9.5 23.5v514q0 13 9.5 22.5t23 9.5t22.5 -9.5t9 -22.5v-514
q0 -40 -28 -68.5t-68 -28.5zM579 365q-13 0 -22.5 9.5t-9.5 23t10 22.5l319 319q9 10 22.5 10t23 -9.5t9.5 -23t-10 -22.5l-319 -319q-9 -10 -23 -10zM447 365h-193q-13 0 -22.5 9.5t-9.5 23t9.5 23t22.5 9.5h193q13 0 22.5 -9.5t9.5 -23t-9.5 -23t-22.5 -9.5zM640 172h-386
q-13 0 -22.5 9.5t-9.5 23t9.5 23t22.5 9.5h386q13 0 22.5 -9.5t9.5 -23t-9.5 -23t-22.5 -9.5zM640 172z" />
    <glyph glyph-name="uniE610" unicode="&#xe610;" 
d="M932 231q-14 0 -24 -9.5t-10 -24.5v-245q0 -15 -10.5 -26t-26.5 -11h-709q-15 0 -26 11t-11 26v611q0 16 11 26.5t26 10.5h332q14 1 24 10.5t10 23.5t-10 24t-24 10h-337q-41 0 -70.5 -29.5t-29.5 -70.5v-621q0 -41 29.5 -70.5t70.5 -29.5h719q41 0 70.5 29.5t29.5 70.5
v251q0 14 -10 23.5t-24 9.5zM1006 511l-232 233l-8 7l-1 -1q-7 5 -16 5q-15 0 -25.5 -10.5t-10.5 -24.5q0 -10 5 -17l-1 -1l162 -163h-166q-80 -10 -139.5 -36.5t-97.5 -64.5t-63.5 -95t-37.5 -119t-19 -145q0 -15 10.5 -25t24.5 -10q12 0 21.5 7t12.5 18l2 9
q6 79 16.5 133.5t30.5 102.5t50.5 78t77.5 50t112 27h165l-155 -155l-6 -9q-4 -7 -4 -15q0 -15 10.5 -25.5t24.5 -10.5q9 0 17 4l239 238q5 4 5 8t-4 7z" />
    <glyph glyph-name="uniE611" unicode="&#xe611;" 
d="M802 834h-450v-900h450q47 0 80 33t33 79v676q0 46 -33 79t-80 33zM802 474q0 -19 -2.5 -26t-9.5 -7q-8 -1 -22 11q-7 5 -19 14t-17 12q-14 12 -29 0q-6 -3 -35 -26q-13 -11 -21 -11t-10.5 7.5t-2.5 25.5l-1 274q0 30 22 30h126q21 0 21 -30v-274zM127 722v-676
q0 -46 33 -79t80 -33h56v900h-56q-47 0 -80 -33t-33 -79z" />
    <glyph glyph-name="uniE612" unicode="&#xe612;" 
d="M765 452q-42 75 -116 118t-160 43q-118 0 -208 -78q-80 -70 -102 -174q-62 -18 -101 -70t-39 -117q0 -72 47.5 -127.5t117.5 -66.5h544q97 0 166.5 69.5t69.5 166.5q0 93 -63.5 161t-155.5 75z" />
    <glyph glyph-name="uniE613" unicode="&#xe613;" 
d="M888 293q-5 -42 -29 -84t-57.5 -76.5t-73 -66.5t-77 -55.5t-70 -41t-50.5 -26.5t-19 -9q-7 3 -20 9t-49.5 26t-70.5 42t-76.5 55t-74 66.5t-56 76t-29.5 84.5q-12 91 -13.5 203.5t3.5 179.5l5 67q14 -2 37 -5.5t76.5 -4t86.5 9.5q52 16 97.5 39t64.5 37l19 15
q7 -6 20.5 -16t60.5 -34.5t100 -40.5q33 -10 83 -10t83 5l34 5q2 -27 5 -73.5t2.5 -166t-12.5 -210.5z" />
    <glyph glyph-name="uniE614" unicode="&#xe614;" 
d="M901 -79h-780q-18 0 -31.5 13t-13.5 31v753q0 18 13.5 31t31.5 13h75v-44q0 -36 26.5 -61.5t64 -25.5t63.5 25.5t26 61.5v44h45v-44q0 -36 26.5 -61.5t63.5 -25.5t63.5 25.5t26.5 61.5v44h45v-44q0 -36 26.5 -61.5t63.5 -25.5t63.5 25.5t26.5 61.5v44h75q19 0 32 -13
t13 -31v-753q0 -18 -13 -31t-32 -13zM781 515h-540q-18 0 -31.5 -12.5t-13.5 -30.5t13.5 -31t31.5 -13h540q19 0 32 13t13 31t-13 30.5t-32 12.5zM781 327h-540q-18 0 -31.5 -12.5t-13.5 -31t13.5 -31t31.5 -12.5h540q19 0 32 12.5t13 31t-13 31t-32 12.5zM788 139h-554
q-16 0 -27 -11t-11 -26t11 -25.5t27 -10.5h554q16 0 27 10.5t11 25.5t-11 26t-27 11zM736 675q-19 0 -32 12.5t-13 30.5v87q0 18 13 31t32 13t32 -13t13 -31v-87q0 -18 -13 -30.5t-32 -12.5zM511.5 675q-18.5 0 -32 12.5t-13.5 30.5v87q0 18 13.5 31t32 13t31.5 -13t13 -31
v-87q0 -18 -13 -30.5t-31.5 -12.5zM286.5 675q-18.5 0 -32 12.5t-13.5 30.5v87q0 18 13.5 31t32 13t31.5 -13t13 -31v-87q0 -18 -13 -30.5t-31.5 -12.5z" />
    <glyph glyph-name="uniE615" unicode="&#xe615;" 
d="M512 231q80 0 137 57t57 137v202q0 80 -57 137t-137 57t-137 -57t-57 -137v-202q0 -80 57 -137t137 -57zM345 425v202q0 69 49 118t118 49t118 -49t49 -118v-202q0 -69 -49 -117.5t-118 -48.5t-118 48.5t-49 117.5zM854 457v-70q0 -76 -45.5 -140.5t-124.5 -102
t-172 -37.5t-172 37.5t-124.5 102t-45.5 140.5v70h-28v-70q0 -81 47.5 -151t129.5 -111.5t179 -44.5v-106h-125v-27h278v27h-125v106q97 3 179 44.5t129.5 111.5t47.5 151v70h-28z" />
    <glyph glyph-name="uniE616" unicode="&#xe616;" 
d="M783 -17h-542q-55 0 -94.5 39.5t-39.5 95.5v532q0 56 39.5 95.5t94.5 39.5h542q55 0 94.5 -39.5t39.5 -95.5v-532q0 -56 -39.5 -95.5t-94.5 -39.5zM241 732q-33 0 -57.5 -24t-24.5 -58v-532q0 -34 24.5 -58t57.5 -24h542q33 0 57.5 24t24.5 58v532q0 34 -24.5 58
t-57.5 24h-542zM771 383h-518v402h518v-402zM305 435h414v297h-414v-297zM589 655h53v-175h-53v175zM589 655z" />
    <glyph glyph-name="uniE617" unicode="&#xe617;" 
d="M899 105zM316 764h-204q-23 0 -39.5 -16t-16.5 -39v-205q0 -23 16.5 -39.5t39.5 -16.5h204q23 0 39.5 16.5t16.5 39.5v205q0 23 -16.5 39t-39.5 16zM319 709v-205q0 -2 -3 -2h-204q-3 0 -3 2v205q0 2 3 2h204q3 0 3 -2zM314 306h-200q-23 0 -39 -16t-16 -39v-200
q0 -23 16 -39t39 -16h200q23 0 39 16t16 39v200q0 23 -16 39t-39 16zM317 251v-200q0 -3 -3 -3h-200q-3 0 -3 3v200q0 3 3 3h200q3 0 3 -3zM557 708q1 -1 3 -1h2h2h361h1h1h2q1 0 3 1q11 2 18.5 11t7.5 20.5t-7 20t-19 11.5q-1 1 -3 1h-369q-2 0 -3 -2q-12 -2 -19 -10.5
t-7 -20t7 -20.5t19 -11zM556 469q2 -1 4 -1h369q1 0 3 1q11 2 18.5 11t7.5 20.5t-7.5 20t-18.5 10.5q-2 1 -3 1h-1h-3h-360h-3h-2q-2 0 -3 -1q-11 -2 -18.5 -10.5t-7.5 -20.5q0 -11 7 -19.5t18 -11.5zM556 227q2 -2 4 -2h369q1 0 1 1q13 0 22 9.5t9 22.5t-9.5 22.5
t-22.5 9.5h-1h-364h-2h-2q-2 0 -3 -1q-11 -2 -18.5 -11t-7.5 -20t7 -20t18 -11zM931 77h-2h-369q-2 0 -3 -1q-12 -3 -19 -11.5t-7 -20t7.5 -20.5t18.5 -11h3h1q1 -1 3 0h363q1 -1 2 -1q13 0 22.5 9.5t9.5 22.5t-8.5 22.5t-21.5 10.5z" />
    <glyph glyph-name="uniE618" unicode="&#xe618;" 
d="M942 484q-10 10 -30 29.5t-29 28.5q-66 -66 -194.5 -199t-192.5 -198q-134 138 -385 397q-11 -9 -30.5 -28.5t-30.5 -28.5q88 -92 256 -264.5t190 -195.5q203 208 446 459z" />
    <glyph glyph-name="uniE619" unicode="&#xe619;" 
d="M321 334h-1l-1 1l-1 1h-1h1q-56 44 -88.5 109t-32.5 139q0 64 25 123q-57 -20 -93 -69.5t-36 -112.5q0 -71 46 -124.5t116 -64.5q-94 -14 -157.5 -98t-63.5 -197h90q22 94 73.5 170.5t123.5 122.5zM556 324q94 15 157.5 88.5t63.5 171.5q0 109 -77.5 186.5t-186.5 77.5
t-186.5 -77.5t-77.5 -186.5q0 -98 63 -171.5t158 -88.5q-128 -19 -215 -134t-87 -270h690q0 155 -87 270t-215 134zM769 336q70 11 116 64.5t46 124.5q0 62 -35.5 111.5t-91.5 69.5q24 -58 24 -122q0 -75 -33 -140.5t-90 -109.5q72 -46 123.5 -122.5t73.5 -170.5h88
q0 113 -63.5 197t-157.5 98zM769 336z" />
    <glyph glyph-name="uniE61A" unicode="&#xe61a;" horiz-adv-x="1093" 
d="M669 247h-275q-7 0 -12 -5t-5 -12v-34q0 -7 5 -12t12 -5h275q7 0 12 5t5 12v34q0 7 -5 12t-12 5zM428 474.5q0 31.5 -22.5 54t-54.5 22.5t-54.5 -22.5t-22.5 -54t22.5 -53.5t54.5 -22t54.5 22t22.5 53.5zM961 589h-35q-1 0 -2.5 -0.5t-2.5 -0.5q-51 123 -162 198.5
t-247 75.5q-90 0 -172.5 -35t-141.5 -94.5t-94.5 -142t-35.5 -172.5q0 -147 87 -263t223 -159q5 -24 23.5 -40t43.5 -16h172q29 0 49 20t20 49v34q0 28 -20 48t-49 20h-172q-21 0 -38.5 -12.5t-24.5 -32.5q-109 41 -177 137t-68 215q0 102 50 188.5t136.5 137t188.5 50.5
q119 0 215 -68t137 -177q-7 -14 -7 -28v-205q0 -29 20 -49t49 -20h34q29 0 49 20t20 49v205q0 28 -20 48t-48 20zM711 551q-32 0 -54.5 -22.5t-22.5 -54t22.5 -53.5t54.5 -22t55 22t23 53.5t-23 54t-55 22.5z" />
    <glyph glyph-name="uniE61B" unicode="&#xe61b;" 
d="M620 -64h30v896h-30q-63 -38 -246 -155v-35q234 146 245 153h1v-859z" />
    <glyph glyph-name="uniE61C" unicode="&#xe61c;" 
d="M229 586h31q2 95 68.5 156.5t165.5 61.5t165.5 -61t66.5 -151q0 -63 -36.5 -124t-142.5 -172l-315 -335v-25h563v29h-518v3l292 309q109 114 148 180.5t39 135.5q0 101 -75 170t-186 69q-113 0 -188 -69t-78 -177z" />
    <glyph glyph-name="uniE61D" unicode="&#xe61d;" 
d="M399 388h96q129 0 202 -54t73 -149.5t-73.5 -158t-184.5 -62.5q-108 0 -182.5 58t-75.5 142h-31q2 -97 84.5 -162.5t203.5 -65.5q125 0 207.5 70.5t82.5 177.5q0 93 -61.5 152t-163.5 66v2q87 17 136.5 72.5t49.5 136.5q0 94 -73.5 156.5t-185.5 62.5q-107 0 -180.5 -62
t-78.5 -156h30q5 81 70.5 135.5t158.5 54.5q98 0 163.5 -55t65.5 -138q0 -86 -66 -140.5t-171 -54.5h-96v-28z" />
    <glyph glyph-name="uniE61E" unicode="&#xe61e;" 
d="M655 -64h30v234h146v29h-146v633l-42 -1q-245 -323 -450 -632v-29h462v-234zM230 201q212 318 424 594h1v-596h-425v2z" />
    <glyph glyph-name="uniE61F" unicode="&#xe61f;" 
d="M504 -64q129 0 214.5 83.5t85.5 209.5q0 125 -83.5 208.5t-208.5 83.5q-74 0 -139 -32.5t-103 -88.5h-1l45 403h432v29h-458l-54 -478h33q38 65 103 102t142 37q111 0 186.5 -76t75.5 -189t-77 -188.5t-193 -75.5q-98 0 -170.5 55.5t-83.5 137.5h-30q11 -95 92 -158
t192 -63z" />
    <glyph glyph-name="uniE620" unicode="&#xe620;" 
d="M524 -64q124 0 207 84.5t83 211.5q0 121 -83 203.5t-207 82.5q-102 0 -181 -60t-101 -153h-2q-5 233 71.5 366t215.5 133q90 0 156 -52t79 -132h30q-14 94 -87.5 153t-177.5 59q-145 0 -231 -128t-86 -345q0 -212 90 -321q41 -49 98.5 -75.5t125.5 -26.5zM524 -36
q-113 0 -189.5 80.5t-76.5 197.5q0 100 79 174.5t186 74.5q110 0 185.5 -75t75.5 -184q0 -114 -75 -191t-185 -77z" />
    <glyph glyph-name="uniE621" unicode="&#xe621;" 
d="M326 -64h35l434 865v31h-566v-29h533v-2z" />
    <glyph glyph-name="uniE622" unicode="&#xe622;" 
d="M511 -64q135 0 217.5 70.5t82.5 180.5q0 84 -58 146t-150 78v2q79 18 128 71t49 124q0 98 -75 161t-194 63q-118 0 -192.5 -63t-74.5 -161q0 -73 48.5 -125.5t128.5 -69.5v-2q-93 -16 -150.5 -78t-57.5 -146q0 -110 82.5 -180.5t215.5 -70.5zM511.5 -36
q-120.5 0 -194.5 63t-74 160q0 92 74.5 150.5t194.5 58.5q121 0 195 -58.5t74 -150.5q0 -97 -74.5 -160t-195 -63zM511 425q-103 0 -170 51.5t-67 130.5q0 85 66 141t172 56q107 0 172 -56t65 -141q0 -79 -67 -130.5t-171 -51.5z" />
    <glyph glyph-name="uniE623" unicode="&#xe623;" 
d="M497 -64q147 0 232 128t85 345q0 212 -91 319q-84 104 -223 104q-125 0 -207.5 -85.5t-82.5 -214.5q0 -120 82.5 -201t207.5 -81q101 0 182 61.5t101 151.5h1q1 -40 0 -59q-4 -205 -79 -322.5t-208 -117.5q-95 0 -158 52t-77 132h-30q14 -94 86 -153t179 -59zM501 277
q-113 0 -186.5 74.5t-73.5 180.5q0 116 74 194t185 78q113 0 189.5 -81t76.5 -197q0 -99 -79 -174t-186 -75z" />
    <glyph glyph-name="uniE624" unicode="&#xe624;" 
d="M511 459l388 -386l62 61l-450 447l-450 -447l61 -61h1z" />
    <glyph glyph-name="uniE625" unicode="&#xe625;" 
d="M512 832q-140 0 -222.5 -121t-82.5 -327t82 -327t223 -121t223 121t82 327t-82 327t-223 121zM512 -36q-127 0 -201 113.5t-74 306.5t74.5 306.5t200.5 113.5q127 0 201 -113.5t74 -306.5t-74 -306.5t-201 -113.5z" />
    <glyph glyph-name="uniE626" unicode="&#xe626;" 
d="M915 510h-42h-23h-116q-18 0 -30 12.5t-12 29.5t12 29.5t30 12.5h72q-50 71 -128 112.5t-168 41.5q-99 0 -182.5 -49t-132.5 -132.5t-49 -182.5q0 -17 -12 -29.5t-29.5 -12.5t-30 12.5t-12.5 29.5q0 91 35.5 174t95.5 143t143 95.5t174 35.5q110 0 205.5 -50.5
t157.5 -137.5v76q0 17 12.5 29.5t30 12.5t29.5 -12.5t12 -29.5v-168q0 -17 -12 -29.5t-30 -12.5zM104 258h182q18 0 30 -12t12 -29.5t-12 -30t-30 -12.5h-73q51 -71 129 -112t168 -41q99 0 182.5 48.5t132 132t48.5 182.5q0 17 12.5 29.5t30 12.5t29.5 -12.5t12 -29.5
q0 -91 -35.5 -174t-95 -142.5t-142.5 -95t-174 -35.5q-111 0 -206.5 50.5t-157.5 137.5v-76q0 -18 -12 -30t-29.5 -12t-30 12t-12.5 30v167q0 18 12.5 30t29.5 12z" />
    <glyph glyph-name="uniE627" unicode="&#xe627;" 
d="M644 549q0 55 -39 94.5t-93 39.5t-93 -39.5t-39 -94.5t39 -94.5t93 -39.5t93 39.5t39 94.5zM597 549q0 -36 -25 -61t-60 -25t-60 25t-25 61t25 61t60 25t60 -24q25 -26 25 -62zM483 46q11 -16 29 -16t29 16l13 20q34 49 55 81t59 95.5t61 110t41 101.5t18 95
q0 116 -81 198t-195 82t-195 -82t-81 -198q0 -40 18.5 -94.5t41 -101.5t60.5 -110t59 -95t54 -81zM283 549q0 96 67 164.5t162 68.5t162 -68.5t67 -164.5q0 -44 -23 -106t-66 -135.5t-70 -115t-66 -99.5l-4 -6l-4 6q-39 58 -66 99.5t-70 115t-66 135.5t-23 106zM640 114
q-14 2 -14 -13q0 -6 2.5 -10t5.5 -4l3 -1q33 -11 50.5 -25t17.5 -25q0 -12 -23 -24t-69 -21.5t-101 -9.5t-101 9.5t-69 21.5t-23 24q0 11 17.5 25t50.5 25q11 1 11 15q0 8 -3.5 11t-6.5 3l-4 -1q-130 -29 -130 -78q0 -41 74.5 -69t183 -28t183.5 28t75 69q0 49 -130 78z" />
    <glyph glyph-name="uniE628" unicode="&#xe628;" 
d="M512 -66q-186 0 -318 132t-132 318t132 318t318 132t318 -132t132 -318t-132 -318t-318 -132zM512 784q-166 0 -283 -117t-117 -283t117 -283t283 -117t283 117t117 283t-117 283t-283 117zM712 334h-250v350h50v-300h200v-50z" />
    <glyph glyph-name="uniE629" unicode="&#xe629;" 
d="M513 67q-171 0 -309 90t-199 236q61 146 199 236.5t308.5 90.5t308.5 -90.5t200 -236.5q-62 -146 -200 -236t-308 -90zM513 655q-142 0 -258.5 -72t-174.5 -190q58 -117 174.5 -189t258 -72t258 72t175.5 189q-59 118 -175.5 190t-257.5 72zM513 219q-76 0 -129.5 51
t-53.5 123t53.5 123t129 51t129 -51t53.5 -123t-53.5 -123t-128.5 -51zM513 502q-48 0 -81.5 -32t-33.5 -77t33.5 -77t81 -32t81 32t33.5 77t-33.5 77t-80.5 32zM513 502z" />
    <glyph glyph-name="uniE62A" unicode="&#xe62a;" 
d="M727 -34v-1q1 -11 8 -19t17 -8t17 8t7 19v9h1v18q0 119 -61 216.5t-163 141.5l-16 7l14 9q49 36 76.5 92t27.5 119q0 105 -68.5 179.5t-165.5 74.5t-166 -74.5t-69 -179.5q0 -63 28 -119t77 -92l13 -9l-15 -7q-102 -44 -163.5 -141.5t-61.5 -216.5q0 -8 1 -18l1 -10
q0 -11 7 -19t17 -8t17.5 8t7.5 19q0 1 -0.5 1.5t-0.5 1.5q-1 15 -1 25q0 137 90 234t218 97t218 -97t90 -234q0 -11 -2 -26v0zM236 577q0 82 54 140.5t130.5 58.5t130.5 -58.5t54 -140.5t-54 -140t-130.5 -58t-130.5 58t-54 140zM692 334q95 -12 156 -90q62 -78 62 -186
q0 -11 7 -19t18 -8q10 0 17 7.5t8 18.5v1v1q0 99 -51 180t-136 117l-16 7l14 10q41 29 64 75.5t23 99.5q0 73 -41.5 130t-107.5 74h-3h-1h-1q-10 0 -17.5 -8t-7.5 -20q0 -10 6 -18t16 -10h1h1q2 -1 5 -2h1q43 -16 69.5 -56t26.5 -88q0 -55 -32 -97t-82 -53h-1h-2
q-12 -1 -20 -10.5t-8 -22.5t8 -22.5t20 -10.5h3h1zM692 334z" />
    <glyph glyph-name="uniE62B" unicode="&#xe62b;" 
d="M679 491h191q10 0 17 7t7 17t-7 17t-17 7h-191q-10 0 -17 -7t-7 -17t7 -17t17 -7zM870 253h-143q-10 0 -17 -7t-7 -17t7 -17t17 -7h143q10 0 17 7t7 17t-7 17t-17 7zM870 109h-143q-10 0 -17 -6.5t-7 -16.5t7 -17t17 -7h143q10 0 17 7t7 17t-7 16.5t-17 6.5zM559 292
q48 66 48 151q0 99 -62.5 169t-151.5 70t-152 -70t-63 -169q0 -85 49 -151q-43 -15 -70 -51.5t-27 -83.5v-95q0 -60 42 -101.5t101 -41.5h239q59 0 101 41.5t42 101.5v95q0 47 -27 83.5t-69 51.5zM226 443q0 79 49 135t118 56t118 -56t49 -135t-49 -134.5t-118 -55.5
t-118 55.5t-49 134.5zM607 74q0 -45 -34 -76.5t-83 -31.5h-195q-48 0 -82.5 31.5t-34.5 76.5v71q0 38 25.5 67t64.5 37q56 -44 124.5 -44t124.5 44q39 -8 64.5 -37t25.5 -67v-71zM870 396h-191q-10 0 -17 -7t-7 -17t7 -17t17 -7h191q10 0 17 7t7 17t-7 17t-17 7z" />
    <glyph glyph-name="uniE62C" unicode="&#xe62c;" 
d="M183 592h148v-109h-148v109zM403 592h147v-109h-147v109zM183 409h148v-109h-148v109zM403 409h147v-109h-147v109zM768 409h73v-109h-73v109zM768 227h73v-108h-73v108zM183 227h148v-108h-148v108zM403 227h147v-108h-147v108zM988 -103v659h-293v220h-659v-877h-36
v-73h1024v73h-36v-2zM109 -103v806h512v-804h-512v-2zM695 -103v586h220v-584h-220v-2z" />
    <glyph glyph-name="uniE62D" unicode="&#xe62d;" 
d="M960 384q0 91 -35.5 174t-95.5 143t-143 95.5t-174 35.5t-174 -35.5t-143 -95.5t-95.5 -143t-35.5 -174q0 -152 91.5 -271t233.5 -159l-5 -18h256l-5 18q142 40 233.5 159t91.5 271zM443 142q-46 20 -74 62.5t-28 93.5q0 71 50 121t121 50t121 -50t50 -121
q0 -51 -28 -93.5t-74 -62.5l-69 242zM632 -38l-50 177q82 23 134 90.5t52 154.5q0 106 -75 181t-181 75t-181 -75t-75 -181q0 -87 52 -154.5t134 -90.5l-51 -177q-113 50 -188 171.5t-75 250.5q0 104 51.5 192.5t140 140t192.5 51.5t192.5 -51.5t140 -140t51.5 -192.5
q0 -129 -75 -250.5t-189 -171.5zM632 -38z" />
    <glyph glyph-name="uniE62E" unicode="&#xe62e;" 
d="M1015 -126l-292 294q59 78 75.5 173t-12.5 188t-99 164q-58 57 -133 87t-150.5 30t-150.5 -30t-132 -87q-77 -77 -104.5 -180t0 -206.5t104.5 -179.5q70 -71 163 -100t188 -12.5t173 75.5l292 -294q7 -7 17 -7t18 7l43 44q7 7 7 17t-7 17zM195 199q-86 86 -86 207.5
t86 207.5t207.5 86t208 -86t86.5 -207.5t-86.5 -207.5t-208 -86t-207.5 86z" />
    <glyph glyph-name="uniE62F" unicode="&#xe62f;" 
d="M87 660h45q9 0 15.5 -6.5t6.5 -15.5v-45q0 -9 -6.5 -15.5t-15.5 -6.5h-45q-9 0 -15.5 6.5t-6.5 15.5v45q0 9 6.5 15.5t15.5 6.5zM356 660h581q9 0 15.5 -6.5t6.5 -15.5v-45q0 -9 -6.5 -15.5t-15.5 -6.5h-581q-10 0 -16.5 6.5t-6.5 15.5v45q0 9 6.5 15.5t16.5 6.5zM87 34
h45q9 0 15.5 -6.5t6.5 -15.5v-45q0 -9 -6.5 -15.5t-15.5 -6.5h-45q-9 0 -15.5 6.5t-6.5 15.5v45q0 9 6.5 15.5t15.5 6.5zM356 34h581q9 0 15.5 -6.5t6.5 -15.5v-45q0 -9 -6.5 -15.5t-15.5 -6.5h-581q-10 0 -16.5 6.5t-6.5 15.5v45q0 9 6.5 15.5t16.5 6.5zM87 347h45
q9 0 15.5 -6.5t6.5 -15.5v-45q0 -9 -6.5 -15.5t-15.5 -6.5h-45q-9 0 -15.5 6.5t-6.5 15.5v45q0 9 6.5 15.5t15.5 6.5zM356 347h581q9 0 15.5 -6.5t6.5 -15.5v-45q0 -9 -6.5 -15.5t-15.5 -6.5h-581q-10 0 -16.5 6.5t-6.5 15.5v45q0 9 6.5 15.5t16.5 6.5z" />
    <glyph glyph-name="uniE630" unicode="&#xe630;" 
d="M512 812q-105 0 -199.5 -40t-163 -108t-109 -162t-40.5 -198.5t40.5 -200t109 -164.5t163 -110t199.5 -41t199.5 41t163 110t109 164.5t40.5 200t-40.5 198.5t-109 162t-163 108t-199.5 40zM511.5 -135q-118.5 0 -219 59t-158 160t-57.5 220t57.5 218.5t157.5 156.5
t219 57t219 -57t158 -156.5t58 -218.5t-58 -220t-158 -160t-218.5 -59zM463 487q-7 6 -18 6t-18 -6v-375q7 -6 18 -6t18 6l213 173q7 6 7 15t-7 15z" />
    <glyph glyph-name="uniE631" unicode="&#xe631;" 
d="M511.5 757q-92.5 0 -170.5 -45.5t-123.5 -123.5t-45.5 -170q0 -50 45 -148t103 -189t114.5 -160t76.5 -69q21 0 77 69t114 160.5t103.5 189t45.5 147.5q0 92 -45.5 170t-123.5 123.5t-170.5 45.5zM511 -63q-17 0 -63.5 59t-95 136.5t-86.5 160.5t-38 125q0 117 83 199.5
t200 82.5t200 -82.5t83 -199.5q0 -42 -37.5 -124.5t-86 -160.5t-95.5 -137t-64 -59zM511.5 559q-58.5 0 -100 -41.5t-41.5 -100t41.5 -100t100 -41.5t100 41.5t41.5 100t-41.5 100t-100 41.5zM511 333q-35 0 -60 24.5t-25 60t25 60t60 24.5t60 -24.5t25 -60t-25 -60
t-60 -24.5z" />
    <glyph glyph-name="uniE632" unicode="&#xe632;" 
d="M752 -212h-480q-53 0 -89.5 37.5t-36.5 88.5v768q0 54 36.5 92t89.5 38h480q53 0 89.5 -37.5t36.5 -88.5v-768q0 -54 -36.5 -92t-89.5 -38v0zM815 682q0 27 -18 45t-45 18h-480q-27 0 -45 -18t-18 -45v-31h606v31v0zM815 588h-606v-512h606v512v0zM815 12h-606v-94
q0 -27 18 -45t45 -18h480q27 0 45 18t18 45v94v0zM512 -117q-21 0 -34 13t-13 33.5t13 34t34 13.5t34 -13.5t13 -34t-13 -33.5t-34 -13v0zM512 -117z" />
    <glyph glyph-name="uniE633" unicode="&#xe633;" 
d="M341 542v-171q0 -71 50 -121t121 -50t121 50.5t50 120.5v171q0 70 -50 120t-121 50t-121 -50t-50 -120zM284 542q0 94 67 160.5t161 66.5t161 -66.5t67 -160.5v-171q0 -94 -67 -160.5t-161 -66.5t-161 66.5t-67 160.5v171zM484 31v-115v-28h56v28v115v28h-56v-28z
M353 -169h318q12 0 20 8t8 20t-8 20.5t-20 8.5h-318q-12 0 -20 -8.5t-8 -20.5t8 -20t20 -8zM178 368q0 -91 44.5 -168t121.5 -122t168 -45t168 45t121.5 122t44.5 168q0 11 -8 19.5t-20 8.5t-20.5 -8.5t-8.5 -19.5q0 -115 -81 -196.5t-196 -81.5t-196 81.5t-81 196.5
q0 11 -8.5 19.5t-20.5 8.5t-20 -8.5t-8 -19.5z" />
    <glyph glyph-name="uniE634" unicode="&#xe634;" 
d="M960 544q0 -26 -19 -45t-45 -19h-768q-26 0 -45 19t-19 45t19 45t45 19h768q26 0 45 -19t19 -45zM704 288q0 -26 -19 -45t-45 -19h-512q-26 0 -45 19t-19 45t19 45t45 19h512q26 0 45 -19t19 -45zM512 32q0 -26 -19 -45t-45 -19h-320q-26 0 -45 19t-19 45t19 45t45 19
h320q26 0 45 -19t19 -45z" />
    <glyph glyph-name="uniE635" unicode="&#xe635;" 
d="M499 467q20 0 32 12t12 32t-12 32t-32 12q-21 0 -37 -12.5t-16 -31.5t16 -31.5t37 -12.5zM253 555q-21 0 -37 -12.5t-16 -31.5t16 -31.5t37 -12.5q20 0 32 12t12 32t-12 32t-32 12zM1024 186q0 104 -84 182t-203 87v6q-24 111 -130 185t-240 74q-99 0 -184 -42
t-134 -114.5t-49 -158.5q0 -142 138 -243l-32 -94q-3 -10 5 -17q4 -4 10 -4q4 0 8 2l117 59l15 -3q68 -14 106 -14q17 0 34 1q7 1 11 6q33 -81 114.5 -132t183.5 -51q37 0 103 17l91 -50q3 -2 7 -2q6 0 11 3q8 7 5 18l-23 77q120 95 120 208zM399 124q-16 -1 -32 -1
q-35 0 -100 13l-20 4q-5 1 -10 -1l-88 -45l23 69q3 12 -6 19q-134 93 -134 223q0 77 45 142t122 103t168 38q123 0 219.5 -66t118.5 -166q-129 -1 -219.5 -80t-90.5 -190q0 -31 9 -63q-3 1 -5 1zM875 -4q-8 -6 -5 -17l15 -50l-62 34q-4 2 -8 2q-2 0 -4 -1q-67 -17 -101 -17
q-117 0 -200 70t-83 169t83 169t200 70q115 0 198.5 -71t83.5 -168q0 -49 -30 -98t-87 -92zM613 300q-13 0 -24 -11t-11 -24t11 -24t24 -11q19 0 31.5 10.5t12.5 24.5t-12.5 24.5t-31.5 10.5zM806 300q-13 0 -24 -11t-11 -24t11 -24t24 -11q19 0 31.5 10.5t12.5 24.5
t-12.5 24.5t-31.5 10.5z" />
    <glyph glyph-name="uniE636" unicode="&#xe636;" 
d="M541 270zM257 476q0 103 74 175.5t179 72.5t179.5 -72.5t74.5 -175.5t-74.5 -176t-179.5 -73t-179 73t-74 176v0zM212 476q0 -87 48 -159t126 -107q-131 -37 -219 -140t-102 -237h45q17 148 131.5 249t269 101t269 -101t131.5 -249h45q-14 134 -102 237t-219 140
q78 35 126 107t48 159q0 121 -87.5 206.5t-211 85.5t-211 -85.5t-87.5 -206.5v0zM212 476z" />
    <glyph glyph-name="uniE637" unicode="&#xe637;" 
d="M915 32q23 -37 -2 -74q-64 -99 -133 -118q-14 -4 -32 -4q-36 0 -76.5 14t-73.5 36q-23 15 -55 42t-69 61q-87 83 -167 177q-75 89 -121 163q-72 116 -85 211v4q-5 29 -1 52q6 42 36 81q5 6 12 13q8 9 18 18q26 24 53 38q33 18 63 18q22 0 40 -10q13 -7 30 -26
q23 -26 37 -59q2 -5 5 -14q36 -84 39 -130q1 -23 -7 -39q-11 -23 -45 -42q-26 -15 -28 -29q-2 -9 6 -24q23 -41 54 -85q41 -58 93 -116q14 -15 31 -30q21 -19 41 -31q21 -13 33 -14h1q12 0 33 19q4 3 11 10q30 28 49 28q12 0 25 -7h1l158 -105h1q15 -10 25 -28zM875 39
l-158 104q-6 4 -12 4q-1 0 -2 -1q-8 -1 -29 -21q-8 -7 -12 -11q-28 -25 -50 -25h-3q-26 2 -61.5 29t-60.5 55q-53 59 -95 118q-32 46 -56 88q-16 30 -5 53q9 18 37 34q27 15 35 31q5 10 4 26q-2 42 -36 122q-4 10 -6 14q-11 27 -30 50q-15 17 -25 22q-13 7 -28 7
q-27 0 -61 -20q-20 -12 -39 -30q-16 -14 -25 -26q-26 -34 -32 -70q-3 -20 1 -45q0 -2 1 -4q8 -63 46 -139q32 -64 84 -134q29 -39 70 -88q76 -90 161 -170q38 -36 71 -64q31 -26 53 -41q30 -19 67 -32t69 -13q14 0 25 3q60 16 119 107q15 23 2 46q-7 13 -19 21z" />
    <glyph glyph-name="uniE638" unicode="&#xe638;" 
d="M786 -113h-548q-34 0 -58.5 23t-24.5 55v454q0 32 24.5 55t58.5 23h102l-33 55q-49 79 -24 166.5t108.5 133t176.5 22t141 -101.5l19 -30l-29 -16l-23 37q-39 64 -119.5 82t-148.5 -20q-69 -38 -92.5 -111.5t15.5 -138.5l48 -78h407q34 0 58.5 -23t24.5 -55v-454
q0 -32 -24.5 -55t-58.5 -23zM836 388q0 32 -24.5 55t-58.5 23h-482q-34 0 -58.5 -23t-24.5 -55v-392q0 -32 24.5 -55t58.5 -23h482q34 0 58.5 23t24.5 55v392z" />
    <glyph glyph-name="uniE639" unicode="&#xe639;" 
d="M792 -120h-560q-35 0 -60 24.5t-25 59.5v487q0 35 25 59.5t60 24.5h51v118q0 97 69.5 166t168 69t168 -69t69.5 -166v-118h34q35 0 60 -24.5t25 -59.5v-487q0 -35 -25 -59.5t-60 -24.5zM724 661q0 79 -61 136t-142.5 57t-142.5 -57t-61 -136v-126h407v126zM843 418
q0 34 -25 59t-60 25h-492q-35 0 -60 -25t-25 -59v-420q0 -35 25 -59.5t60 -24.5h492q35 0 60 24.5t25 59.5v420z" />
    <glyph glyph-name="uniE63A" unicode="&#xe63a;" 
d="M455 631q-99 0 -170 -87q-73 -88 -76 -218q0 -6 -2 -11q-10 -15 -10 -17q-1 -1 -5 -7.5t-5 -10.5q-20 -41 -25 -84q-4 -31 4 -40q0 1 1 1q8 4 19 14q7 7 12 16q5 7 13 8.5t15 -3.5q6 -6 7 -9q6 -16 17 -38q9 -19 20 -34q5 -7 3.5 -15.5t-8.5 -12.5l-5 -3q-22 -8 -33 -19
q-8 -8 -8 -14q0 -14 31 -29q38 -17 93 -17q32 0 60 5q28 7 44 17q11 7 21 0q19 -11 44 -17q27 -5 60 -5q55 0 94 17q30 15 30 29q0 6 -8 14q-13 12 -33 19q-8 3 -11.5 10t-0.5 16l1 2q0 1 1 2q2 3 21 34q7 12 16 38q3 8 10.5 11.5t15.5 0.5q8 -4 10 -8q8 -10 12 -14
q10 -12 18 -15l1 -1q7 7 4 40q-5 41 -24 82q0 1 -1 1q-8 15 -9 18q-3 4 -6.5 10t-3.5 7q-3 6 -3 11q-3 128 -76 217q-79 89 -175 89zM255 570q39 49 90.5 76t110 27t110 -27t90.5 -76q80 -98 85 -237q8 -13 9 -15l10 -20q0 -1 1 -1q23 -50 28 -95q6 -53 -16 -73
q0 -1 -1.5 -2t-2.5 -1q-16 -13 -39 -4q-14 6 -25 17q-5 -8 -6 -10q-2 -3 -5.5 -9.5t-4.5 -9.5q13 -7 24 -18q21 -21 21 -44q0 -39 -53 -65q-46 -21 -109 -21q-37 0 -68 8q-26 6 -46 16q-18 -10 -47 -16q-33 -8 -69 -8q-62 0 -109 21q-53 23 -53 65q0 23 21 44q12 10 24 18
q-5 8 -9 19l-3 6q-2 4 -3 5q-13 -11 -26 -17q-22 -9 -39 4q-1 0 -2.5 1t-1.5 2q-22 20 -16 73q5 46 29 95q8 17 10 21q7 11 9 14q2 66 25.5 131.5t56.5 105.5zM165 157zM746 157z" />
    <glyph glyph-name="uniE63B" unicode="&#xe63b;" 
d="M95 683q8 105 113 113q108 -8 117 -113q-12 -100 -117 -113q-101 12 -113 113zM115 683q8 -84 93 -92q88 8 96 92q-8 89 -96 97q-85 -8 -93 -97zM885 538l-20 -4q-64 198 -254 206q-250 -28 -270 -375q12 -351 270 -371q218 -4 270 230l20 -4q-60 -254 -290 -246
q-278 28 -290 391q24 363 290 395q202 -8 274 -222z" />
    <glyph glyph-name="uniE63C" unicode="&#xe63c;" 
d="M921 165h-163q-12 0 -20 -8t-8 -19t8 -19t20 -8h163q12 0 20 8t8 19t-8 19t-20 8zM703 602h218q12 0 20 8t8 19.5t-8 19.5t-20 8h-218q-11 0 -19 -8t-8 -19.5t8 -19.5t19 -8zM921 493h-218q-11 0 -19 -8t-8 -19.5t8 -19.5t19 -8h218q12 0 20 8t8 19.5t-8 19.5t-20 8z
M921 329h-163q-12 0 -20 -8t-8 -19t8 -19t20 -8h163q12 0 20 8t8 19t-8 19t-20 8zM613 348q-42 -59 -104 -93.5t-133.5 -34.5t-133.5 34.5t-104 93.5q-62 -49 -62 -128v-109q0 -68 47.5 -116t115.5 -48h273q68 0 116 48t48 116v109q0 79 -63 128zM375.5 275
q101.5 0 173.5 80t72 193t-72 193t-173.5 80t-173.5 -80t-72 -193t72 -193t173.5 -80z" />
    <glyph glyph-name="uniE63D" unicode="&#xe63d;" 
d="M959 100q3 -12 5 -31q3 -18 3 -36q0 -21 -3 -35q-3 -16 -8 -24q-4 -6 -22 -11q-17 -5 -43 -10q-15 -2 -58 -8q-28 -4 -63 -7q-19 -2 -62 -5q-33 -1 -52 -1t-52 1q-47 4 -60 5q-12 1 -32.5 3t-29.5 3q-27 3 -57 7q-29 5 -43 8q-17 4 -22 8q-7 6 -12 38q-4 33 3 81
q4 28 23 43q18 14 43 23q23 8 52 16q28 7 47 20q15 10 25 20q7 8 12 18q4 8 4 19q0 9 -1 22q-2 18 -12 29q-11 10 -24 20q-6 5 -11 15q-4 9 -8 20q-2 5 -8 24q-5 2 -10 6q-4 3 -10 10q-4 6 -9 20q-5 12 -3 24q1 11 4 18q4 9 10 16q-1 32 3 59q4 26 11 53q7 28 24 51
q15 22 32 35q18 13 37 21q19 7 38 10q20 3 36 3q45 0 82 -19q36 -19 53 -40q20 -25 29 -55q8 -25 14 -56q5 -30 3 -61q5 -4 9 -10q3 -6 5 -13q2 -10 0 -22q-2 -17 -7 -26q-6 -10 -11 -15q-6 -6 -14 -8q-5 -19 -7 -24q-5 -12 -9 -20q-6 -10 -12 -14q-5 -5 -13 -11
q-6 -5 -10.5 -9.5t-7.5 -10.5q-3 -7 -5 -16q-1 -13 -1 -23q1 -13 6 -24q5 -12 17 -22q13 -12 34 -19q19 -8 42 -14q22 -6 44 -14q20 -8 38 -21q17 -16 24 -34zM479 265q-2 -10 -4 -15q-3 -5 -13 -12q-24 -15 -50 -23q-29 -10 -52 -20q-24 -10 -43 -28t-23 -50q-2 -10 -2 -20
q-1 -11 -1 -17q-2 -2 -2 -3t-1 -2l-1 -1q-35 2 -71 6q-32 3 -66 8q-35 6 -51 9q-20 4 -26 9q-8 6 -12 37.5t3 81.5q4 28 23 43q21 16 44 23q28 10 51 16q26 7 48 20q14 9 25 19q8 9 12 19q3 9 3 19t-1 21q-1 18 -12 29q-9 9 -23 21q-7 5 -12 14q-4 9 -8 20q-2 5 -8 24
q-5 2 -10 6q-4 3 -10 10q-5 7 -9 20t-3 23q1 12 4 20q4 10 10 16q-1 28 3 58q3 24 11 52t25 50q15 22 32 35q18 14 37 21q18 8 37 11q20 3 37 3q44 0 80.5 -19t54.5 -41q12 -15 14 -28q4 -15 9 -30q-16 -10 -36 -30q-18 -17 -34 -39q-19 -26 -27 -55q-9 -28 -14 -57
q-4 -32 -4 -63q-8 -9 -11 -18q-3 -8 -5 -21q0 -11 4 -26q5 -16 10 -23q6 -9 10 -13q5 -5 10 -7q7 -24 8 -27q4 -12 8 -22q5 -11 12 -17t10 -9q2 -2 6 -7q2 -3 3 -8q-1 -3 1 -13z" />
    <glyph glyph-name="uniE63E" unicode="&#xe63e;" 
d="M960 -25h2v1q-1 -1 -2 -1v0zM599 261l-3 1l-2 33v76q5 4 13.5 10.5t23.5 27.5t18 42q2 1 8 1q15 2 30 25.5t22 46.5l8 23v4q0 3 -1 10t-3 12.5t-6 10t-10 4.5q-25 0 -28 -1l6 75v16v8q0 6 -3.5 22t-10 31t-20 33t-31.5 31t-48 22t-67 9q-144 -1 -154 -62q-2 -13 2 -23h1
q-36 -22 -36 -80q0 -80 10 -89l-24 8q-2 0 -4 -0.5t-7 -3t-8.5 -6t-6.5 -11.5t-2 -19q2 -30 22.5 -61.5t44.5 -34.5h7q0 -12 3 -23t7 -19t9.5 -15t10.5 -11.5t9.5 -7.5t6.5 -5l3 -1v-73l-65 -35l-192 -64q-3 -1 -8 -3t-17 -10.5t-21 -20t-16.5 -32.5t-7.5 -46l2 -111h533
q-49 62 -49 142q0 81 51 144v0zM778 302q-77 0 -131 -54t-54 -130t54 -130t130.5 -54t130.5 54t54 130t-54 130t-130 54v0zM896 152q-58 -57 -114 -115q0 -3 -8 -11q-11 -11 -18 -15q-11 -8 -21 -1q-7 3 -13 11q-12 12 -34.5 34t-35.5 35q-11 11 -12 20t2 13t11 12
q10 10 19 10.5t13 -2.5t12 -12q11 -10 25 -23l20 -21q13 13 47 49t63 64q11 11 20.5 13t13 -0.5t8.5 -7.5q28 -28 2 -53v0z" />
    <glyph glyph-name="uniE63F" unicode="&#xe63f;" 
d="M902 796h-780q-25 0 -42.5 -17t-17.5 -42v-618q0 -25 17.5 -42t42.5 -17h299l91 -88l90 88h300q25 0 42.5 17t17.5 42v618q0 25 -17.5 42t-42.5 17zM287 369q-25 0 -42.5 17.5t-17.5 42t17.5 41.5t42.5 17t42.5 -17t17.5 -41.5t-17.5 -42t-42.5 -17.5zM512 369
q-25 0 -42.5 17.5t-17.5 42t17.5 41.5t42.5 17t42.5 -17t17.5 -41.5t-17.5 -42t-42.5 -17.5zM752 369q-25 0 -42.5 17.5t-17.5 42t17.5 41.5t42.5 17t42.5 -17t17.5 -41.5t-17.5 -42t-42.5 -17.5z" />
    <glyph glyph-name="uniE640" unicode="&#xe640;" 
d="M536 384l227 227q5 5 5 12t-5 12t-12 5t-12 -5l-227 -227l-227 227q-5 5 -12 5t-12 -5t-5 -12t5 -12l227 -227l-227 -227q-5 -5 -5 -12t5 -12t12 -5t12 5l227 227l227 -227q5 -5 12 -5t12 5t5 12t-5 12z" />
    <glyph glyph-name="uniE641" unicode="&#xe641;" horiz-adv-x="1027" 
d="M702 654q0 14 -9.5 23.5t-23.5 9.5h-467q-14 0 -23.5 -9.5t-9.5 -23.5t9.5 -23.5t23.5 -9.5h467q14 0 23.5 9.5t9.5 23.5zM702 654zM1012 101l-138 89q13 35 13 72q0 90 -64 153.5t-154 63.5t-153.5 -63.5t-63.5 -153.5t63.5 -154t153.5 -64q52 0 97.5 23.5t76.5 63.5
l132 -86q9 -5 18 -5q18 0 28 15q8 11 5 24.5t-14 21.5zM669 111q-62 0 -106.5 44t-44.5 106.5t44.5 107t107 44.5t106.5 -44.5t44 -107t-44 -106.5t-107 -44zM669 111zM169 319q0 -13 9.5 -23t23.5 -10h207q3 35 15 67h-222q-14 0 -23.5 -10t-9.5 -24zM169 319zM627 520
h-425q-14 0 -23.5 -10t-9.5 -23.5t9.5 -23t23.5 -9.5h290q57 53 135 66zM627 520zM778 6q0 -25 -17.5 -43t-42.5 -18h-564q-25 0 -43 18t-18 43v756q0 25 18 43t43 18h564q25 0 42.5 -18t17.5 -43v-263q37 -16 67 -43v306q0 53 -37.5 90t-90.5 37h-563q-53 0 -90 -37
t-37 -90v-756q0 -53 37 -90t90 -37h564q52 0 89.5 37t37.5 90v62q-30 -27 -67 -44v-18zM778 6z" />
    <glyph glyph-name="uniE642" unicode="&#xe642;" 
d="M513 309l-388 386l-62 -61l450 -447l450 447l-61 61h-1z" />
    <glyph glyph-name="uniE643" unicode="&#xe643;" 
d="M595 298q-11 0 -20 -9t-9 -20t9 -20t20 -9q16 0 26.5 9t10.5 20.5t-10.5 20t-26.5 8.5zM755 298q-10 0 -19.5 -9t-9.5 -20t9.5 -20t19.5 -9q16 0 26.5 9t10.5 20.5t-10.5 20t-26.5 8.5zM297 510q-18 0 -31 -10.5t-13 -26t13 -26t31 -10.5q16 0 26 10t10 26.5t-10 26.5
t-26 10zM500 437q17 0 27 10t10 26.5t-10 26.5t-27 10t-30 -10.5t-13 -26t13 -26t30 -10.5zM511.5 809q-103.5 0 -198 -40.5t-163 -109t-109 -163t-40.5 -198t40.5 -198t109 -163t163 -109t198 -40.5t198 40.5t163 109t109 163t40.5 198t-40.5 198t-109 163t-163 109
t-198 40.5zM391 138q-28 0 -102 15l-102 -51l30 87q-117 82 -117 197q0 103 85.5 175t205.5 72q108 0 191.5 -58t102.5 -146q-15 2 -28 2q-103 0 -175.5 -67.5t-72.5 -163.5q0 -30 9 -61q-14 -1 -27 -1zM821 36l22 -73l-80 44q-59 -15 -88 -15q-103 0 -175 62t-72 149.5
t72 149.5t175 62q100 0 174 -62.5t74 -148.5q0 -92 -102 -168z" />
    <glyph glyph-name="uniE644" unicode="&#xe644;" 
d="M949 231q-2 36 -24 66.5t-56 45.5l-41 191q-11 53 -57 90t-99 37h-321q-53 0 -99 -37t-57 -90l-41 -191q-34 -15 -56 -45.5t-24 -66.5l-9 -123q-3 -39 17 -72t56 -47q8 -32 34 -52.5t60 -20.5q31 0 56 17.5t35 46.5h377q10 -29 35 -46.5t56 -17.5q34 0 60 20.5t35 52.5
q35 14 55 47t18 72zM855 36q-20 -4 -21 -25q-1 -17 -13.5 -29t-29.5 -12q-16 0 -28.5 11.5t-13.5 27.5q-1 11 -9 18t-18 7h-421q-10 0 -18 -7t-9 -18q-1 -16 -13.5 -27.5t-28.5 -11.5q-17 0 -29.5 12t-13.5 29q-1 21 -21 25q-23 6 -37 25t-12 43l9 123q2 24 18.5 43.5
t40.5 26.5q17 5 19 23v5l1 2l41 196q8 34 38.5 58.5t64.5 24.5h321q34 0 64.5 -24.5t38.5 -58.5l41 -196l1 -2v-5q2 -18 19 -23q24 -7 40.5 -26.5t18.5 -43.5l9 -123q2 -24 -12 -43t-37 -25zM301 317h421q16 0 24 10q9 11 7 26v2l-33 144q-4 17 -18.5 29.5t-31.5 12.5h-317
q-17 0 -31.5 -12.5t-18.5 -29.5l-33 -144v-2q-2 -15 6 -25q9 -11 25 -11zM357 486h309l27 -114h-363zM268 224q-26 0 -44 -18.5t-18 -44t18 -43.5t44 -18t44 18t18 43.5t-18 44t-44 18.5zM755.5 224q-25.5 0 -44 -18.5t-18.5 -44t18.5 -43.5t44 -18t43.5 18t18 43.5t-18 44
t-43.5 18.5z" />
    <glyph glyph-name="uniE645" unicode="&#xe645;" 
d="M935 -60h-122q-8 0 -14 6t-6 14t6 14t14 6h102v102q0 8 6 14t14 6t14 -6t6 -14v-122q0 -8 -6 -14t-14 -6zM935 183q-8 0 -14 6t-6 14v122q0 9 6 14.5t14 5.5t14 -5.5t6 -14.5v-122q0 -8 -6 -14t-14 -6zM935 427q-8 0 -14 6t-6 14v122q0 8 6 14t14 6t14 -6t6 -14v-122
q0 -8 -6 -14t-14 -6zM935 670q-8 0 -14 6t-6 14v102h-102q-8 0 -14 6t-6 14t6 14t14 6h122q8 0 14 -6t6 -14v-122q0 -8 -6 -14t-14 -6zM692 -60h-122q-9 0 -14.5 6t-5.5 14t5.5 14t14.5 6h122q8 0 14 -6t6 -14t-6 -14t-14 -6zM692 792h-122q-9 0 -14.5 6t-5.5 14t5.5 14
t14.5 6h122q8 0 14 -6t6 -14t-6 -14t-14 -6zM669 427q16 0 28 -12t12 -29t-12 -29t-28 -12h-122v-121q0 -17 -12 -29t-28.5 -12t-28.5 12t-12 29v121h-122q-17 0 -28.5 12t-11.5 29t11.5 29t28.5 12h122v121q0 17 12 29t28.5 12t28.5 -12t12 -29v-121h122zM448 792h-122
q-8 0 -14 6t-6 14t6 14t14 6h122q8 0 14 -6t6 -14t-6 -14t-14 -6zM205 -60h-122q-8 0 -14 6t-6 14v122q0 8 6 14t14 6t14 -6t6 -14v-102h102q8 0 14 -6t6 -14t-6 -14t-14 -6zM205 792h-102v-102q0 -8 -6 -14t-14 -6t-14 6t-6 14v122q0 8 6 14t14 6h122q8 0 14 -6t6 -14
t-6 -14t-14 -6zM83 589q8 0 14 -6t6 -14v-122q0 -8 -6 -14t-14 -6t-14 6t-6 14v122q0 8 6 14t14 6zM83 345q8 0 14 -5.5t6 -14.5v-122q0 -8 -6 -14t-14 -6t-14 6t-6 14v122q0 9 6 14.5t14 5.5zM326 -20h122q8 0 14 -6t6 -14t-6 -14t-14 -6h-122q-8 0 -14 6t-6 14t6 14t14 6z
" />
    <glyph glyph-name="uniE646" unicode="&#xe646;" 
d="M920 449l-331 344q-31 33 -77 33t-77 -33l-331 -344q-16 -17 -22.5 -34t-6 -27t4.5 -19q15 -34 56 -34h49v-265q0 -46 30 -81t74 -35h141v280v12v10q0 3 0.5 8.5t2.5 7.5t5 4.5t7.5 3.5t10.5 1h112q6 0 10.5 -1t7.5 -3.5t5 -4.5t2.5 -7.5t0.5 -8.5v-10v-12v-280h141
q44 0 74 35t30 81v265h49q41 0 56 34q17 38 -24 80z" />
    <glyph glyph-name="uniE647" unicode="&#xe647;" 
d="M64 748v-896h896v896h-896zM896 -84h-768v768h768v-768zM224 332h576v-64h-576v64zM544 588v-576h-64v576h64z" />
    <glyph glyph-name="uniE649" unicode="&#xe649;" 
d="M640 -148h289l-1 33q0 2 -1 9t-5.5 23t-12.5 31.5t-25.5 33.5t-40 31t-59.5 22t-82 9h-62h-192h-342q36 64 152 64h612l-6 38q-7 42 -16 86.5t-25 113t-36 126.5t-44.5 112.5t-55.5 87t-65 35.5q-50 3 -93 -53.5t-82 -179.5l-30 -85q-74 167 -158 167h-1
q-55 0 -101 -63.5t-89 -193.5l61 -24q18 56 36.5 97.5t32 63.5t27 35.5t20.5 17t13 3.5q22 0 49 -36t47.5 -81.5t33.5 -90.5l29 -103l91 269q17 54 34 93t29 57.5t23 28.5t15.5 11.5t7.5 0.5q42 -3 93 -145t84 -324h-536q-45 0 -82 -9t-59.5 -22t-40 -31t-25.5 -33.5
t-12.5 -31.5t-5.5 -23t-1 -9l-1 -33h417h192h62q118 0 152 -64h-214v-64z" />
    <glyph glyph-name="uniE64A" unicode="&#xe64a;" 
d="M765 452q-42 75 -116 118t-160 43q-118 0 -208 -78q-80 -70 -102 -174q-62 -18 -101 -70t-39 -117q0 -72 47.5 -127.5t117.5 -66.5h544q97 0 166.5 69.5t69.5 166.5q0 93 -63.5 161t-155.5 75zM748 34h-515h-2q-57 1 -97 42t-40 98q0 51 32 89.5t82 48.5l19 3l3 19
q14 96 88 160.5t171 64.5q65 0 121 -29.5t93 -81.5q-91 -17 -145 -91q-7 -9 -5.5 -20t10.5 -17.5t20.5 -5t17.5 10.5q26 35 64.5 54t82.5 19q75 0 128.5 -53t53.5 -128.5t-53.5 -129t-128.5 -53.5z" />
    <glyph glyph-name="uniE64B" unicode="&#xe64b;" 
d="M535 887q-10 9 -23 9t-23 -9q-11 -11 -28 -27.5t-59 -61t-80.5 -88.5t-84 -104t-78 -113.5t-54.5 -110.5t-22 -102q0 -111 57.5 -205t156.5 -148.5t215 -54.5t215 54.5t156.5 148.5t57.5 205q0 45 -22 102t-54.5 110.5t-78 113.5t-84 104t-80.5 88.5t-59 61t-28 27.5z
M512 -66q-99 0 -183 46t-133 126t-49 174q0 53 39 129.5t100 155t117 141.5t109 115q53 -52 109 -115t117 -141.5t100 -155t39 -129.5q0 -94 -49 -174t-133 -126t-183 -46zM761 296q-14 2 -24.5 -6t-11.5 -21q-9 -73 -58.5 -129t-123.5 -77q-13 -3 -19.5 -14.5t-2.5 -23.5
q7 -22 31 -22q5 0 10 1q92 26 154 96.5t73 161.5q2 13 -6.5 23t-21.5 11zM761 296z" />
    <glyph glyph-name="uniE64C" unicode="&#xe64c;" 
d="M647 441h-419q-6 0 -10.5 -4.5t-4.5 -10.5t4.5 -10.5t10.5 -4.5h419q6 0 10.5 4.5t4.5 10.5t-4.5 10.5t-10.5 4.5zM585 299h-295q-6 0 -10.5 -4.5t-4.5 -11t4.5 -11t10.5 -4.5h295q7 0 11 4.5t4 11t-4 11t-11 4.5zM884 755h-595q-29 0 -49.5 -20t-20.5 -49v-37
q0 -10 6.5 -16.5t16 -6.5t16.5 6.5t7 16.5v37q0 10 7 16.5t17 6.5h595q10 0 17 -6.5t7 -16.5v-365q0 -9 -7 -16t-17 -7h-36q-10 0 -16.5 -6.5t-6.5 -16t6.5 -16t16.5 -6.5h36q29 0 49.5 20t20.5 48v365q0 29 -20.5 49t-49.5 20zM735 606h-595q-29 0 -49.5 -20t-20.5 -49
v-365q0 -28 20.5 -48t49.5 -20h195l84 -126q6 -10 18.5 -10t19.5 10l83 126h195q26 0 45 16q25 21 25 52v365q0 29 -20.5 49t-49.5 20zM759 172q0 -10 -8 -17q-7 -6 -16 -6h-207q-12 0 -19 -10l-71 -107l-72 107q-6 10 -19 10h-207q-10 0 -17 7t-7 16v365q0 10 7 16.5
t17 6.5h595q10 0 17 -6.5t7 -16.5v-365z" />
    <glyph glyph-name="uniE64D" unicode="&#xe64d;" 
d="M952.5 -26q-16.5 0 -28.5 11.5t-12 28.5v4v1q-1 82 -44.5 149t-114.5 101q-6 4 -10.5 5t-7 2.5t-7.5 6.5q-23 0 -39 16.5t-16 39.5l-1 6q0 2 1 5t1 4v3l1 2l1 5q9 24 33 33l4 4q87 52 87 127q0 56 -38.5 105t-91.5 63q-4 2 -7 2t-13 1q-37 9 -37 38l-1 4q0 15 10.5 26
t25.5 12l1 1q94 -7 159 -76.5t65 -164.5q0 -57 -24.5 -106t-66.5 -83q0 -1 0.5 -2.5t0.5 -2.5v-1q92 -44 149 -130.5t59 -192.5l1 -1v-2v-4q0 -17 -11.5 -28.5t-28 -11.5zM539 347q94 -43 152.5 -130.5t60.5 -195.5v-1v-2l1 -4q0 -17 -12 -28.5t-28.5 -11.5t-28 11.5
t-11.5 28.5v4v0q-2 113 -79.5 193.5t-188.5 85.5q-2 -1 -6 -1.5t-6 -0.5t-6 0.5t-6 1.5q-112 -5 -190 -87t-78 -196h-1q0 -17 -11.5 -28.5t-28 -11.5t-28.5 11.5t-12 28.5v4l2 8q3 106 61 192.5t152 128.5q-112 88 -112 181q0 66 36.5 125t96.5 94t125 35q100 0 170 -71.5
t70 -171.5q0 -58 -25 -108t-69 -84zM392.5 701q-66.5 0 -113.5 -47.5t-47 -114.5t47 -114.5t113.5 -47.5t113 47.5t46.5 114.5t-46.5 114.5t-113 47.5z" />
    <glyph glyph-name="uniE64E" unicode="&#xe64e;" 
d="M512 803q-114 0 -210.5 -56t-152.5 -152.5t-56 -210.5t56 -210.5t152.5 -152.5t210.5 -56t210.5 56t152.5 152.5t56 210.5t-56 210.5t-152.5 152.5t-210.5 56zM512.5 61q-87.5 0 -162 43.5t-118 117.5t-43.5 161.5t43.5 162t118 118t162 43.5t161.5 -43.5t117.5 -118
t43.5 -162t-43.5 -161.5t-117.5 -117.5t-161.5 -43.5zM330 202l251 114l114 251l-251 -115zM558 338l-183 -91l91 183z" />
    <glyph glyph-name="uniE64F" unicode="&#xe64f;" 
d="M512.5 748q-91.5 0 -169 -45t-122.5 -122.5t-45 -168.5q0 -52 34.5 -128.5t84 -149.5t99 -137.5t84 -105t34.5 -39.5q14 16 36.5 42t80.5 100.5t102.5 141.5t81 145.5t36.5 130.5q0 91 -45 168.5t-122.5 122.5t-169 45zM714 412.5q0 -83.5 -59 -142.5t-142.5 -59t-143 59
t-59.5 142.5t59.5 142.5t143 59t142.5 -59t59 -142.5z" />
    <glyph glyph-name="uniE650" unicode="&#xe650;" 
d="M658 773h-389q-40 0 -68.5 -28.5t-28.5 -68.5v-584q0 -40 28.5 -68.5t68.5 -28.5h486q40 0 68.5 28.5t28.5 68.5v487zM804 92q0 -20 -14.5 -34t-34.5 -14h-486q-20 0 -34.5 14t-14.5 34v584q0 20 14.5 34t34.5 14h315l1 -145q0 -38 26.5 -55.5t70.5 -17.5h122v-414z
M682 554q-20 0 -34 14.5t-14 34.5v121l170 -170h-122zM658 360h-292q-10 0 -17 -7.5t-7 -17.5t7 -17t17 -7h292q10 0 17 7t7 17t-7 17.5t-17 7.5zM658 238h-292q-10 0 -17 -7t-7 -17t7 -17.5t17 -7.5h292q10 0 17 7.5t7 17.5t-7 17t-17 7z" />
    <glyph glyph-name="uniE651" unicode="&#xe651;" 
d="M790 571q0 81 -57.5 138.5t-138.5 57.5q-83 0 -141 -57t-58 -139q0 -72 45 -127.5t112 -67.5v-352q-35 -5 -57 -15t-22 -23q0 -17 35 -28.5t85 -11.5q49 0 84 11.5t35 28.5q0 13 -22 23t-57 15v352q68 12 112.5 67.5t44.5 127.5zM533 571q-24 0 -41.5 17.5t-17.5 41.5
t17.5 42t41.5 18t42.5 -18t18.5 -42t-18.5 -41.5t-42.5 -17.5z" />
    <glyph glyph-name="uniE652" unicode="&#xe652;" 
d="M905 595q-33 6 -70.5 19t-60.5 23t-65.5 30t-56.5 26q-10 5 -40.5 22.5t-55 25t-56.5 7.5q-24 -2 -48 -13q-33 -14 -97 -47.5t-120.5 -57t-115.5 -35.5q0 -94 12 -176t31.5 -145t50.5 -119.5t62 -96.5t75 -80t80 -66.5t84 -58.5q180 98 286 290.5t105 451.5zM513 -39
q-90 45 -160.5 136t-109 209.5t-36.5 242.5q56 10 119.5 38t111 50.5t74.5 22.5q33 0 82 -23.5t109 -51.5t113 -36q2 -98 -22 -192t-66.5 -169.5t-97.5 -134t-117 -92.5zM469 529v-261h87v261h-87zM469 158h87v65h-87v-65zM469 158z" />
    <glyph glyph-name="uniE653" unicode="&#xe653;" 
d="M916 345h-358v358q0 18 -13 31.5t-31.5 13.5t-32 -13.5t-13.5 -31.5v-358h-358q-18 0 -31 -13t-13 -32t13 -32t31 -13h358v-358q0 -18 13.5 -31.5t32 -13.5t31.5 13.5t13 31.5v358h358q19 0 32 13t13 32t-13 32t-32 13zM916 345z" />
    <glyph glyph-name="uniE654" unicode="&#xe654;" 
d="M409 656h-56v56q0 23 -16.5 39.5t-40 16.5t-40 -16.5t-16.5 -39.5v-56h-56q-23 0 -39.5 -16.5t-16.5 -40t16.5 -40t39.5 -16.5h56v-56q0 -23 16.5 -39.5t40 -16.5t40 16.5t16.5 39.5v56h56q23 0 39.5 16.5t16.5 40t-16.5 40t-39.5 16.5zM634 543h225q23 0 39.5 16.5
t16.5 40t-16.5 40t-39.5 16.5h-225q-23 0 -39.5 -16.5t-16.5 -40t16.5 -40t39.5 -16.5zM409 318h-225q-23 0 -39.5 -16.5t-16.5 -39.5t16.5 -39.5t39.5 -16.5h225q23 0 39.5 16.5t16.5 39.5t-16.5 39.5t-39.5 16.5zM409 93h-225q-23 0 -39.5 -16.5t-16.5 -39.5t16.5 -39.5
t39.5 -16.5h225q23 0 39.5 16.5t16.5 39.5t-16.5 39.5t-39.5 16.5zM915 262q0 23 -16.5 39.5t-39.5 16.5t-40 -16l-73 -73l-72 73q-17 16 -40 16t-39.5 -16.5t-16.5 -39.5t16 -40l73 -72l-73 -73q-16 -16 -16 -39.5t16.5 -40t39.5 -16.5t40 16l72 73l73 -73q17 -16 40 -16
t39.5 16.5t16.5 39.5t-16 40l-73 73l73 72q16 17 16 40z" />
    <glyph glyph-name="uniE655" unicode="&#xe655;" horiz-adv-x="1098" 
d="M330 329q-2 -1 -2 -3l-53 -195q-5 -18 8 -32q10 -9 24 -9q4 0 8 1l194 53h1v-1q3 0 6 3l518 518q24 24 24 59q0 41 -31 71l-48 49q-31 30 -71 30q-36 0 -60 -24l-518 -518v-1v-1zM983 714l-51 -51l-84 85l51 50q6 6 16 5.5t17 -7.5l49 -49q8 -8 8 -19q0 -8 -6 -14z
M422 321l374 374l83 -85l-373 -373zM354 170l27 99l72 -72zM1016 509q-15 0 -25.5 -10.5t-10.5 -25.5v-483q0 -19 -13.5 -32t-32.5 -13h-817q-19 0 -32.5 13t-13.5 32v789q0 19 13.5 32.5t32.5 13.5h527q14 0 24.5 10t10.5 25t-10.5 25.5t-24.5 10.5h-532q-46 0 -79 -33
t-33 -79v-799q0 -46 33 -79t79 -33h828q46 0 79 33t33 79v489q0 14 -10.5 24.5t-25.5 10.5z" />
    <glyph glyph-name="uniE656" unicode="&#xe656;" 
d="M514 795q-103 0 -197 -40t-162 -108t-108 -162t-40 -197t40 -197t108 -162t162 -108t197 -40t197 40t162 108t108 162t40 197t-40 197t-108 162t-162 108t-197 40zM813 -71q-16 8 -85 27t-83 28q-20 12 -20 121l20 18q6 47 14.5 63.5t19 42t15.5 42.5l6 17q20 15 20 41
q0 11 -5 21t-10 15l-5 4q8 72 8 122q0 78 -48 120t-136 42q-94 0 -149.5 -40t-55.5 -122q0 -22 4 -52.5t8 -49.5l4 -20q-20 -15 -20 -40q0 -12 5 -22t10 -15l5 -4q24 -74 40 -101q5 -8 8.5 -23.5t4.5 -28.5l1 -12l21 -18q1 -11 1.5 -28.5t-4 -51t-18.5 -41.5
q-14 -9 -85 -28.5t-85 -27.5q6 -6 22.5 -18t62 -36t92.5 -37q-152 40 -250.5 165t-98.5 286q0 95 37 181.5t99.5 149t149 99.5t181.5 37t181.5 -37t149 -99.5t99.5 -149t37 -181.5q0 -106 -45 -199.5t-123 -159.5zM435 -171q-16 2 -34 7q9 -3 34 -7z" />
    <glyph glyph-name="uniE657" unicode="&#xe657;" 
d="M938 256q6 11 7 22.5t-4 23t-9.5 19t-12.5 18.5t-11 15q1 9 9.5 24.5t12.5 27.5t-1 38q-6 21 -26.5 34t-46 18t-61.5 5.5t-65 -1.5t-65 -4.5t-52 -2.5v1q95 136 65 250q-6 20 -9 28.5t-10.5 22.5t-19.5 19.5t-29 5.5q-5 -3 -10 -4q-2 -14 -5 -26.5t-9.5 -26.5
t-10.5 -22.5t-14 -23.5l-13 -19q-3 -5 -15.5 -22t-13.5 -18q-14 -29 -23 -45q-19 -35 -82 -80q-8 -6 -42 -26t-60.5 -38t-31.5 -29q-2 -4 -3 -9.5t-1.5 -9.5t0.5 -11l2 -10q0 -4 1.5 -12t2.5 -10q0 -9 5.5 -63t8.5 -82q0 -25 0.5 -71.5t1.5 -65.5q0 -5 -0.5 -17t-0.5 -18.5
t1 -14.5t4 -12q6 -9 31 -15.5t56.5 -12t40.5 -8.5q19 -6 49 -26t49 -26q38 -12 120 -12t124 8q11 2 33 4t36 5t26 10q16 9 26 29.5t3 43.5q0 1 -8.5 14.5t-5.5 24.5q2 12 22.5 25.5t24.5 23.5q9 29 2 43t-18.5 28.5t-9.5 24.5t16.5 21.5t18.5 16.5zM249 367l-3 24
q-2 16 -4 26t-6.5 21t-10.5 17q-12 10 -54 17.5t-72 9.5l-7 -8q-5 -4 -8.5 -8.5t-5.5 -9.5q-11 -28 2 -103q6 -36 15.5 -118.5t17.5 -124.5q2 -6 4.5 -32t6.5 -44t11 -24q15 -12 58 -12.5t63 6.5q5 8 7.5 24t3 28t-0.5 36t-1 28q-2 172 -16 247zM249 367z" />
    <glyph glyph-name="uniE658" unicode="&#xe658;" 
d="M892 127v1v-1zM756 738q-9 6 -16 6q-11 0 -19 -8.5t-8 -19.5q0 -17 15 -25q77 -46 122 -125.5t45 -173.5t-45 -173.5t-121 -124.5q-17 -10 -17 -26q0 -12 8 -20t19 -8q7 0 17 5q88 54 140.5 146t52.5 201t-52.5 201t-140.5 145v0zM788 392q0 64 -31 118t-83 85
q-9 5 -15 5q-12 0 -20 -8.5t-8 -19.5q0 -17 14 -25q40 -23 64 -64.5t24 -90.5q0 -50 -25 -92t-66 -65q-13 -8 -13 -24q0 -12 8 -20t19 -8l15 4q53 30 85 85t32 120v0zM543 812q-19 9 -35 -4q-36 -30 -103 -81q-99 -75 -126 -84h-116h-2h-60q-11 0 -19 -8t-8 -20v-447
q0 -11 8 -19t19 -8h200q25 -10 114 -84q9 -8 19.5 -17t19 -16.5t17 -14.5t14.5 -13t11 -10t8 -6l2 -3q10 -9 22 -9q7 0 14 3q19 9 19 31v144q2 4 2 8q0 1 -0.5 36t-0.5 90v122v134q0 66 -0.5 121t-0.5 89v35q0 22 -18 31v0zM508 159v-3v-10v-14q0 -8 -0.5 -16.5t-0.5 -17.5
v-16v-12v-10v-3q-26 22 -47 40q-75 62 -107 81t-50 19h-1v0h-1h-150q-14 0 -18.5 5t-4.5 20v343q0 11 3 16t14 5h135q17 0 51 19t116 80q28 22 60 47q1 -483 1 -566q-1 -1 0 -4v-3v0zM508 159z" />
    <glyph glyph-name="uniE659" unicode="&#xe659;" horiz-adv-x="1078" 
d="M1060 424l-199 -170q-20 -20 -15 -47l47 -274q6 -33 -18 -50q-15 -11 -34 -11q-14 0 -27 7l-251 135q-24 13 -49 0l-240 -135q-32 -17 -61 4q-33 24 -28 50l57 279q5 28 -15 47l-210 165q-25 25 -14 59q5 16 17.5 26.5t28.5 13.5l273 47q27 4 40 29l125 265q16 32 52 32
t52 -32l120 -265q12 -25 40 -29l277 -47q16 -3 29 -13.5t18 -26.5q11 -34 -15 -59z" />
    <glyph glyph-name="uniE65A" unicode="&#xe65a;" 
d="M512 384zM352 383.5q0 66.5 47 113.5t113.5 47t113 -47t46.5 -113.5t-46.5 -113t-113 -46.5t-113.5 46.5t-47 113z" />
    <glyph glyph-name="uniE65B" unicode="&#xe65b;" 
d="M330 383.5q0 -75.5 53.5 -128.5t129 -53t128.5 53t53 128.5t-53 129t-128.5 53.5t-129 -53.5t-53.5 -129z" />
    <glyph glyph-name="uniE65C" unicode="&#xe65c;" 
d="M908 766h-356q0 17 -12 28.5t-28 11.5t-28 -11.5t-12 -28.5h-356q-10 0 -18 -7.5t-8 -18.5t8 -18.5t18 -7.5h33v-560q0 -22 15.5 -37.5t37.5 -15.5h633q22 0 37.5 15.5t15.5 37.5v560h20q10 0 18 7.5t8 18.5t-8 18.5t-18 7.5zM848 154q0 -6 -4 -10t-9 -4h-633q-5 0 -9 4
t-4 10v560h659v-560zM423 134q-8 0 -14 -6l-158 -132q-6 -6 -6 -14t5.5 -14t14 -6t14.5 6l158 132q6 6 6 14t-6 14t-14 6zM601 134q-8 0 -14 -6t-6 -14t6 -14l158 -132q6 -6 14.5 -6t14 6t5.5 14t-6 14l-158 132q-6 6 -14 6zM550 597h224q8 0 14 5.5t6 14t-6 14t-14 5.5
h-224q-9 0 -14.5 -5.5t-5.5 -14t5.5 -14t14.5 -5.5zM774 515h-224q-9 0 -14.5 -6t-5.5 -14t5.5 -14t14.5 -6h224q8 0 14 6t6 14t-6 14t-14 6zM774 393h-224q-9 0 -14.5 -5.5t-5.5 -14t5.5 -14t14.5 -5.5h224q8 0 14 5.5t6 14t-6 14t-14 5.5zM364 356q52 0 88.5 36.5
t36.5 87.5q0 50 -34 86t-83 39v-133h-133q4 -49 40 -82.5t85 -33.5zM358 623q-55 0 -94 -39t-39 -94h133v133zM774 272h-528q-8 0 -13.5 -6t-5.5 -14t5.5 -14t13.5 -6h528q8 0 14 6t6 14t-6 14t-14 6z" />
    <glyph glyph-name="uniE65D" unicode="&#xe65d;" 
d="M679 302l-109 -108q-7 -6 -7 -15t6.5 -15.5t15.5 -6.5t16 6l1 1v1l97 97l21 -20q15 -7 25 4q7 6 7 15.5t-7 15.5v0l-15 15q-3 4 -5 5q-9 10 -22.5 11t-23.5 -6zM766 194l10 -10q7 -6 16 -6t15.5 6t6.5 15.5t-7 15.5v0l-10 10v0q-7 7 -16 7t-15.5 -6.5t-6.5 -15.5t7 -16z
M835 818h-644q-48 0 -82.5 -34t-34.5 -83v-643q0 -49 34.5 -83t82.5 -34h644q48 0 82.5 34t34.5 83v643q0 49 -34.5 83t-82.5 34zM893 58q0 -25 -17 -42t-41 -17h-644q-24 0 -41 17t-17 42v69l155 149q7 6 14 0l120 -98q23 -16 30 -16q16 0 31 14l217 218h2l1 -1h1h1
l188 -202v-133zM893 277l-156 167q-10 22 -34 22q-20 0 -31 -18l-214 -214q-4 -3 -6 -3t-7 3l-121 100q-11 14 -29 14q-9 0 -17 -4l-6 -4q-2 -1 -5 -4l-134 -129v494q0 24 17 41.5t41 17.5h644q24 0 41 -17.5t17 -41.5v-424zM337.5 672q-36.5 0 -62 -25.5t-25.5 -62
t25.5 -62.5t62 -26t62 26t25.5 62.5t-25.5 62t-62 25.5zM337.5 555q-12.5 0 -21 8.5t-8.5 20.5t8.5 20.5t21 8.5t21 -8.5t8.5 -20.5t-8.5 -20.5t-21 -8.5z" />
    <glyph glyph-name="uniE65E" unicode="&#xe65e;" 
d="M779 -66h-530q-44 0 -75 31t-31 75v635q0 44 31 75t75 31h53v27q0 11 8 18.5t18 7.5h371q11 0 19 -7.5t8 -18.5v-27h53q43 0 74 -31t31 -75v-635q0 -44 -31 -75t-74 -31v0zM831 675q0 22 -15.5 37.5t-36.5 15.5h-530q-22 0 -37.5 -15.5t-15.5 -37.5v-635
q0 -22 15.5 -37.5t37.5 -15.5h530q21 0 36.5 15.5t15.5 37.5v635zM302 146h424v-53h-424v53zM302 305h424v-53h-424v53zM302 463h424v-53h-424v53zM302 622h424v-53h-424v53z" />
    <glyph glyph-name="uniE65F" unicode="&#xe65f;" 
d="M724 592q-34 69 -98.5 110.5t-143.5 41.5q-107 0 -184.5 -73t-83.5 -177q-80 -23 -131 -86.5t-51 -143.5q0 -95 70 -164.5t170 -75.5h420q120 0 210 84t90 201q0 114 -78 196t-190 87zM692 84h-420q-7 1 -19.5 3t-43.5 14t-55 29.5t-43 53t-19 80.5q0 69 53 122.5
t127 57.5q0 98 58 169t152 71q75 0 126 -41t70 -109q54 2 102 -16.5t80 -49.5t51 -68.5t21 -75.5q4 -94 -75 -167t-165 -73z" />
    <glyph glyph-name="uniE660" unicode="&#xe660;" 
d="M498 174q5 -7 14 -7t14 7l157 234q29 46 29 100q0 79 -58.5 135.5t-141.5 56.5t-141.5 -56.5t-58.5 -135.5q0 -54 29 -101zM512 600q41 0 70.5 -29.5t29.5 -70.5t-29.5 -70.5t-70.5 -29.5t-70.5 29.5t-29.5 70.5t29.5 70.5t70.5 29.5zM152 353v-453l213 27v349l-64 96z
M512 113q-37 0 -58 31l-49 72v-289l214 -27v316l-49 -72q-21 -31 -58 -31zM715 360l-56 -84v-376l213 27v453z" />
    <glyph glyph-name="uniE661" unicode="&#xe661;" 
d="M911 -115q0 -15 -11 -25.5t-26 -10.5t-25.5 10.5t-10.5 25.5v3v4q-17 120 -108.5 198t-215.5 80h-2h-2h-2h-2q-123 -2 -214 -78.5t-110 -193.5q2 -5 2 -10v-3q0 -15 -10.5 -26t-26 -11t-26 11t-10.5 26h-1v2v1q0 4 1 9q14 109 82 193t169 123q-59 38 -94 101t-35 137
q0 117 80.5 199.5t196.5 82.5t196 -82.5t80 -199.5q0 -74 -34.5 -137t-93.5 -101q100 -39 167.5 -122t82.5 -191q2 -6 2 -12zM723 451q0 88 -62.5 150.5t-150.5 62.5t-150.5 -62.5t-62.5 -150.5t62.5 -150.5t150.5 -62.5t150.5 62.5t62.5 150.5zM723 451z" />
    <glyph glyph-name="uniE662" unicode="&#xe662;" 
d="M861 768h-698q-48 0 -82 -34.5t-34 -82.5v-558q0 -48 34 -82.5t82 -34.5h698q48 0 82 34.5t34 82.5v558q0 48 -34 82.5t-82 34.5zM931 93q0 -29 -20.5 -49.5t-49.5 -20.5h-698q-29 0 -49.5 20.5t-20.5 49.5v558q0 29 20.5 49.5t49.5 20.5h698q29 0 49.5 -20.5t20.5 -49.5
v-558zM186 186h256v46h-256v-46zM186 349h256v46h-256v-46zM186 512h256v46h-256v-46zM749 353q42 35 42 89q0 48 -34 82t-82 34t-82 -34t-34 -82q0 -54 41 -89q-40 -21 -64 -59.5t-24 -84.5q0 -10 7 -16.5t16.5 -6.5t16.5 6.5t7 16.5q0 48 34 82t82 34t82 -34t34 -82
q0 -10 7 -16.5t16.5 -6.5t16.5 6.5t7 16.5q0 46 -24.5 84.5t-64.5 59.5zM675 372q-29 0 -49.5 20.5t-20.5 49.5t20.5 49.5t49.5 20.5t49.5 -20.5t20.5 -49.5t-20.5 -49.5t-49.5 -20.5z" />
    <glyph glyph-name="uniE663" unicode="&#xe663;" 
d="M623 764v-67h311v-44h-311v-70h311v-43h-311v-69h311v-43h-311v-69h311v-43h-311v-69h311v-43h-311v-69h311v-43h-311v-90h400v762h-400zM309 467q-20 15 -41.5 48.5t-35.5 45.5q-11 -28 -30 -78t-29 -77q25 7 46 13.5t31.5 10t33.5 12.5t33 13l-4 6zM1 786v-530v-275
l576 -109v350v672zM182.5 110q-4.5 -10 -12 -15.5t-14.5 -6.5q-11 -1 -30 2l-17 2v-62l-27 4v163l43 -4q26 -2 34 -5q12 -5 20 -18.5t8 -33.5q0 -16 -4.5 -26zM337 44q-6 -19 -17 -29q-9 -8 -23 -11q-10 -2 -28 1l-57 9v172l55 -5q20 -1 30 -6q14 -5 24.5 -18t15.5 -31
t5 -44q0 -22 -5 -38zM492 130l-86 8v-44l74 -8v-33l-74 10v-80l-35 6v184l121 -11v-32zM43 293q15 49 77 79q-7 -11 -23 -27.5t-26 -32.5t-14 -39q37 23 94 137t65 178q4 26 -5 85t-2 94q6 14 15 17q20 8 27 -6q13 -22 11 -42q-1 -11 -4 -11q-2 0 -4 6q-2 18 -5 25.5
t-10 15.5q-4 4 -11 -2q-14 -35 7 -133q2 -5 6 5q9 40 13 50q-10 -30 -6 -66t16.5 -68.5t36.5 -57.5t53 -33q22 -4 47.5 -2t48 6t43.5 -4.5t34 -32.5q-54 14 -139 11q-4 -2 -1 -4q5 -3 9 -4q29 -14 71 -18.5t55 -8.5q2 -13 -9 -15q-36 -7 -74 2t-69 23.5t-33 14.5
q-31 -9 -89 -23.5t-86 -22.5q-29 -72 -85 -130q-22 -14 -36 14q-2 7 2 20zM142 162q-5 2 -20 4l-13 1v-47l15 -2q16 -2 21.5 0t9 7.5t3.5 12.5q0 10 -4.5 16t-11.5 8zM296 138.5q-6 6.5 -15 9.5q-6 3 -25 5l-14 1v-116l23 -3q13 -2 19 -1q8 1 13 5.5t8 16t3 32.5t-3 32.5
t-9 18z" />
  </font>
</defs>
</svg>
