<?xml version="1.0" standalone="no"?>
<!DOCTYPE svg PUBLIC "-//W3C//DTD SVG 1.1//EN" "http://www.w3.org/Graphics/SVG/1.1/DTD/svg11.dtd" >
<!--
2013-9-30: Created.
-->
<svg>
<metadata>
Created by iconfont
</metadata>
<defs>

<font id="fontFamily" horiz-adv-x="1024" >
  <font-face
    font-family="fontFamily"
    font-weight="500"
    font-stretch="normal"
    units-per-em="1024"
    ascent="896"
    descent="-128"
  />
    <missing-glyph />
    
    <glyph glyph-name="cipan" unicode="&#59495;" d="M895.734 427.975c0 13.323-3.331 27.981-9.993 43.974-6.661 15.992-14.657 28.653-23.988 37.983L721.799 649.886c-9.33 9.33-21.991 17.326-37.983 23.988-15.992 6.662-30.65 9.993-43.974 9.993L176.004 683.867c-13.324 0-24.651-4.665-33.981-13.996-9.33-9.33-13.996-20.657-13.996-33.981l0-671.781c0-13.323 4.666-24.65 13.996-33.981 9.33-9.33 20.657-13.995 33.981-13.995l671.781 0c13.324 0 24.651 4.665 33.981 13.995 9.33 9.331 13.995 20.658 13.995 33.981L895.761 427.946 895.734 427.975zM448 620l128.002 0 0-192L448 428 448 620zM703.801-19.908 319.934-19.908 319.934 172.025l383.867 0L703.801-19.908zM831.775-19.908l-63.987 0 0 0.028L767.788 188.064c0 13.323-4.665 24.65-13.996 33.98-9.33 9.331-20.657 13.996-33.98 13.996l-415.86 0c-13.324 0-24.651-4.665-33.981-13.996-9.33-9.33-13.996-20.657-13.996-33.98L255.975-19.88l-63.987 0L191.988 619.908l63.987 0 0-207.944c0-13.324 4.666-24.651 13.996-33.981 9.331-9.33 20.657-13.995 33.981-13.995l287.914 0c13.323 0 24.65 4.665 33.98 13.995s13.996 20.657 13.996 33.981L639.842 619.908c5.001-0.019 11.494-1.688 19.481-5.01 7.986-3.321 13.65-6.652 16.99-9.993l140.458-140.458c3.322-3.321 6.652-9.069 9.993-17.242 3.34-8.173 5.011-14.593 5.011-19.258L831.775-19.908z"  horiz-adv-x="1024" />

    
    <glyph glyph-name="tupian" unicode="&#58926;" d="M887.476828 895.871071 136.623117 895.871071c-18.862592 0-136.516676 0-136.516676-136.516676l0-750.809735c0-136.54466 136.516676-136.54466 136.516676-136.54466l750.85471 0c136.515676 0 136.515676 136.54466 136.515676 136.54466L1023.993504 759.354395C1023.992504 895.871071 906.352413 895.871071 887.476828 895.871071M955.733167 8.54466c0 0 0-68.258338-68.256339-68.258338L630.030876 208.432371 489.654329 86.517638l-210.643776 195.032389L68.377772 86.517638 68.377772 759.355395c0 68.258338 49.381753 68.258338 68.244346 68.258338L887.476828 827.613733c18.875585 0 68.256339 0 68.256339-68.258338L955.733167 8.54466zM682.699815 623.366428c-75.516333 0-136.725561-61.318167-136.725561-136.960431 0-75.586295 61.209227-136.932446 136.725561-136.932446 75.477355 0 136.725561 61.347151 136.725561 136.932446C819.425376 562.047261 758.17717 623.366428 682.699815 623.366428"  horiz-adv-x="1024" />

    
    <glyph glyph-name="diqiu" unicode="&#58890;" d="M511.777943 827.808922c-245.204631 0-443.586864-198.60429-443.586864-443.808922s198.382233-443.808922 443.586864-443.808922 444.030979 198.60429 444.030979 443.808922S756.982574 827.808922 511.777943 827.808922zM819.11568 561.523159 688.191838 561.523159c-14.423501 55.476499-34.617425 108.733447-61.245899 157.995407C708.606797 691.559794 776.509303 634.974032 819.11568 561.523159zM512 737.493963c37.058011-53.256948 65.906036-112.505353 84.767616-175.96978L427.232384 561.524183C446.093964 624.98861 474.941989 684.237015 512 737.493963zM168.491459 295.23842c-7.322779 28.40391-11.538801 58.139142-11.538801 88.76158s4.216022 60.35767 11.538801 88.76158l149.785421 0c-3.550873-29.069059-5.991458-58.582233-5.991458-88.76158s2.440585-59.69252 6.213515-88.76158L168.491459 295.23842zM204.662263 206.476841l130.923842 0c14.423501-55.476499 34.617425-108.733447 61.245899-158.217465C315.171146 76.219171 247.267617 133.025968 204.662263 206.476841zM335.586105 561.523159 204.662263 561.523159c42.605354 73.449849 110.508883 130.257669 192.168718 158.217465C370.202507 670.256606 350.009605 616.999658 335.586105 561.523159zM512 30.506037c-36.835953 53.256948-65.683978 112.505353-84.767616 175.96978l169.535231 0C577.682955 143.012414 548.835953 83.764008 512 30.506037zM615.851253 295.23842 408.148747 295.23842c-4.216022 29.069059-7.100722 58.582233-7.100722 88.76158s2.8847 59.69252 7.100722 88.76158l207.702506 0c4.216022-29.069059 7.100722-58.582233 7.100722-88.76158S620.067274 324.30748 615.851253 295.23842zM627.167996 48.48041c26.628474 49.485041 46.821375 102.519931 61.245899 157.995407l130.923842 0C776.510326 133.025968 708.606797 76.441229 627.167996 48.48041zM705.500039 295.23842c3.550873 29.069059 6.213515 58.582233 6.213515 88.76158s-2.440585 59.69252-6.213515 88.76158l149.785421 0c7.322779-28.40391 11.760858-58.139142 11.760858-88.76158s-4.216022-60.35767-11.760858-88.76158L705.500039 295.23842z"  horiz-adv-x="1024" />

    
    <glyph glyph-name="1" unicode="&#59109;" d="M914.588613 340.359061c-33.284057 33.282011-77.536934 51.612495-124.606972 51.612495-47.066969 0-91.317799-18.328437-124.601856-51.611471-60.386322-60.389392-67.687612-154.055678-21.925359-222.50156L501.657956-23.938969c-13.428847-13.429871-13.428847-35.204803 0-48.634674 6.715959-6.715959 15.517415-10.072403 24.317848-10.072403 8.801457 0 17.602913 3.358491 24.318872 10.072403l141.765771 141.768841c28.739555-19.291368 62.536288-29.655414 97.927333-29.655414 47.067992 0 91.318822 18.328437 124.600833 51.610448C983.294414 159.852964 983.294414 271.647119 914.588613 340.359061zM865.953939 139.785929c-20.290115-20.292162-47.269583-31.466666-75.966159-31.466666-28.698622 0-55.67809 11.175527-75.970252 31.469736-41.891086 41.888016-41.891086 110.047372-0.00307 151.939481 20.292162 20.290115 47.27163 31.465642 75.967182 31.465642 28.699646 0 55.680137-11.177574 75.972299-31.467689C907.844002 249.833301 907.844002 181.672922 865.953939 139.785929zM646.616442 350.848972c12.762675 14.06739 11.704576 35.814694-2.362814 48.576345-29.898961 27.123754-62.959937 48.611138-97.738022 63.909565 53.190433 39.054481 87.789439 102.012372 87.789439 172.910095 0 118.221542-96.18055 214.401068-214.403115 214.401068s-214.403115-96.179526-214.403115-214.401068c0-70.831208 34.535561-133.738957 87.640036-172.800601-5.463432-2.412956-10.898211-4.973268-16.296151-7.705496-42.553165-21.535479-81.086783-51.897997-114.529453-90.24128-66.36857-76.094072-104.433514-175.108157-104.433514-271.653003 0-18.993586 15.396665-34.389228 34.389228-34.389228s34.389228 15.396665 34.389228 34.389228c0 154.830321 125.407198 327.997266 293.241694 327.997266 63.637366 0 125.237329-25.366737 178.137143-73.358775C612.107487 335.72246 633.85479 336.782605 646.616442 350.848972zM274.278295 636.244978c0 80.295767 65.326844 145.621589 145.623635 145.621589s145.623635-65.325821 145.623635-145.621589c0-80.296791-65.326844-145.622612-145.623635-145.622612S274.278295 555.94921 274.278295 636.244978z"  horiz-adv-x="1024" />

    
    <glyph glyph-name="shipin" unicode="&#58901;" d="M895.522718-127.363627 128.477264-127.363627C53.154536-127.363627 0.636355-74.845446 0.636355 0.477282L0.636355 767.522736C0.636355 842.845464 53.154536 895.363645 128.477264 895.363645L895.522718 895.363645C970.845446 895.363645 1023.363627 842.845464 1023.363627 767.522736L1023.363627 0.477282C1023.363627-74.845446 970.845446-127.363627 895.522718-127.363627L895.522718-127.363627ZM43.249991 724.9091 43.249991 639.681827 213.704536 639.681827 130.911354 846.653418C77.935218 831.276145 43.249991 785.832964 43.249991 724.9091L43.249991 724.9091ZM213.704536 852.750009 298.932945 639.681827 426.752264 639.681827 341.545445 852.750009 213.704536 852.750009 213.704536 852.750009ZM426.752264 852.750009 511.999992 639.681827 639.840899 639.681827 554.613627 852.750009 426.751128 852.750009 426.752264 852.750009ZM639.840899 852.750009 725.068173 639.681827 852.909083 639.681827 767.681808 852.750009 639.840899 852.750009 639.840899 852.750009ZM980.749992 724.9091C980.749992 800.231827 928.231809 852.750009 852.909083 852.750009L938.137491 639.681827 980.749992 639.681827 980.749992 724.9091 980.749992 724.9091ZM980.749992 597.068192 43.251127 597.068192 43.251127 43.090917C43.251127-32.231809 95.769309-84.749992 171.092036-84.749992L852.910217-84.749992C928.232946-84.749992 980.751127-32.231809 980.751127 43.090917L980.751127 597.068192 980.749992 597.068192ZM341.545445 469.227282 725.068173 256.159101 341.545445 43.090917 341.545445 469.226146 341.545445 469.227282Z"  horiz-adv-x="1024" />

    
    <glyph glyph-name="renwu" unicode="&#59111;" d="M810.667264 570.649004c-8.013511 8.012488-21.004383 8.012488-29.017894 0l-306.613236-307.590494L310.278719 426.874483c-8.012488 8.012488-21.004383 8.012488-29.017894 0s-8.012488-21.004383 0-29.017894l177.821965-176.804798c0.444115-0.545422 0.918929-1.074472 1.426489-1.583055 8.012488-8.012488 21.004383-8.012488 29.017894 0L810.667264 541.63111C818.680774 549.643598 818.680774 562.635493 810.667264 570.649004zM878.831736 749.591489 149.768025 749.591489c-44.742017 0-81.009012-35.999912-81.009012-80.414471l0-281.44809 1.023306 0c10.663874-234.867192 205.28955-422.176229 444.518073-422.176229 239.225453 0 433.855222 187.309036 444.515003 422.176229l1.023306 0L959.838701 669.178041C959.837678 713.5926 923.570683 749.591489 878.831736 749.591489zM916.103618 384.509606c-9.636474-209.779817-185.566346-377.088334-401.807319-377.088334-216.244043 0-392.169821 167.308517-401.810389 377.088334l-0.924045 0L111.561865 672.753473c0 33.210379 25.312502 35.017538 35.017538 35.017538l735.358067 0c8.512884 0 33.375132-7.973602 35.017538-35.017538l0.073678-288.242843L916.103618 384.51063z"  horiz-adv-x="1024" />

    
    <glyph glyph-name="renwu1" unicode="&#58886;" d="M722.938 665.25c23.287 0 42.188 18.9 42.188 42.188l0 84.375c0 23.287-18.9 42.188-42.188 42.188s-42.188-18.9-42.188-42.188l0-84.375c0-23.287 18.9-42.188 42.188-42.188zM512 665.25c23.288 0 42.188 18.9 42.188 42.188l0 84.375c0 23.287-18.9 42.188-42.188 42.188s-42.188-18.9-42.188-42.188l0-84.375c0-23.287 18.9-42.188 42.188-42.188zM877.625 749.625l-70.313 0 0-42.188c0-46.589-37.772-84.375-84.375-84.375-46.589 0-84.375 37.8-84.375 84.375l0 42.188-42.188 0 0-42.188c0-46.589-37.772-84.375-84.375-84.375-46.589 0-84.375 37.8-84.375 84.375l0 42.188-42.188 0 0-42.188c0-46.589-37.772-84.375-84.375-84.375-46.589 0-84.375 37.8-84.375 84.375l0 42.188-70.313 0c-23.287 0-42.188-18.9-42.188-42.188l0-731.25c0-23.287 18.9-42.188 42.188-42.188l731.25 0c23.287 0 42.188 18.9 42.188 42.188l0 731.25c0 23.287-18.9 42.188-42.188 42.188zM772.156 74.625l-520.313 0c-19.42 0-35.156 15.736-35.156 35.156s15.736 35.156 35.156 35.156l520.313 0c19.42 0 35.156-15.736 35.156-35.156s-15.736-35.156-35.156-35.156zM765.125 243.375l-506.25 0c-23.287 0-42.188 18.9-42.188 42.188s18.9 42.188 42.188 42.188l506.25 0c23.287 0 42.188-18.9 42.188-42.188s-18.9-42.188-42.188-42.188zM765.125 426.188l-506.25 0c-23.287 0-42.188 18.9-42.188 42.188s18.9 42.188 42.188 42.188l506.25 0c23.287 0 42.188-18.9 42.188-42.188s-18.9-42.188-42.188-42.188zM301.062 665.25c23.287 0 42.188 18.9 42.188 42.188l0 84.375c0 23.287-18.9 42.188-42.188 42.188s-42.188-18.9-42.188-42.188l0-84.375c0-23.287 18.9-42.188 42.188-42.188z"  horiz-adv-x="1024" />

    
    <glyph glyph-name="xitong" unicode="&#59004;" d="M508.472352 512.14786c67.34534 0 122.149982-54.804642 122.149982-122.149982s-54.804642-122.149982-122.149982-122.149982-122.149982 54.804642-122.149982 122.149982S441.127012 512.14786 508.472352 512.14786M508.472352 566.436652c-97.44853 0-176.438974-78.990444-176.438974-176.438974s78.990245-176.438974 176.438974-176.438974 176.438974 78.990444 176.438974 176.438974S605.920882 566.436652 508.472352 566.436652M944.657818 282.277112c7.75814 33.08237 11.71086 67.147074 11.71086 101.721833 0 34.574758-3.95272 68.639462-11.71086 101.721833-3.424478 14.6025-18.03817 23.663956-32.64047 20.239478-14.6025-3.424478-23.663956-18.03817-20.239478-32.64047 6.806385-29.023522 10.276233-58.927247 10.276233-89.32084s-3.469847-60.297318-10.276233-89.32084c-3.424478-14.6025 5.636978-29.215992 20.239478-32.64047C926.619648 258.613156 941.23334 267.674613 944.657818 282.277112L944.657818 282.277112zM912.571772 261.428847c1.717835 0 3.155461-0.025982 4.466372-0.082944 14.984441-0.651558 27.660046 10.967564 28.311405 25.952005 0.651558 14.984441-10.967564 27.659847-25.952005 28.311205-2.173127 0.094536-4.374234 0.134309-6.825572 0.134309-14.998631 0-27.157187-12.158756-27.157187-27.157387C885.414585 273.587604 897.573141 261.428847 912.571772 261.428847L912.571772 261.428847zM823.90289 98.055414c-11.086883 17.029254-17.073024 36.869003-17.073024 57.631526 0 58.400005 47.341902 105.741907 105.741907 105.741907 14.998431 0 27.157187 12.158756 27.157187 27.157387 0 14.998431-12.158756 27.157387-27.157187 27.157387-88.397267 0-160.056482-71.659415-160.056482-160.056482 0-31.370131 9.087639-61.488711 25.869461-87.265634 8.183252-12.569478 25.006645-16.125267 37.576123-7.941815C828.530352 68.662743 832.086142 85.486136 823.90289 98.055414L823.90289 98.055414zM640.117097-41.604096c67.575784 20.29564 129.145839 56.493897 179.853459 105.270227 10.809471 10.39775 11.143045 27.589694 0.745295 38.398966s-27.589694 11.143045-38.398966 0.745295c-44.525412-42.829562-98.556179-74.595224-157.823396-92.395556-14.364661-4.314275-22.512137-19.456608-18.197862-33.821269C610.609902-37.770895 625.752236-45.918371 640.117097-41.604096L640.117097-41.604096zM416.297246-27.156492c17.308065 36.78526 54.331963 60.762003 95.703913 60.762003 41.379345 0 78.426227-23.983939 95.731094-60.762003 6.385471-13.571399 22.563902-19.396649 36.1351-13.011178 13.571399 6.385671 19.396649 22.563902 13.011178 36.1351-26.182448 55.646072-82.263425 91.952656-144.877373 91.952656-62.609751 0-118.665745-36.302187-144.850192-91.952656-6.385471-13.571199-0.56042-29.74963 13.010979-36.1351C393.733345-46.553141 409.911576-40.72789 416.297246-27.156492L416.297246-27.156492zM205.250336 62.505118c50.488769-48.177935 111.614725-83.95228 178.654872-104.107015 14.363462-4.318272 29.507994 3.825007 33.826266 18.188468 4.318272 14.363462-3.825007 29.507994-18.188468 33.826266-58.809527 17.680413-112.457954 49.078525-156.796092 91.387239-10.851043 10.35438-28.041388 9.951653-38.395768-0.89939S194.399293 72.859497 205.250336 62.505118L205.250336 62.505118zM113.276295 261.428847c58.400005 0 105.741907-47.341902 105.741907-105.741907 0-21.122679-6.193001-41.291404-17.633844-58.497139-8.304769-12.489532-4.912469-29.346503 7.576863-37.651472 12.489532-8.304769 29.346503-4.912669 37.651472 7.576863 17.319657 26.04674 26.720084 56.661384 26.720084 88.571548 0 88.397067-71.659415 160.056482-160.056482 160.056482-14.998631 0-27.157387-12.158756-27.157387-27.157387C86.119107 273.587604 98.277864 261.428847 113.276295 261.428847L113.276295 261.428847zM107.301546 261.279748c1.830759 0.100532 3.809417 0.149099 5.974749 0.149099 14.998631 0 27.157387 12.158756 27.157387 27.157387 0 14.998431-12.158756 27.157387-27.157387 27.157387-3.11269 0-6.073482-0.072551-8.954729-0.231043-14.976046-0.822842-26.449267-13.630359-25.626425-28.606405C79.518183 271.930327 92.325499 260.456906 107.301546 261.279748L107.301546 261.279748zM79.370483 485.796926c-7.770332-33.163315-11.736842-67.251004-11.736842-101.797981 0-34.546977 3.966311-68.634866 11.736842-101.797981 3.42168-14.603099 18.033373-23.667354 32.636472-20.245873 14.603099 3.42168 23.667354 18.033573 20.245873 32.636472-6.821775 29.11526-10.304613 59.045967-10.304613 89.407382 0 30.361415 3.482639 60.292322 10.304613 89.407382 3.42168 14.603099-5.642774 29.214992-20.245873 32.636472C97.403856 509.464479 82.791963 500.400025 79.370483 485.796926L79.370483 485.796926zM113.276295 506.569042c-2.165532 0-4.14419 0.048567-5.974749 0.149099-14.976046 0.822842-27.783363-10.650579-28.606405-25.626425-0.822842-14.976046 10.650579-27.783363 25.626425-28.606405 2.881047-0.158293 5.842039-0.230843 8.954729-0.230843 14.998631 0 27.157387 12.158756 27.157387 27.157387C140.433682 494.410286 128.274926 506.569042 113.276295 506.569042L113.276295 506.569042zM201.384357 670.807888c11.442442-17.207933 17.633844-37.377258 17.633844-58.524121 0-58.393209-47.335107-105.714725-105.741907-105.714725-14.998631 0-27.157387-12.158756-27.157387-27.157387 0-14.998631 12.158756-27.157387 27.157387-27.157387 88.400664 0 160.056482 71.635631 160.056482 160.0293 0 31.932949-9.398228 62.548592-26.720084 88.59873-8.304769 12.489532-25.16194 15.881832-37.651472 7.576863S193.079588 683.29742 201.384357 670.807888L201.384357 670.807888zM383.905208 809.599787c-67.040147-20.154935-128.166103-55.92908-178.654872-104.107015-10.851043-10.35438-11.25357-27.544725-0.89919-38.395768 10.35438-10.851043 27.544725-11.25357 38.395768-0.89919 44.338139 42.308915 97.986565 73.706827 156.796092 91.387239 14.363462 4.318272 22.50674 19.462804 18.188468 33.826266C413.413202 805.774581 398.26867 813.91786 383.905208 809.599787L383.905208 809.599787zM607.732254 795.154381c-17.303468-36.775266-54.348552-60.762203-95.703913-60.762203-41.396133 0-78.42183 23.974146-95.731094 60.762203-6.385471 13.571399-22.563902 19.396649-36.1351 13.010979-13.571399-6.385471-19.396649-22.563902-13.010979-36.1351 26.186446-55.654466 82.245038-91.952656 144.877373-91.952656 62.591363 0 118.669742 36.310581 144.850192 91.952656 6.385471 13.571399 0.56022 29.74963-13.011178 36.1351C630.296155 814.55103 614.117724 808.72578 607.732254 795.154381L607.732254 795.154381zM819.96476 704.337155c-50.705222 48.744751-112.269881 84.939811-179.83767 105.261633-14.363062 4.319871-29.508393-3.821809-33.828264-18.184671s3.821809-29.508393 18.184871-33.828264c59.273013-17.826913 113.309576-49.596174 157.839185-92.40415 10.812469-10.394552 28.004213-10.055582 38.398766 0.756887S830.777229 693.942603 819.96476 704.337155L819.96476 704.337155zM912.571772 506.569042c-58.407 0-105.741907 47.321516-105.741907 105.714725 0 20.786707 5.984742 40.627055 17.073024 57.658508 8.183252 12.569478 4.627463 29.392872-7.942015 37.576123-12.569478 8.183252-29.392872 4.627463-37.576123-7.942015-16.78422-25.780321-25.869461-55.8999-25.869461-87.292815 0-88.393669 71.655817-160.0293 160.056482-160.0293 14.998431 0 27.157187 12.158756 27.157187 27.157387C939.72896 494.410286 927.570203 506.569042 912.571772 506.569042L912.571772 506.569042zM917.038144 506.651786c-1.310911-0.056961-2.748337-0.082944-4.466372-0.082944-14.998631 0-27.157187-12.158756-27.157187-27.157387 0-14.998631 12.158556-27.157387 27.157187-27.157387 2.451538 0 4.652646 0.039773 6.825572 0.134109 14.984441 0.651558 26.603563 13.326964 25.952005 28.311405C944.697991 495.684222 932.022585 507.303344 917.038144 506.651786L917.038144 506.651786z"  horiz-adv-x="1024" />

    
    <glyph glyph-name="mm" unicode="&#58880;" d="M983.192 490.442l-318.033 58.022-153.127 286.375-153.127-286.375-318.033-58.022 223.395-235.012-43.428-322.235 291.193 141.13 291.193-141.13-43.428 322.235z"  horiz-adv-x="1024" />

    
    <glyph glyph-name="mulu" unicode="&#58881;" d="M121.91 586.305h47.123c16.521 0 29.91 15.113 29.91 42.984 0 27.888-13.373 41.503-29.91 41.503h-47.123c-16.522 0-29.91-13.616-29.91-41.504 0-27.872 13.373-42.983 29.91-42.983zM337.51 586.305h556.228c21.153 0 38.262 15.113 38.262 42.984 0 27.888-17.127 41.503-38.262 41.503h-556.228c-21.136 0-38.262-13.615-38.262-41.503-0.001-27.873 17.109-42.984 38.262-42.984zM170.884 369.842h-49.682c-15.51 0-28.074-16.659-28.074-41.302 0-24.695 12.563-43.857 28.074-43.857h49.682c15.51 0 32.249 19.18 32.249 43.857 0.001 24.628-16.739 41.302-32.249 41.302zM893.738 369.842h-556.228c-21.136 0-38.262-16.659-38.262-41.302 0-24.695 17.127-43.857 38.262-43.857h556.228c21.153 0 38.262 19.18 38.262 43.857 0 24.628-17.11 41.302-38.262 41.302zM171.809 101.283h-47.846c-15.006 0-27.148-16.742-27.148-41.369 0-24.626 12.143-45.371 27.148-45.371h47.845c15.007 0 31.309 20.743 31.309 45.371 0 24.627-16.302 41.369-31.308 41.369zM893.738 101.283h-556.228c-21.136 0-38.262-16.742-38.262-41.369 0-24.626 17.127-44.193 38.262-44.193h556.228c21.153 0 38.262 19.566 38.262 44.193s-17.11 41.369-38.262 41.369z"  horiz-adv-x="1024" />

    
    <glyph glyph-name="border_color" unicode="&#58940;" d="M957.44-9.011c0-14.454-11.822-26.179-26.179-26.179h-838.523c-14.454 0-26.179 11.817-26.179 26.179 0 14.454 11.817 26.179 26.179 26.179h838.518c14.362 0.005 26.184-11.725 26.184-26.179zM162.826 98.166l56.545 204.18 484.163 484.070c22.456 22.456 51.543 22.272 73.815 0l110.725-110.72c22.272-22.272 22.456-51.272 0-73.815l-483.896-484.26-204.355-56.54c-28.18-5.914-42.813 8.724-36.997 37.084zM648.264 657.152l110.725-110.633 73.815 73.815c19.18 19 17.91 18.816 0 36.905l-73.815 73.728c-17.454 18.816-19.18 18.816-36.91 0l-73.815-73.815zM297.37 306.253l110.72-110.725 313.989 313.989-110.72 110.72-313.989-313.984zM218.737 116.987l152.443 41.728-110.72 110.72-41.723-152.448z"  horiz-adv-x="1024" />

    
    <glyph glyph-name="paixu_up" unicode="&#58885;" d="M733.184 295.424h-442.368l221.184-264.704 221.184 264.704zM290.816 472.576h441.856l-220.672 264.704-221.184-264.704z"  horiz-adv-x="1024" />

    
    <glyph glyph-name="jiqun" unicode="&#59234;" d="M538.60352 581.76512v-171.904h343.30112c18.25792-1.01376 27.38176-10.6496 27.38176-28.9024v-194.21696h83.16416c18.25792 0 28.39552-9.63584 28.39552-27.88864v-219.5712c0-18.25792-10.14272-27.38176-28.39552-27.38176h-217.0368c-18.7648 0-28.39552 9.12896-28.39552 28.39552v217.0368c0 19.77856 9.63584 28.9024 29.40928 29.40928h81.64352V357.632h-318.96064v-170.89024h76.06272c26.368 0 34.4832-8.1152 34.4832-34.4832v-207.90784c0-24.34048-8.1152-32.45568-32.45568-32.45568h-208.9216c-23.8336 0-32.45568 8.62208-32.45568 32.45568v208.9216c0 24.34048 9.12896 32.96256 33.97632 32.96256h77.07648v170.38336h-318.96064v-170.38336h85.69856c15.21152-1.01376 25.35424-10.6496 25.35424-25.86112v-222.61248c0-15.7184-10.14272-25.86112-26.368-25.86112h-220.58496c-17.23904 0-26.87488 10.14272-26.87488 28.9024-0.50688 22.81984 0 45.63968 0 67.95264v144.52224c0 24.34048 9.12896 32.96256 33.46944 32.96256h78.09024v188.12928c0 27.88864 7.60832 35.49696 36.00384 35.49696h335.69792v171.904h-84.17792c-15.21152 0-26.368 9.12896-26.368 23.32672a16970.19392 16970.19392 0 0 0 0 227.17952c0 14.70464 11.15648 23.8336 25.86112 23.8336h221.59872c15.21152 0 25.86112-10.14272 25.86112-25.35424 0.50688-74.54208 0.50688-149.08416 0-224.13824 0-15.7184-10.6496-24.84736-26.87488-25.35424-23.8336-0.50688-47.6672 0-71.5008 0-6.08256 0.50176-9.63584 0.50176-14.19776 0.50176z m-111.55968 51.72736h170.38336v170.89024h-170.38336v-170.89024z m-201.3184-498.98496h-170.38336v-170.89024h170.38336v170.89024z m372.20864 0h-170.38336v-170.89024h170.38336v170.89024z m201.82016 0v-170.89024h169.3696v170.89024h-169.3696z"  horiz-adv-x="1024" />

    
    <glyph glyph-name="jiugongge" unicode="&#59079;" d="M0 845.312C0 873.216 23.0912 896 50.688 896h205.824c27.9552 0 50.688-23.0912 50.688-50.688v-205.824c0-27.9552-23.0912-50.688-50.688-50.688H50.688A50.9952 50.9952 0 0 0 0 639.488V845.312z m0-358.4C0 514.816 23.0912 537.6 50.688 537.6h205.824c27.9552 0 50.688-23.0912 50.688-50.688v-205.824c0-27.9552-23.0912-50.688-50.688-50.688H50.688a50.9952 50.9952 0 0 0-50.688 50.688V486.912z m0-358.4c0 27.9552 23.0912 50.688 50.688 50.688h205.824c27.9552 0 50.688-23.0912 50.688-50.688v-205.824c0-27.9552-23.0912-50.688-50.688-50.688H50.688a50.9952 50.9952 0 0 0-50.688 50.688v205.824z m358.4 716.8c0 27.9552 23.0912 50.688 50.688 50.688h205.824c27.9552 0 50.688-23.0912 50.688-50.688v-205.824c0-27.9552-23.0912-50.688-50.688-50.688H409.088A50.9952 50.9952 0 0 0 358.4 639.488V845.312z m0-358.4c0 27.9552 23.0912 50.688 50.688 50.688h205.824c27.9552 0 50.688-23.0912 50.688-50.688v-205.824c0-27.9552-23.0912-50.688-50.688-50.688H409.088a50.9952 50.9952 0 0 0-50.688 50.688V486.912z m0-358.4c0 27.9552 23.0912 50.688 50.688 50.688h205.824c27.9552 0 50.688-23.0912 50.688-50.688v-205.824c0-27.9552-23.0912-50.688-50.688-50.688H409.088a50.9952 50.9952 0 0 0-50.688 50.688v205.824z m358.4 716.8c0 27.9552 23.0912 50.688 50.688 50.688h205.824c27.9552 0 50.688-23.0912 50.688-50.688v-205.824c0-27.9552-23.0912-50.688-50.688-50.688h-205.824a50.9952 50.9952 0 0 0-50.688 50.688V845.312z m0-358.4c0 27.9552 23.0912 50.688 50.688 50.688h205.824c27.9552 0 50.688-23.0912 50.688-50.688v-205.824c0-27.9552-23.0912-50.688-50.688-50.688h-205.824a50.9952 50.9952 0 0 0-50.688 50.688V486.912z m0-358.4c0 27.9552 23.0912 50.688 50.688 50.688h205.824c27.9552 0 50.688-23.0912 50.688-50.688v-205.824c0-27.9552-23.0912-50.688-50.688-50.688h-205.824a50.9952 50.9952 0 0 0-50.688 50.688v205.824z"  horiz-adv-x="1024" />

    
    <glyph glyph-name="zhongqi" unicode="&#59069;" d="M512-50.688c-224.256 0-406.528 182.272-406.528 406.528 0 137.728 69.12 265.216 184.832 340.992l1.024 0.512 4.608 3.072 1.024 0.512c5.632 2.56 11.264 4.096 17.408 4.096 21.504 0 39.424-17.408 39.424-39.424 0-14.336-8.192-28.16-22.016-35.84l-0.512-0.512-0.512-0.512C238.592 568.32 183.808 465.92 183.808 355.84c0-180.736 147.456-328.192 328.192-328.192s328.192 147.456 328.192 328.192c0 110.08-54.784 212.48-146.432 273.408l-1.024 0.512c-10.752 6.144-22.528 18.944-22.528 35.84 0 21.504 17.408 39.424 39.424 39.424 6.144 0 11.776-1.536 17.408-4.096 0 0 1.024-0.512 1.536-1.024 1.536-1.024 2.56-1.536 3.584-2.048l0.512-0.512c116.224-75.264 185.856-203.264 185.856-341.504 0-224.256-182.272-406.528-406.528-406.528z m0 338.944c-21.504 0-39.424 17.408-39.424 39.424V779.776c0 21.504 17.408 39.424 39.424 39.424 21.504 0 39.424-17.408 39.424-39.424V327.68c0-22.016-17.92-39.424-39.424-39.424z"  horiz-adv-x="1024" />

    
    <glyph glyph-name="jiankong" unicode="&#59047;" d="M68.193 381.34l143.08-13.515v-171.21l227.332 56.152v62.137h-27.617v78.418l-130.542 20.913-74.315 70.331 23.679 147.906 442.187-70.826c3.097 11.14 6.975 21.379 11.442 30.399L188.752 671.26l80.419 141.682 54.123 20.673 462.513-74.073 43.734-7.006 49.718-7.953 76.704-12.297-2.766-70.511-85.544-93.994-38.608 5.413 18.702 116.741 72.3-11.576 1.007 25.302L816.1 720.469l-6.013-2.3-73.773-88.175c23.123-9.366 34.985-54.906 26.717-106.594-8.871-55.416-37.572-96.91-64.076-92.655-12.599 2.014-22.446 14.011-28.341 32.008l-7.036-43.9 73.142-77.697-191.581 30.685v-56.934h-26.055v-111.796l-307.812-76.042v-164.685L68.192-61.28V381.34h0.001z m653.794 193.22c-11.472 1.834-23.89-16.132-27.739-40.143-3.849-23.993 2.345-44.952 13.817-46.786 11.486-1.835 23.904 16.131 27.753 40.141 3.833 23.995-2.345 44.953-13.831 46.788z m-3.594-213.937l25.453-23.243 85.98 53.342 25.499 159.166-33.392 5.338-23.062-144.042-80.478-50.561z"  horiz-adv-x="1024" />

    
    <glyph glyph-name="yidongdao" unicode="&#59022;" d="M843.4176 50.47808H180.58752c-27.18208 0-49.29536 22.11328-49.29536 49.29536V668.21632c0 27.1872 22.11328 49.30048 49.29536 49.30048h248.46336a25.6 25.6 0 0 0 21.29408-11.38688l67.66592-101.38624h325.41184c27.18208 0 49.29024-22.1696 49.29024-49.41312v-455.55712c-0.00512-27.17696-22.11328-49.29536-49.29536-49.29536z m-660.92544 51.2h659.0208V553.5488H504.32a25.6 25.6 0 0 0-21.29408 11.38688L415.36 666.32192H182.49216v-564.64384zM718.71488 348.09344L615.81312 454.7072a28.16 28.16 0 0 1-40.51968-39.11168l51.81952-53.68832H326.49216a28.16 28.16 0 0 1 0-56.32h308.93568l-61.29152-60.93312a28.16 28.16 0 1 1 39.71072-39.936l104.46336 103.86432a28.1344 28.1344 0 0 1 0.40448 39.51104z"  horiz-adv-x="1024" />

    
    <glyph glyph-name="renwuguanli-" unicode="&#58882;" d="M870.4 793.6h-214.016a153.6 153.6 0 0 1-288.768 0H153.6a102.4 102.4 0 0 1-102.4-102.4v-716.8a102.4 102.4 0 0 1 102.4-102.4h716.8a102.4 102.4 0 0 1 102.4 102.4V691.2a102.4 102.4 0 0 1-102.4 102.4z m-358.4 0a51.2 51.2 0 1 0-51.2-51.2 51.2 51.2 0 0 0 51.2 51.2z m68.096-768H239.104C220.16 25.6 204.8 48.64 204.8 76.8s15.36 51.2 34.304 51.2h341.504c18.944 0 34.304-23.04 34.304-51.2s-15.872-51.2-34.816-51.2zM768 230.4H256a51.2 51.2 0 0 0 0 102.4h512a51.2 51.2 0 0 0 0-102.4z"  horiz-adv-x="1024" />

    
    <glyph glyph-name="wenjianjia" unicode="&#60054;" d="M929.689 556.477c-8.819 11.409-22.184 17.946-36.652 17.946h-75.713v29.318c0 26.402-21.622 47.861-48.206 47.861l-386.968 0.344-52.153 51.773c-9.09 9.037-21.205 14.017-34.081 14.017H133.951c-26.584 0-48.206-21.477-48.206-47.862v-571.732c0-26.402 21.622-47.861 48.206-47.861H793.8v3.549c13.038 5.324 23.36 16.335 27.181 30.459l116.676 432.385c3.748 13.889 0.851 28.394-7.968 39.803z m-795.738 114.52l162.78-0.326 52.135-51.773c9.09-9.055 21.206-14.017 34.081-14.017h386.171c0.634 0 1.141-0.507 1.141-1.141v-29.318H255.516c-20.879 0-39.242-13.98-44.638-34.008L132.81 251.108V669.875c0 0.615 0.507 1.122 1.141 1.122z m641.723-573.995h-635.71l115.552 430.682 636.67 1.086-116.512-431.768z"  horiz-adv-x="1024" />

    
    <glyph glyph-name="guangbo" unicode="&#58973;" d="M482.2 668.7v-568.4L273.1 263.6H123.8V502.5h149.4l209 166.2m29.8 72.7c-8.2 0-29.1-0.4-36.7-5.6l-232-173.5H93.9c-23.4 0-29.9-34.9-29.9-57.9v-269.5c0-23 6.5-31 29.9-31h149.3l232-170.6c7.6-5.2 28.6-8.6 36.7-8.6 22 0 29.9 18.2 29.9 42.8V701.6c0 24.6-20.5 41.7-42.5 41.7l12.7-1.9zM601.6 207.8v60.9c51.4 13.3 89.6 59.6 89.6 115.2S653 485.8 601.6 499.1V560C686.3 545.9 751 472.7 751 384s-64.7-161.9-149.4-176.2zM930.2 412.9h-89.6c-16.5 0-29.9-13.4-29.9-29.9s13.4-29.9 29.9-29.9h89.6c16.5 0 29.9 13.4 29.9 29.9-0.1 16.5-13.5 29.9-29.9 29.9zM741.9 552.7c11.7-11.7 30.6-11.7 42.2 0l63.4 63.4c11.7 11.7 11.7 30.6 0 42.2-11.7 11.7-30.6 11.7-42.2 0l-63.4-63.4c-11.6-11.7-11.6-30.6 0-42.2z m40.5-338.6c-11.7 11.7-30.6 11.7-42.2 0-11.7-11.7-11.7-30.6 0-42.2l63.4-63.4c11.7-11.7 30.6-11.7 42.2 0 11.7 11.7 11.7 30.6 0 42.2l-63.4 63.4z"  horiz-adv-x="1024" />

    
    <glyph glyph-name="guize" unicode="&#58892;" d="M514.56 719.36c186.88 0 335.36-148.48 335.36-335.36s-148.48-335.36-335.36-335.36S179.2 197.12 179.2 384c-2.56 186.88 145.92 335.36 335.36 335.36m0 46.08c-209.92 0-384-174.08-384-384 0-212.48 174.08-384 384-384 212.48 0 384 171.52 384 384s-174.08 384-384 384zM514.56 445.44c-28.16 0-48.64-17.92-48.64-43.52v-207.36c0-23.04 17.92-43.52 48.64-43.52 28.16 0 48.64 17.92 48.64 43.52v207.36c-2.56 23.04-20.48 43.52-48.64 43.52z m0 71.68c28.16 0 48.64 17.92 48.64 48.64 0 28.16-17.92 48.64-48.64 48.64-28.16 0-48.64-17.92-48.64-48.64s17.92-48.64 48.64-48.64z"  horiz-adv-x="1024" />

    
    <glyph glyph-name="shengji" unicode="&#58955;" d="M511.998 896C229.688 896 0 666.292 0 384.002 0 101.708 229.708-128 511.998-128 794.292-128 1024 101.708 1024 384.002 1024 666.292 794.312 896 511.998 896z m0-981.569c-258.921 0-469.546 210.647-469.546 469.571 0 258.919 210.625 469.571 469.546 469.571 258.924 0 469.551-210.652 469.551-469.571 0-258.924-210.627-469.571-469.551-469.571z m0 474.409M803.466 476.641L547.384 732.719c-10 10-23.117 14.961-36.16 14.961-13.117 0-26.321-5.039-36.321-15.121l-256-256c-32.156-32.32-9.277-87.277 36.321-87.277h102.402V287.2c0-28.239 22.961-51.2 51.199-51.2l204.879-0.16c28.242 0 51.199 22.961 51.199 51.199V389.2h102.403c45.597 0 68.398 55.199 36.16 87.441z m-138.641-36.242h-51.441l0.242-51.438v-102l-204.879 0.16V440.399H255.146l255.918 256 0.16 0.16 256.082-256.078H664.825v-0.082z m-26.16-255.68h-256.32c-14.078 0-25.598-11.519-25.598-25.598 0-14.082 11.52-25.601 25.598-25.601h256.32c14.082 0 25.602 11.519 25.602 25.601-0.082 14.079-11.52 25.598-25.602 25.598z m0-101.437h-256.32c-14.078 0-25.598-11.524-25.598-25.602s11.52-25.602 25.598-25.602h256.32c14.082 0 25.602 11.524 25.602 25.602-0.082 14.16-11.52 25.602-25.602 25.602z m0 0"  horiz-adv-x="1024" />

    
    <glyph glyph-name="tianjia" unicode="&#59478;" d="M896-128h-128a32 32 0 0 0 0 64h128a64 64 0 0 1 64 64v128a32 32 0 0 0 64 0v-128a128 128 0 0 0-128-128z m96 384a32 32 0 0 0-32 32v192a32 32 0 0 0 64 0v-192a32 32 0 0 0-32-32z m0 352a32 32 0 0 0-32 32V768a64 64 0 0 1-64 64h-128a32 32 0 0 0 0 64h128a128 128 0 0 0 128-128v-128a32 32 0 0 0-32-32zM608 832h-192a32 32 0 0 0 0 64h192a32 32 0 0 0 0-64zM256 832H128a64 64 0 0 1-64-64v-128a32 32 0 0 0-64 0V768a128 128 0 0 0 128 128h128a32 32 0 0 0 0-64zM32 512a32 32 0 0 0 32-32v-192a32 32 0 0 0-64 0v192a32 32 0 0 0 32 32z m0-352a32 32 0 0 0 32-32v-128a64 64 0 0 1 64-64h128a32 32 0 0 0 0-64H128a128 128 0 0 0-128 128v128a32 32 0 0 0 32 32zM512 704a32 32 0 0 0 32-32v-256h256a32 32 0 0 0 0-64h-256v-256a32 32 0 0 0-64 0v256H224a32 32 0 0 0 0 64h256V672a32 32 0 0 0 32 32z m-96-768h192a32 32 0 0 0 0-64h-192a32 32 0 0 0 0 64z"  horiz-adv-x="1024" />

    
    <glyph glyph-name="stock-inventory" unicode="&#58979;" d="M272.7 439.9v-271.8c0-13.3 9.1-22.1 22.8-22.1h433.1c13.7 0 22.8 8.8 22.8 22.1V437.7l82.1-4.4L528 689.7c-2.3 2.2-4.6 4.4-6.8 4.4-9.1 4.4-20.5 2.2-29.6-6.6l-301-254.2 82.1 6.6z m395.5-74.3l33.4-58.3c3.8-6.5 1.5-14.9-5.1-18.6-2.1-1.2-4.5-1.8-6.8-1.8-4.7 0-9.3 2.5-11.9 6.9l-18.2 31.8c-0.1-0.8-0.3-1.6-0.6-2.3-21.6-63.3-81.2-105.8-148.1-105.8-67 0-126.5 42.6-148.1 105.9-2.4 7.1 1.4 14.9 8.5 17.3 7.1 2.4 14.9-1.4 17.3-8.5 17.8-52.3 67-87.4 122.2-87.4 54.3 0 102.6 33.9 121.2 84.6l-27.4-15.7c-2.1-1.2-4.5-1.8-6.8-1.8-4.7 0-9.3 2.5-11.9 6.9-3.8 6.5-1.5 14.9 5.1 18.6l58.3 33.4c6.8 3.6 15.1 1.3 18.9-5.2z m-339.1 95.3c6.5 3.8 14.9 1.5 18.6-5.1l16.2-28.3c22.5 61.6 81.1 102.8 147 102.8 66.9 0 126.4-42.5 148.1-105.8 2.4-7.1-1.4-14.9-8.5-17.4-7.1-2.4-14.9 1.4-17.4 8.5-17.9 52.2-67 87.3-122.2 87.3-54.3 0-102.8-34-121.3-84.8l31.1 17.8c6.5 3.8 14.9 1.5 18.6-5.1 3.7-6.5 1.5-14.9-5.1-18.6l-58.3-33.4c-2.1-1.2-4.5-1.8-6.8-1.8-4.7 0-9.3 2.5-11.9 6.9l-33.4 58.3c-3.5 6.6-1.2 14.9 5.3 18.7zM911.8 551.1c-21.8 50.4-53 96.1-92.6 135.9-40.5 40.7-87.4 72.8-139.4 95.3-53.9 23.4-110.4 35.3-167.9 35.3h-0.4c-57.6 0-114.2-12-168.1-35.5-51.9-22.6-98.7-54.8-139.1-95.5-39.6-39.9-70.6-85.7-92.3-136.1C89.4 498 78.2 443.1 78.6 387.2c0.8-116.7 45.6-225.7 126.1-307 80.7-81.5 189.9-127.6 307.5-129.9h0.2c117.5 2.3 226.8 48.8 307.6 130.9 80.4 81.7 125 190.6 125.6 306.7 0.2 55.9-11.2 110.7-33.8 163.2zM105.1 384.7c-0.1 106.1 42.6 207.4 120.4 285.1 78 78 179.8 121 286.6 121h0.5c107.9-0.1 209.9-43 287.2-120.7 77.1-77.4 119.3-179.1 119-286.3-0.7-220.5-187.2-406.7-407.3-406.7h-0.2c-219.9 0.2-405.9 186.9-406.2 407.6z"  horiz-adv-x="1024" />

    
    <glyph glyph-name="paixu" unicode="&#58995;" d="M733.184 295.424H290.816L512 30.72l221.184 264.704zM290.816 472.576h441.856L512 737.28 290.816 472.576z"  horiz-adv-x="1024" />

    
    <glyph glyph-name="gexinghuapingtaitubiao-" unicode="&#58941;" d="M1024.284444 715.377778m-56.888888 0a56.888889 56.888889 0 1 1 113.777777 0 56.888889 56.888889 0 1 1-113.777777 0ZM1123.555556 896h-1052.444445A71.111111 71.111111 0 0 1 0 824.888889v-711.111111A71.111111 71.111111 0 0 1 71.111111 42.666667h483.555556v-85.333334H170.666667v-85.333333h853.333333v85.333333H640v85.333334h483.555556a71.111111 71.111111 0 0 1 71.111111 71.111111v711.111111A71.111111 71.111111 0 0 1 1123.555556 896zM1109.333333 128H85.333333V810.666667h1024zM399.928889 233.813333l420.124444 209.92a28.444444 28.444444 0 0 1 0 50.915556L399.928889 704.853333a28.444444 28.444444 0 0 1-41.244445-25.315555v-420.124445a28.444444 28.444444 0 0 1 41.244445-25.6z"  horiz-adv-x="1194" />

    
    <glyph glyph-name="jiankongxinxi" unicode="&#58883;" d="M0 896h1109.333333v-853.333333H0V896z m643.584-570.624a42.666667 42.666667 0 0 1 68.266667 8.874667l140.032 255.829333a42.666667 42.666667 0 1 1-74.837334 40.96L665.088 426.496 462.250667 640a42.666667 42.666667 0 0 1-69.632-11.434667L273.834667 372.736a42.666667 42.666667 0 0 1 77.397333-35.925333l92.330667 198.826666 200.021333-210.261333zM256-42.666667h597.333333v-85.333333H256v85.333333z"  horiz-adv-x="1109" />

    
    <glyph glyph-name="fuzhidao" unicode="&#59138;" d="M982.55288455 156.83653820999996h-389.42307724a129.80769269 129.80769269 0 0 0-129.80769186 129.80769268V676.06730732a129.80769269 129.80769269 0 0 0 129.80769186 129.80769268h389.42307724a129.80769269 129.80769269 0 0 0 129.80769269-129.80769268v-389.42307642a129.80769269 129.80769269 0 0 0-129.80769269-129.80769269z m64.90384634 519.23076911a64.90384634 64.90384634 0 0 1-64.90384634 64.90384634h-389.42307724a64.90384634 64.90384634 0 0 1-64.90384552-64.90384634v-389.42307642a64.90384634 64.90384634 0 0 1 64.90384552-64.90384635h389.42307724a64.90384634 64.90384634 0 0 1 64.90384634 64.90384635V676.06730732z m-129.80769268-227.16346098h-97.35576911v-97.35576909a32.45192275 32.45192275 0 0 0-64.90384635 0v97.35576909h-97.35576909a32.45192275 32.45192275 0 0 0 0 64.90384635h97.35576909V611.1634617899999a32.45192275 32.45192275 0 0 0 64.90384635 0v-97.3557691h97.35576911a32.45192275 32.45192275 0 0 0 0-64.90384635z m-616.58653821 32.45192277v-389.42307642a64.90384634 64.90384634 0 0 1 64.90384634-64.90384635h389.42307641a64.90384634 64.90384634 0 0 1 64.90384635 64.90384635v32.45192276h64.90384635v-32.45192276a129.80769269 129.80769269 0 0 0-129.80769269-129.80769269h-389.42307642a129.80769269 129.80769269 0 0 0-129.80769268 129.80769269V481.35576911a129.80769269 129.80769269 0 0 0 129.80769268 129.80769268h64.90384634v-64.90384634h-64.90384634a64.90384634 64.90384634 0 0 1-64.90384634-64.90384635z"  horiz-adv-x="1417" />

    
    <glyph glyph-name="zhouer" unicode="&#58895;" d="M333.694769 375.630769c-4.923077 0-8.450462 0.902154-10.584615 2.707693-2.132923 1.805538-3.2 5.086769-3.2 9.846153 0 4.267077 1.067077 7.302154 3.2 9.107693 2.134154 1.805538 5.661538 2.707692 10.584615 2.707692h35.692308v6.646154c0 5.251692 1.888 9.107692 5.661538 11.569231h-55.630769c-3.938462 0-6.523077-0.492308-7.753846-1.476923-1.230769-0.984615-1.846154-3.117538-1.846154-6.4v-52.923077c0-15.753846-0.286769-29.825231-0.861538-42.215385-0.573538-12.390154-1.558154-23.630769-2.953846-33.723077-1.394462-10.092308-3.281231-19.240615-5.661539-27.446154a139.769846 139.769846 0 0 0-9.230769-23.630769c-2.625231-5.907692-5.619692-9.723077-8.984616-11.446154-3.363692-1.723077-7.425231-1.6-12.184615 0.369231-4.758154 2.297846-7.630769 5.128615-8.615385 8.492308-0.984615 3.363692-0.163692 8 2.461539 13.907692 3.446154 7.056 6.276923 14.113231 8.492308 21.169231 2.215385 7.056 3.980308 14.974769 5.292307 23.753846 1.313231 8.779077 2.215385 18.790154 2.707693 30.030769 0.492308 11.240615 0.738462 24.492308 0.738461 39.753846v62.523077c0 5.579077 0.411077 10.092308 1.230769 13.538462 0.820923 3.446154 2.257231 6.153846 4.307693 8.123077 2.051692 1.969231 4.759385 3.282462 8.123077 3.938461 3.364923 0.656 7.672615 0.984615 12.923077 0.984616h155.076923c5.088 0 9.313231-0.369231 12.676923-1.107693 3.364923-0.738462 6.072615-2.092308 8.123077-4.061538 2.051692-1.969231 3.488-4.676923 4.307692-8.123077 0.820923-3.446154 1.230769-7.959385 1.230769-13.538462v-171.076923c0-4.594462-0.532923-8.820923-1.6-12.676923-1.065846-3.856-2.912-7.097846-5.538461-9.723077-2.625231-2.625231-6.030769-4.636308-10.215385-6.030769-4.184615-1.394462-9.394462-1.928615-15.630769-1.6-7.056 0.328615-13.127385 0.902154-18.215385 1.723077-5.086769 0.820923-9.271385 1.805538-12.553846 2.953846-5.250462 1.805538-8.286769 4.307692-9.107692 7.507692-0.819692 3.2-0.327385 7.015385 1.476923 11.446154 1.641846 3.938462 3.938462 6.276923 6.892307 7.015385 2.953846 0.738462 7.057231 0.451692 12.307693-0.861539 5.415385-1.476923 9.682462-2.502154 12.8-3.076923 3.118769-0.574769 5.457231-0.697846 7.015384-0.36923 1.559385 0.328615 2.544 1.230769 2.953847 2.707692 0.411077 1.476923 0.615385 3.528615 0.615384 6.153846v155.076923c0 4.267077-0.450462 7.056-1.353846 8.369231-0.902154 1.313231-3.240615 1.969231-7.015385 1.969231h-57.846153c3.611077-2.132923 5.415385-5.990154 5.415384-11.569231v-6.646154h37.169231c2.461538 0 4.553846-0.082462 6.276923-0.246154 1.723077-0.163692 3.118769-0.656 4.184615-1.476923 1.067077-0.820923 1.846154-2.009846 2.338462-3.569231 0.492308-1.559385 0.738462-3.815385 0.738461-6.76923 0-4.923077-0.984615-8.205538-2.953846-9.846154-1.969231-1.640615-5.496615-2.461538-10.584615-2.461539h-37.169231v-15.261538h42.830769c4.759385 0 8.288-0.944 10.584616-2.830769 2.297846-1.886769 3.446154-5.128615 3.446154-9.723077 0-3.938462-1.065846-7.015385-3.2-9.23077-2.132923-2.215385-5.661538-3.323077-10.584616-3.323077h-114.953846c-4.923077 0-8.450462 1.107692-10.584615 3.323077-2.132923 2.215385-3.2 5.292308-3.2 9.23077s0.984615 7.015385 2.953846 9.230769c1.969231 2.215385 5.497846 3.323077 10.584615 3.323077h42.092308v15.261538h-35.692308z m116.184616-98.707692c0-5.744-0.327385-10.338462-0.984616-13.784615-0.656-3.446154-1.927385-6.071385-3.815384-7.876924-1.886769-1.805538-4.594462-2.994462-8.123077-3.56923-3.527385-0.574769-8.246154-0.861538-14.153846-0.861539h-77.046154c-5.579077 0-10.132923 0.286769-13.661539 0.861539-3.527385 0.574769-6.317538 1.805538-8.369231 3.692307-2.050462 1.886769-3.446154 4.513231-4.184615 7.876923-0.738462 3.363692-1.107692 7.917538-1.107692 13.661539v22.4c0 5.251692 0.369231 9.6 1.107692 13.046154 0.738462 3.446154 2.092308 6.153846 4.061539 8.123077 1.969231 1.969231 4.718769 3.363692 8.246153 4.184615 3.528615 0.820923 8.164923 1.230769 13.907693 1.230769h76.553846c5.907692 0 10.667077-0.409846 14.276923-1.230769 3.611077-0.820923 6.4-2.215385 8.369231-4.184615 1.969231-1.969231 3.282462-4.676923 3.938461-8.123077 0.657231-3.446154 0.984615-7.794462 0.984616-13.046154V276.923077z m-29.538462 15.261538c0 3.446154-0.369231 5.620923-1.107692 6.523077-0.738462 0.902154-2.584615 1.353846-5.538462 1.353846h-59.569231c-2.625231 0-4.307692-0.409846-5.046153-1.230769-0.738462-0.820923-1.107692-3.036308-1.107693-6.646154v-10.338461c0-2.132923 0.328615-3.486769 0.984616-4.061539 0.657231-0.574769 2.380308-0.861538 5.16923-0.861538h59.569231c3.118769 0 5.005538 0.286769 5.661539 0.861538 0.657231 0.574769 0.984615 1.928615 0.984615 4.061539v10.338461z m328.180923 120.615385c0-9.846154-4.923077-14.769231-14.769231-14.769231h-175.507692c-9.846154 0-14.769231 5.005538-14.769231 15.015385 0 5.086769 1.148308 8.861538 3.446154 11.323077 2.296615 2.461538 6.071385 3.692308 11.323077 3.692307h175.507692c5.250462 0 9.025231-1.353846 11.323077-4.061538 2.296615-2.707692 3.446154-6.440615 3.446154-11.2z m15.261539-170.338462c0-4.759385-1.149538-8.451692-3.446154-11.076923-2.297846-2.625231-6.072615-3.938462-11.323077-3.938461h-207.015385c-5.251692 0-8.984615 1.313231-11.2 3.938461-2.215385 2.625231-3.323077 6.317538-3.323077 11.076923 0 4.430769 1.107692 8.123077 3.323077 11.076924 2.215385 2.953846 5.948308 4.430769 11.2 4.430769h207.015385c5.250462 0 9.025231-1.476923 11.323077-4.430769 2.296615-2.953846 3.446154-6.646154 3.446154-11.076924zM905.846154 817.230769h-78.769231V896h-78.769231v-78.769231H275.692308V896h-78.769231v-78.769231H118.153846C74.704 817.102769 39.512615 781.911385 39.384615 738.461538v-787.692307c0.128-43.449846 35.319385-78.641231 78.769231-78.769231h787.692308c43.449846 0.128 78.641231 35.319385 78.769231 78.769231V738.461538c-0.128 43.449846-35.319385 78.641231-78.769231 78.769231z m0-866.461538H118.153846V659.692308h787.692308v-708.923077z"  horiz-adv-x="1024" />

    
    <glyph glyph-name="zhouri" unicode="&#58896;" d="M347.233231 375.630769c-4.923077 0-8.450462 0.902154-10.584616 2.707693-2.132923 1.805538-3.2 5.086769-3.2 9.846153 0 4.267077 1.067077 7.302154 3.2 9.107693 2.134154 1.805538 5.661538 2.707692 10.584616 2.707692h35.692307v6.646154c0 5.251692 1.888 9.107692 5.661539 11.569231h-55.630769c-3.938462 0-6.523077-0.492308-7.753846-1.476923-1.230769-0.984615-1.846154-3.117538-1.846154-6.4v-52.923077c0-15.753846-0.286769-29.825231-0.861539-42.215385-0.573538-12.390154-1.558154-23.630769-2.953846-33.723077-1.394462-10.092308-3.281231-19.240615-5.661538-27.446154a139.769846 139.769846 0 0 0-9.23077-23.630769c-2.625231-5.907692-5.619692-9.723077-8.984615-11.446154-3.363692-1.723077-7.425231-1.6-12.184615 0.369231-4.758154 2.297846-7.630769 5.128615-8.615385 8.492308-0.984615 3.363692-0.163692 8 2.461538 13.907692 3.446154 7.056 6.276923 14.113231 8.492308 21.169231 2.215385 7.056 3.980308 14.974769 5.292308 23.753846 1.313231 8.779077 2.215385 18.790154 2.707692 30.030769 0.492308 11.240615 0.738462 24.492308 0.738462 39.753846v62.523077c0 5.579077 0.411077 10.092308 1.230769 13.538462 0.820923 3.446154 2.257231 6.153846 4.307692 8.123077 2.051692 1.969231 4.759385 3.282462 8.123077 3.938461 3.364923 0.656 7.672615 0.984615 12.923077 0.984616h155.076923c5.088 0 9.313231-0.369231 12.676923-1.107693 3.364923-0.738462 6.072615-2.092308 8.123077-4.061538 2.051692-1.969231 3.488-4.676923 4.307692-8.123077 0.820923-3.446154 1.230769-7.959385 1.23077-13.538462v-171.076923c0-4.594462-0.532923-8.820923-1.6-12.676923-1.065846-3.856-2.912-7.097846-5.538462-9.723077-2.625231-2.625231-6.030769-4.636308-10.215384-6.030769-4.184615-1.394462-9.394462-1.928615-15.63077-1.6-7.056 0.328615-13.127385 0.902154-18.215384 1.723077-5.086769 0.820923-9.271385 1.805538-12.553846 2.953846-5.250462 1.805538-8.286769 4.307692-9.107693 7.507692-0.819692 3.2-0.327385 7.015385 1.476923 11.446154 1.641846 3.938462 3.938462 6.276923 6.892308 7.015385 2.953846 0.738462 7.057231 0.451692 12.307692-0.861539 5.415385-1.476923 9.682462-2.502154 12.8-3.076923 3.118769-0.574769 5.457231-0.697846 7.015385-0.36923 1.559385 0.328615 2.544 1.230769 2.953846 2.707692 0.411077 1.476923 0.615385 3.528615 0.615385 6.153846v155.076923c0 4.267077-0.450462 7.056-1.353846 8.369231-0.902154 1.313231-3.240615 1.969231-7.015385 1.969231h-57.846154c3.611077-2.132923 5.415385-5.990154 5.415385-11.569231v-6.646154h37.16923c2.461538 0 4.553846-0.082462 6.276924-0.246154 1.723077-0.163692 3.118769-0.656 4.184615-1.476923 1.067077-0.820923 1.846154-2.009846 2.338461-3.569231 0.492308-1.559385 0.738462-3.815385 0.738462-6.76923 0-4.923077-0.984615-8.205538-2.953846-9.846154-1.969231-1.640615-5.496615-2.461538-10.584616-2.461539h-37.16923v-15.261538h42.830769c4.759385 0 8.288-0.944 10.584615-2.830769 2.297846-1.886769 3.446154-5.128615 3.446154-9.723077 0-3.938462-1.065846-7.015385-3.2-9.23077-2.132923-2.215385-5.661538-3.323077-10.584615-3.323077h-114.953846c-4.923077 0-8.450462 1.107692-10.584616 3.323077-2.132923 2.215385-3.2 5.292308-3.2 9.23077s0.984615 7.015385 2.953846 9.230769c1.969231 2.215385 5.497846 3.323077 10.584616 3.323077h42.092307v15.261538h-35.692307z m116.184615-98.707692c0-5.744-0.327385-10.338462-0.984615-13.784615-0.656-3.446154-1.927385-6.071385-3.815385-7.876924-1.886769-1.805538-4.594462-2.994462-8.123077-3.56923-3.527385-0.574769-8.246154-0.861538-14.153846-0.861539h-77.046154c-5.579077 0-10.132923 0.286769-13.661538 0.861539-3.527385 0.574769-6.317538 1.805538-8.369231 3.692307-2.050462 1.886769-3.446154 4.513231-4.184615 7.876923-0.738462 3.363692-1.107692 7.917538-1.107693 13.661539v22.4c0 5.251692 0.369231 9.6 1.107693 13.046154 0.738462 3.446154 2.092308 6.153846 4.061538 8.123077 1.969231 1.969231 4.718769 3.363692 8.246154 4.184615 3.528615 0.820923 8.164923 1.230769 13.907692 1.230769h76.553846c5.907692 0 10.667077-0.409846 14.276923-1.230769 3.611077-0.820923 6.4-2.215385 8.369231-4.184615 1.969231-1.969231 3.282462-4.676923 3.938462-8.123077 0.657231-3.446154 0.984615-7.794462 0.984615-13.046154V276.923077z m-29.538461 15.261538c0 3.446154-0.369231 5.620923-1.107693 6.523077-0.738462 0.902154-2.584615 1.353846-5.538461 1.353846h-59.569231c-2.625231 0-4.307692-0.409846-5.046154-1.230769-0.738462-0.820923-1.107692-3.036308-1.107692-6.646154v-10.338461c0-2.132923 0.328615-3.486769 0.984615-4.061539 0.657231-0.574769 2.380308-0.861538 5.169231-0.861538h59.569231c3.118769 0 5.005538 0.286769 5.661538 0.861538 0.657231 0.574769 0.984615 1.928615 0.984616 4.061539v10.338461zM748.521846 253.538462c0-8.861538-2.790154-15.794462-8.369231-20.8-5.580308-5.005538-12.636308-7.507692-21.16923-7.507693h-121.353847c-8.534154 0-15.549538 2.502154-21.046153 7.507693-5.497846 5.005538-8.246154 11.938462-8.246154 20.8V408.615385c0 8.861538 2.748308 15.753846 8.246154 20.676923 5.496615 4.923077 12.512 7.384615 21.046153 7.384615h121.353847c10.009846 0 17.435077-2.461538 22.276923-7.384615 4.840615-4.923077 7.261538-11.815385 7.261538-20.676923v-155.076923z m-29.538461 144.246153c0 3.609846-0.451692 5.948308-1.353847 7.015385-0.903385 1.067077-2.749538 1.6-5.538461 1.6h-108.061539c-3.282462 0-5.169231-0.656-5.661538-1.969231-0.492308-1.313231-0.738462-2.871385-0.738462-4.676923V349.538462h121.353847v48.246153z m0-78.523077h-121.353847v-54.892307c0-3.774769 0.286769-6.194462 0.861539-7.261539 0.573538-1.067077 2.502154-1.6 5.784615-1.6h107.815385c3.773538 0 5.865846 1.067077 6.276923 3.2 0.409846 2.132923 0.615385 4.513231 0.615385 7.138462v53.415384zM905.846154 817.230769h-78.769231V896h-78.769231v-78.769231H275.692308V896h-78.769231v-78.769231H118.153846C74.704 817.102769 39.512615 781.911385 39.384615 738.461538v-787.692307c0.128-43.449846 35.319385-78.641231 78.769231-78.769231h787.692308c43.449846 0.128 78.641231 35.319385 78.769231 78.769231V738.461538c-0.128 43.449846-35.319385 78.641231-78.769231 78.769231z m0-866.461538H118.153846V659.692308h787.692308v-708.923077z"  horiz-adv-x="1024" />

    
    <glyph glyph-name="zhouwu" unicode="&#58897;" d="M332.464 375.630769c-4.923077 0-8.450462 0.902154-10.584615 2.707693-2.132923 1.805538-3.2 5.086769-3.2 9.846153 0 4.267077 1.067077 7.302154 3.2 9.107693 2.134154 1.805538 5.661538 2.707692 10.584615 2.707692h35.692308v6.646154c0 5.251692 1.888 9.107692 5.661538 11.569231h-55.630769c-3.938462 0-6.523077-0.492308-7.753846-1.476923-1.230769-0.984615-1.846154-3.117538-1.846154-6.4v-52.923077c0-15.753846-0.286769-29.825231-0.861539-42.215385-0.573538-12.390154-1.558154-23.630769-2.953846-33.723077-1.394462-10.092308-3.281231-19.240615-5.661538-27.446154a139.769846 139.769846 0 0 0-9.230769-23.630769c-2.625231-5.907692-5.619692-9.723077-8.984616-11.446154-3.363692-1.723077-7.425231-1.6-12.184615 0.369231-4.758154 2.297846-7.630769 5.128615-8.615385 8.492308-0.984615 3.363692-0.163692 8 2.461539 13.907692 3.446154 7.056 6.276923 14.113231 8.492307 21.169231 2.215385 7.056 3.980308 14.974769 5.292308 23.753846 1.313231 8.779077 2.215385 18.790154 2.707692 30.030769 0.492308 11.240615 0.738462 24.492308 0.738462 39.753846v62.523077c0 5.579077 0.411077 10.092308 1.230769 13.538462 0.820923 3.446154 2.257231 6.153846 4.307692 8.123077 2.051692 1.969231 4.759385 3.282462 8.123077 3.938461 3.364923 0.656 7.672615 0.984615 12.923077 0.984616h155.076923c5.088 0 9.313231-0.369231 12.676923-1.107693 3.364923-0.738462 6.072615-2.092308 8.123077-4.061538 2.051692-1.969231 3.488-4.676923 4.307693-8.123077 0.820923-3.446154 1.230769-7.959385 1.230769-13.538462v-171.076923c0-4.594462-0.532923-8.820923-1.6-12.676923-1.065846-3.856-2.912-7.097846-5.538462-9.723077-2.625231-2.625231-6.030769-4.636308-10.215384-6.030769-4.184615-1.394462-9.394462-1.928615-15.630769-1.6-7.056 0.328615-13.127385 0.902154-18.215385 1.723077-5.086769 0.820923-9.271385 1.805538-12.553846 2.953846-5.250462 1.805538-8.286769 4.307692-9.107693 7.507692-0.819692 3.2-0.327385 7.015385 1.476924 11.446154 1.641846 3.938462 3.938462 6.276923 6.892307 7.015385 2.953846 0.738462 7.057231 0.451692 12.307693-0.861539 5.415385-1.476923 9.682462-2.502154 12.8-3.076923 3.118769-0.574769 5.457231-0.697846 7.015384-0.36923 1.559385 0.328615 2.544 1.230769 2.953846 2.707692 0.411077 1.476923 0.615385 3.528615 0.615385 6.153846v155.076923c0 4.267077-0.450462 7.056-1.353846 8.369231-0.902154 1.313231-3.240615 1.969231-7.015385 1.969231h-57.846154c3.611077-2.132923 5.415385-5.990154 5.415385-11.569231v-6.646154h37.169231c2.461538 0 4.553846-0.082462 6.276923-0.246154 1.723077-0.163692 3.118769-0.656 4.184615-1.476923 1.067077-0.820923 1.846154-2.009846 2.338462-3.569231 0.492308-1.559385 0.738462-3.815385 0.738461-6.76923 0-4.923077-0.984615-8.205538-2.953846-9.846154-1.969231-1.640615-5.496615-2.461538-10.584615-2.461539h-37.169231v-15.261538h42.830769c4.759385 0 8.288-0.944 10.584616-2.830769 2.297846-1.886769 3.446154-5.128615 3.446153-9.723077 0-3.938462-1.065846-7.015385-3.2-9.23077-2.132923-2.215385-5.661538-3.323077-10.584615-3.323077h-114.953846c-4.923077 0-8.450462 1.107692-10.584616 3.323077-2.132923 2.215385-3.2 5.292308-3.2 9.23077s0.984615 7.015385 2.953847 9.230769c1.969231 2.215385 5.497846 3.323077 10.584615 3.323077h42.092308v15.261538h-35.692308z m116.184615-98.707692c0-5.744-0.327385-10.338462-0.984615-13.784615-0.656-3.446154-1.927385-6.071385-3.815385-7.876924-1.886769-1.805538-4.594462-2.994462-8.123077-3.56923-3.527385-0.574769-8.246154-0.861538-14.153846-0.861539h-77.046154c-5.579077 0-10.132923 0.286769-13.661538 0.861539-3.527385 0.574769-6.317538 1.805538-8.369231 3.692307-2.050462 1.886769-3.446154 4.513231-4.184615 7.876923-0.738462 3.363692-1.107692 7.917538-1.107692 13.661539v22.4c0 5.251692 0.369231 9.6 1.107692 13.046154 0.738462 3.446154 2.092308 6.153846 4.061538 8.123077 1.969231 1.969231 4.718769 3.363692 8.246154 4.184615 3.528615 0.820923 8.164923 1.230769 13.907692 1.230769h76.553847c5.907692 0 10.667077-0.409846 14.276923-1.230769 3.611077-0.820923 6.4-2.215385 8.36923-4.184615 1.969231-1.969231 3.282462-4.676923 3.938462-8.123077 0.657231-3.446154 0.984615-7.794462 0.984615-13.046154V276.923077z m-29.538461 15.261538c0 3.446154-0.369231 5.620923-1.107692 6.523077-0.738462 0.902154-2.584615 1.353846-5.538462 1.353846h-59.569231c-2.625231 0-4.307692-0.409846-5.046154-1.230769-0.738462-0.820923-1.107692-3.036308-1.107692-6.646154v-10.338461c0-2.132923 0.328615-3.486769 0.984615-4.061539 0.657231-0.574769 2.380308-0.861538 5.169231-0.861538h59.569231c3.118769 0 5.005538 0.286769 5.661538 0.861538 0.657231 0.574769 0.984615 1.928615 0.984616 4.061539v10.338461z m130.027077 115.692308c-5.744 0-9.476923 0.984615-11.2 2.953846-1.723077 1.969231-2.584615 5.744-2.584616 11.323077 0 4.923077 0.861538 8.574769 2.584616 10.953846 1.723077 2.379077 5.456 3.569231 11.2 3.569231h189.538461c5.250462 0 8.861538-1.190154 10.83077-3.569231 1.969231-2.379077 2.953846-6.030769 2.953846-10.953846 0-5.579077-0.984615-9.353846-2.953846-11.323077-1.969231-1.969231-5.580308-2.953846-10.83077-2.953846h-90.830769l-6.646154-42.338461h56.369231c5.907692 0 10.871385-0.492308 14.892308-1.476924 4.019692-0.984615 7.219692-2.667077 9.6-5.046153 2.379077-2.379077 4.061538-5.620923 5.046154-9.723077 0.984615-4.102154 1.476923-9.190154 1.476923-15.261539V256h21.661538c5.250462 0 8.861538-1.230769 10.830769-3.692308 1.969231-2.461538 2.953846-6.236308 2.953846-11.323077 0-5.907692-0.984615-9.763692-2.953846-11.56923-1.969231-1.805538-5.580308-2.707692-10.830769-2.707693h-211.938461c-5.251692 0-8.861538 0.902154-10.83077 2.707693-1.969231 1.805538-2.953846 5.661538-2.953846 11.56923 0 5.086769 0.984615 8.861538 2.953846 11.323077 1.969231 2.461538 5.579077 3.692308 10.83077 3.692308h55.384615l12.553846 79.753846h-48.738461c-5.251692 0-8.861538 1.271385-10.83077 3.815385-1.969231 2.544-2.953846 6.113231-2.953846 10.707692 0 4.267077 0.984615 7.876923 2.953846 10.830769 1.969231 2.953846 5.579077 4.430769 10.83077 4.43077h53.415384l6.646154 42.338461h-68.430769z m87.384615-72.123077l-12.553846-79.753846h74.338462v73.846154c0 2.790154-0.328615 4.471385-0.984616 5.046154-0.657231 0.574769-2.380308 0.861538-5.169231 0.861538h-55.630769zM905.846154 817.230769h-78.769231V896h-78.769231v-78.769231H275.692308V896h-78.769231v-78.769231H118.153846C74.704 817.102769 39.512615 781.911385 39.384615 738.461538v-787.692307c0.128-43.449846 35.319385-78.641231 78.769231-78.769231h787.692308c43.449846 0.128 78.641231 35.319385 78.769231 78.769231V738.461538c-0.128 43.449846-35.319385 78.641231-78.769231 78.769231z m0-866.461538H118.153846V659.692308h787.692308v-708.923077z"  horiz-adv-x="1024" />

    
    <glyph glyph-name="zhousi" unicode="&#58898;" d="M342.310154 375.630769c-4.923077 0-8.450462 0.902154-10.584616 2.707693-2.132923 1.805538-3.2 5.086769-3.2 9.846153 0 4.267077 1.067077 7.302154 3.2 9.107693 2.134154 1.805538 5.661538 2.707692 10.584616 2.707692h35.692308v6.646154c0 5.251692 1.888 9.107692 5.661538 11.569231h-55.630769c-3.938462 0-6.523077-0.492308-7.753846-1.476923-1.230769-0.984615-1.846154-3.117538-1.846154-6.4v-52.923077c0-15.753846-0.286769-29.825231-0.861539-42.215385-0.573538-12.390154-1.558154-23.630769-2.953846-33.723077-1.394462-10.092308-3.281231-19.240615-5.661538-27.446154a139.769846 139.769846 0 0 0-9.23077-23.630769c-2.625231-5.907692-5.619692-9.723077-8.984615-11.446154-3.363692-1.723077-7.425231-1.6-12.184615 0.369231-4.758154 2.297846-7.630769 5.128615-8.615385 8.492308-0.984615 3.363692-0.163692 8 2.461539 13.907692 3.446154 7.056 6.276923 14.113231 8.492307 21.169231 2.215385 7.056 3.980308 14.974769 5.292308 23.753846 1.313231 8.779077 2.215385 18.790154 2.707692 30.030769 0.492308 11.240615 0.738462 24.492308 0.738462 39.753846v62.523077c0 5.579077 0.411077 10.092308 1.230769 13.538462 0.820923 3.446154 2.257231 6.153846 4.307692 8.123077 2.051692 1.969231 4.759385 3.282462 8.123077 3.938461 3.364923 0.656 7.672615 0.984615 12.923077 0.984616h155.076923c5.088 0 9.313231-0.369231 12.676923-1.107693 3.364923-0.738462 6.072615-2.092308 8.123077-4.061538 2.051692-1.969231 3.488-4.676923 4.307693-8.123077 0.820923-3.446154 1.230769-7.959385 1.230769-13.538462v-171.076923c0-4.594462-0.532923-8.820923-1.6-12.676923-1.065846-3.856-2.912-7.097846-5.538462-9.723077-2.625231-2.625231-6.030769-4.636308-10.215384-6.030769-4.184615-1.394462-9.394462-1.928615-15.63077-1.6-7.056 0.328615-13.127385 0.902154-18.215384 1.723077-5.086769 0.820923-9.271385 1.805538-12.553846 2.953846-5.250462 1.805538-8.286769 4.307692-9.107693 7.507692-0.819692 3.2-0.327385 7.015385 1.476923 11.446154 1.641846 3.938462 3.938462 6.276923 6.892308 7.015385 2.953846 0.738462 7.057231 0.451692 12.307692-0.861539 5.415385-1.476923 9.682462-2.502154 12.8-3.076923 3.118769-0.574769 5.457231-0.697846 7.015385-0.36923 1.559385 0.328615 2.544 1.230769 2.953846 2.707692 0.411077 1.476923 0.615385 3.528615 0.615385 6.153846v155.076923c0 4.267077-0.450462 7.056-1.353846 8.369231-0.902154 1.313231-3.240615 1.969231-7.015385 1.969231h-57.846154c3.611077-2.132923 5.415385-5.990154 5.415385-11.569231v-6.646154h37.169231c2.461538 0 4.553846-0.082462 6.276923-0.246154 1.723077-0.163692 3.118769-0.656 4.184615-1.476923 1.067077-0.820923 1.846154-2.009846 2.338462-3.569231 0.492308-1.559385 0.738462-3.815385 0.738461-6.76923 0-4.923077-0.984615-8.205538-2.953846-9.846154-1.969231-1.640615-5.496615-2.461538-10.584615-2.461539h-37.169231v-15.261538h42.830769c4.759385 0 8.288-0.944 10.584615-2.830769 2.297846-1.886769 3.446154-5.128615 3.446154-9.723077 0-3.938462-1.065846-7.015385-3.2-9.23077-2.132923-2.215385-5.661538-3.323077-10.584615-3.323077h-114.953846c-4.923077 0-8.450462 1.107692-10.584616 3.323077-2.132923 2.215385-3.2 5.292308-3.2 9.23077s0.984615 7.015385 2.953846 9.230769c1.969231 2.215385 5.497846 3.323077 10.584616 3.323077h42.092308v15.261538h-35.692308z m116.184615-98.707692c0-5.744-0.327385-10.338462-0.984615-13.784615-0.656-3.446154-1.927385-6.071385-3.815385-7.876924-1.886769-1.805538-4.594462-2.994462-8.123077-3.56923-3.527385-0.574769-8.246154-0.861538-14.153846-0.861539h-77.046154c-5.579077 0-10.132923 0.286769-13.661538 0.861539-3.527385 0.574769-6.317538 1.805538-8.369231 3.692307-2.050462 1.886769-3.446154 4.513231-4.184615 7.876923-0.738462 3.363692-1.107692 7.917538-1.107693 13.661539v22.4c0 5.251692 0.369231 9.6 1.107693 13.046154 0.738462 3.446154 2.092308 6.153846 4.061538 8.123077 1.969231 1.969231 4.718769 3.363692 8.246154 4.184615 3.528615 0.820923 8.164923 1.230769 13.907692 1.230769h76.553846c5.907692 0 10.667077-0.409846 14.276924-1.230769 3.611077-0.820923 6.4-2.215385 8.36923-4.184615 1.969231-1.969231 3.282462-4.676923 3.938462-8.123077 0.657231-3.446154 0.984615-7.794462 0.984615-13.046154V276.923077z m-29.538461 15.261538c0 3.446154-0.369231 5.620923-1.107693 6.523077-0.738462 0.902154-2.584615 1.353846-5.538461 1.353846h-59.569231c-2.625231 0-4.307692-0.409846-5.046154-1.230769-0.738462-0.820923-1.107692-3.036308-1.107692-6.646154v-10.338461c0-2.132923 0.328615-3.486769 0.984615-4.061539 0.657231-0.574769 2.380308-0.861538 5.169231-0.861538h59.569231c3.118769 0 5.005538 0.286769 5.661538 0.861538 0.657231 0.574769 0.984615 1.928615 0.984616 4.061539v10.338461z m325.719384-38.892307c0-9.353846-1.805538-16.082462-5.415384-20.184616-3.611077-4.102154-10.174769-6.153846-19.692308-6.153846h-149.169231c-9.682462 0-16.369231 1.969231-20.061538 5.907692-3.692308 3.938462-5.538462 10.748308-5.538462 20.43077V413.784615c0 9.353846 1.927385 16.040615 5.784616 20.061539 3.856 4.020923 10.461538 6.030769 19.815384 6.030769h149.169231c9.517538 0 16.081231-2.009846 19.692308-6.030769 3.609846-4.020923 5.415385-10.707692 5.415384-20.061539v-160.492307z m-29.538461 30.523077h-21.169231c-7.384615 0-13.620923 0.861538-18.707692 2.584615-5.088 1.723077-9.149538 4.513231-12.184616 8.369231-3.036308 3.856-5.211077 8.861538-6.523077 15.015384-1.313231 6.153846-1.969231 13.661538-1.96923 22.523077v79.261539h-23.876923v-59.076923c0-17.723077-3.159385-32-9.476924-42.83077-6.318769-10.830769-16.451692-18.790154-30.4-23.876923-7.057231-2.625231-12.553846-2.625231-16.492307 0v-19.692307c0-4.759385 0.615385-7.753846 1.846154-8.984616s4.061538-1.846154 8.492307-1.846154h119.63077c4.430769 0 7.342769 0.574769 8.738461 1.723077 1.394462 1.148308 2.092308 3.938462 2.092308 8.369231v18.461539z m-31.753846 127.753846v-78.769231c0-8.205538 0.942769-13.702154 2.830769-16.492308 1.886769-2.790154 5.373538-4.184615 10.461538-4.184615h18.461539v89.846154c0 3.774769-0.820923 6.317538-2.461539 7.630769-1.641846 1.313231-4.430769 1.969231-8.36923 1.969231h-20.923077z m-109.046154-101.661539c1.640615 1.476923 4.512 2.953846 8.615384 4.43077 7.384615 2.790154 12.430769 7.302154 15.138462 13.538461 2.707692 6.236308 4.061538 14.523077 4.061538 24.861539v58.830769h-17.476923c-4.103385 0-6.851692-0.656-8.246154-1.969231-1.395692-1.313231-2.092308-3.609846-2.092307-6.892308v-92.8zM905.846154 817.230769h-78.769231V896h-78.769231v-78.769231H275.692308V896h-78.769231v-78.769231H118.153846C74.704 817.102769 39.512615 781.911385 39.384615 738.461538v-787.692307c0.128-43.449846 35.319385-78.641231 78.769231-78.769231h787.692308c43.449846 0.128 78.641231 35.319385 78.769231 78.769231V738.461538c-0.128 43.449846-35.319385 78.641231-78.769231 78.769231z m0-866.461538H118.153846V659.692308h787.692308v-708.923077z"  horiz-adv-x="1024" />

    
    <glyph glyph-name="zhousan" unicode="&#58899;" d="M333.694769 375.630769c-4.923077 0-8.450462 0.902154-10.584615 2.707693-2.132923 1.805538-3.2 5.086769-3.2 9.846153 0 4.267077 1.067077 7.302154 3.2 9.107693 2.134154 1.805538 5.661538 2.707692 10.584615 2.707692h35.692308v6.646154c0 5.251692 1.888 9.107692 5.661538 11.569231h-55.630769c-3.938462 0-6.523077-0.492308-7.753846-1.476923-1.230769-0.984615-1.846154-3.117538-1.846154-6.4v-52.923077c0-15.753846-0.286769-29.825231-0.861538-42.215385-0.573538-12.390154-1.558154-23.630769-2.953846-33.723077-1.394462-10.092308-3.281231-19.240615-5.661539-27.446154a139.769846 139.769846 0 0 0-9.230769-23.630769c-2.625231-5.907692-5.619692-9.723077-8.984616-11.446154-3.363692-1.723077-7.425231-1.6-12.184615 0.369231-4.758154 2.297846-7.630769 5.128615-8.615385 8.492308-0.984615 3.363692-0.163692 8 2.461539 13.907692 3.446154 7.056 6.276923 14.113231 8.492308 21.169231 2.215385 7.056 3.980308 14.974769 5.292307 23.753846 1.313231 8.779077 2.215385 18.790154 2.707693 30.030769 0.492308 11.240615 0.738462 24.492308 0.738461 39.753846v62.523077c0 5.579077 0.411077 10.092308 1.230769 13.538462 0.820923 3.446154 2.257231 6.153846 4.307693 8.123077 2.051692 1.969231 4.759385 3.282462 8.123077 3.938461 3.364923 0.656 7.672615 0.984615 12.923077 0.984616h155.076923c5.088 0 9.313231-0.369231 12.676923-1.107693 3.364923-0.738462 6.072615-2.092308 8.123077-4.061538 2.051692-1.969231 3.488-4.676923 4.307692-8.123077 0.820923-3.446154 1.230769-7.959385 1.230769-13.538462v-171.076923c0-4.594462-0.532923-8.820923-1.6-12.676923-1.065846-3.856-2.912-7.097846-5.538461-9.723077-2.625231-2.625231-6.030769-4.636308-10.215385-6.030769-4.184615-1.394462-9.394462-1.928615-15.630769-1.6-7.056 0.328615-13.127385 0.902154-18.215385 1.723077-5.086769 0.820923-9.271385 1.805538-12.553846 2.953846-5.250462 1.805538-8.286769 4.307692-9.107692 7.507692-0.819692 3.2-0.327385 7.015385 1.476923 11.446154 1.641846 3.938462 3.938462 6.276923 6.892307 7.015385 2.953846 0.738462 7.057231 0.451692 12.307693-0.861539 5.415385-1.476923 9.682462-2.502154 12.8-3.076923 3.118769-0.574769 5.457231-0.697846 7.015384-0.36923 1.559385 0.328615 2.544 1.230769 2.953847 2.707692 0.411077 1.476923 0.615385 3.528615 0.615384 6.153846v155.076923c0 4.267077-0.450462 7.056-1.353846 8.369231-0.902154 1.313231-3.240615 1.969231-7.015385 1.969231h-57.846153c3.611077-2.132923 5.415385-5.990154 5.415384-11.569231v-6.646154h37.169231c2.461538 0 4.553846-0.082462 6.276923-0.246154 1.723077-0.163692 3.118769-0.656 4.184615-1.476923 1.067077-0.820923 1.846154-2.009846 2.338462-3.569231 0.492308-1.559385 0.738462-3.815385 0.738461-6.76923 0-4.923077-0.984615-8.205538-2.953846-9.846154-1.969231-1.640615-5.496615-2.461538-10.584615-2.461539h-37.169231v-15.261538h42.830769c4.759385 0 8.288-0.944 10.584616-2.830769 2.297846-1.886769 3.446154-5.128615 3.446154-9.723077 0-3.938462-1.065846-7.015385-3.2-9.23077-2.132923-2.215385-5.661538-3.323077-10.584616-3.323077h-114.953846c-4.923077 0-8.450462 1.107692-10.584615 3.323077-2.132923 2.215385-3.2 5.292308-3.2 9.23077s0.984615 7.015385 2.953846 9.230769c1.969231 2.215385 5.497846 3.323077 10.584615 3.323077h42.092308v15.261538h-35.692308z m116.184616-98.707692c0-5.744-0.327385-10.338462-0.984616-13.784615-0.656-3.446154-1.927385-6.071385-3.815384-7.876924-1.886769-1.805538-4.594462-2.994462-8.123077-3.56923-3.527385-0.574769-8.246154-0.861538-14.153846-0.861539h-77.046154c-5.579077 0-10.132923 0.286769-13.661539 0.861539-3.527385 0.574769-6.317538 1.805538-8.369231 3.692307-2.050462 1.886769-3.446154 4.513231-4.184615 7.876923-0.738462 3.363692-1.107692 7.917538-1.107692 13.661539v22.4c0 5.251692 0.369231 9.6 1.107692 13.046154 0.738462 3.446154 2.092308 6.153846 4.061539 8.123077 1.969231 1.969231 4.718769 3.363692 8.246153 4.184615 3.528615 0.820923 8.164923 1.230769 13.907693 1.230769h76.553846c5.907692 0 10.667077-0.409846 14.276923-1.230769 3.611077-0.820923 6.4-2.215385 8.369231-4.184615 1.969231-1.969231 3.282462-4.676923 3.938461-8.123077 0.657231-3.446154 0.984615-7.794462 0.984616-13.046154V276.923077z m-29.538462 15.261538c0 3.446154-0.369231 5.620923-1.107692 6.523077-0.738462 0.902154-2.584615 1.353846-5.538462 1.353846h-59.569231c-2.625231 0-4.307692-0.409846-5.046153-1.230769-0.738462-0.820923-1.107692-3.036308-1.107693-6.646154v-10.338461c0-2.132923 0.328615-3.486769 0.984616-4.061539 0.657231-0.574769 2.380308-0.861538 5.16923-0.861538h59.569231c3.118769 0 5.005538 0.286769 5.661539 0.861538 0.657231 0.574769 0.984615 1.928615 0.984615 4.061539v10.338461zM749.998769 417.230769c0-4.759385-0.984615-8.409846-2.953846-10.953846-1.969231-2.544-5.907692-3.815385-11.815385-3.815385h-179.938461c-5.907692 0-9.846154 1.271385-11.815385 3.815385-1.969231 2.544-2.953846 6.113231-2.953846 10.707692 0 6.071385 0.984615 10.092308 2.953846 12.061539 1.969231 1.969231 5.907692 2.953846 11.815385 2.953846h179.938461c5.907692 0 9.846154-1.271385 11.815385-3.815385 1.969231-2.544 2.953846-6.194462 2.953846-10.953846z m-6.646154-84.184615c0-4.759385-0.984615-8.409846-2.953846-10.953846-1.969231-2.544-5.907692-3.815385-11.815384-3.815385h-164.184616c-5.907692 0-9.846154 1.353846-11.815384 4.061539-1.969231 2.707692-2.953846 6.276923-2.953847 10.707692 0 4.759385 0.984615 8.409846 2.953847 10.953846 1.969231 2.544 5.907692 3.815385 11.815384 3.815385h164.184616c5.907692 0 9.846154-1.271385 11.815384-3.815385 1.969231-2.544 2.953846-6.194462 2.953846-10.953846z m19.938462-91.323077c0-4.759385-0.984615-8.409846-2.953846-10.953846-1.969231-2.544-5.907692-3.815385-11.815385-3.815385h-206.523077c-5.907692 0-9.846154 1.353846-11.815384 4.061539-1.969231 2.707692-2.953846 6.276923-2.953847 10.707692 0 4.759385 0.984615 8.409846 2.953847 10.953846 1.969231 2.544 5.907692 3.815385 11.815384 3.815385h206.523077c5.907692 0 9.846154-1.271385 11.815385-3.815385 1.969231-2.544 2.953846-6.194462 2.953846-10.953846zM905.846154 817.230769h-78.769231V896h-78.769231v-78.769231H275.692308V896h-78.769231v-78.769231H118.153846C74.704 817.102769 39.512615 781.911385 39.384615 738.461538v-787.692307c0.128-43.449846 35.319385-78.641231 78.769231-78.769231h787.692308c43.449846 0.128 78.641231 35.319385 78.769231 78.769231V738.461538c-0.128 43.449846-35.319385 78.641231-78.769231 78.769231z m0-866.461538H118.153846V659.692308h787.692308v-708.923077z"  horiz-adv-x="1024" />

    
    <glyph glyph-name="zhouliu" unicode="&#58900;" d="M336.156308 368.390154c-4.923077 0-8.450462 0.903385-10.584616 2.707692-2.132923 1.805538-3.2 5.088-3.2 9.846154 0 4.267077 1.067077 7.303385 3.2 9.107692 2.134154 1.805538 5.661538 2.707692 10.584616 2.707693h35.692307v6.646153c0 5.251692 1.888 9.107692 5.661539 11.569231h-55.630769c-3.938462 0-6.523077-0.492308-7.753847-1.476923-1.230769-0.984615-1.846154-3.117538-1.846153-6.4v-52.923077c0-15.753846-0.286769-29.825231-0.861539-42.215384-0.573538-12.388923-1.558154-23.630769-2.953846-33.723077-1.394462-10.092308-3.281231-19.240615-5.661538-27.446154a139.769846 139.769846 0 0 0-9.23077-23.630769c-2.625231-5.907692-5.619692-9.723077-8.984615-11.446154-3.363692-1.723077-7.425231-1.6-12.184615 0.369231-4.758154 2.297846-7.630769 5.128615-8.615385 8.492307-0.984615 3.364923-0.163692 8 2.461538 13.907693 3.446154 7.057231 6.276923 14.113231 8.492308 21.16923 2.215385 7.057231 3.980308 14.974769 5.292308 23.753846 1.313231 8.780308 2.215385 18.790154 2.707692 30.03077 0.492308 11.241846 0.738462 24.492308 0.738462 39.753846v62.523077c0 5.580308 0.411077 10.092308 1.230769 13.538461 0.820923 3.446154 2.257231 6.153846 4.307692 8.123077 2.051692 1.969231 4.759385 3.282462 8.123077 3.938462 3.364923 0.657231 7.672615 0.984615 12.923077 0.984615h155.076923c5.088 0 9.313231-0.369231 12.676923-1.107692 3.364923-0.738462 6.072615-2.092308 8.123077-4.061539 2.051692-1.969231 3.488-4.676923 4.307692-8.123077 0.820923-3.446154 1.230769-7.958154 1.23077-13.538461v-171.076923c0-4.594462-0.532923-8.819692-1.6-12.676923-1.065846-3.856-2.912-7.096615-5.538462-9.723077-2.625231-2.625231-6.030769-4.635077-10.215385-6.030769-4.184615-1.394462-9.394462-1.927385-15.630769-1.6-7.056 0.328615-13.127385 0.903385-18.215384 1.723077-5.086769 0.820923-9.271385 1.805538-12.553847 2.953846-5.250462 1.805538-8.286769 4.307692-9.107692 7.507692-0.819692 3.2-0.327385 7.015385 1.476923 11.446154 1.641846 3.938462 3.938462 6.276923 6.892308 7.015384 2.953846 0.738462 7.057231 0.451692 12.307692-0.861538 5.415385-1.476923 9.682462-2.502154 12.8-3.076923 3.118769-0.573538 5.457231-0.696615 7.015385-0.369231 1.559385 0.328615 2.544 1.230769 2.953846 2.707692 0.411077 1.476923 0.615385 3.528615 0.615385 6.153847v155.076923c0 4.267077-0.450462 7.057231-1.353847 8.36923-0.902154 1.313231-3.240615 1.969231-7.015384 1.969231h-57.846154c3.611077-2.132923 5.415385-5.988923 5.415385-11.569231v-6.646153h37.16923c2.461538 0 4.553846-0.081231 6.276923-0.246154 1.723077-0.163692 3.118769-0.656 4.184616-1.476923 1.067077-0.819692 1.846154-2.009846 2.338461-3.569231 0.492308-1.558154 0.738462-3.815385 0.738462-6.769231 0-4.923077-0.984615-8.204308-2.953846-9.846154-1.969231-1.640615-5.496615-2.461538-10.584616-2.461538h-37.16923v-15.261539h42.830769c4.759385 0 8.288-0.942769 10.584615-2.830769 2.297846-1.886769 3.446154-5.127385 3.446154-9.723077 0-3.938462-1.065846-7.015385-3.2-9.230769-2.132923-2.215385-5.661538-3.323077-10.584615-3.323077h-114.953846c-4.923077 0-8.450462 1.107692-10.584616 3.323077-2.132923 2.215385-3.2 5.292308-3.2 9.230769s0.984615 7.015385 2.953846 9.230769c1.969231 2.215385 5.497846 3.323077 10.584616 3.323077h42.092307v15.261539h-35.692307z m116.184615-98.707692c0-5.742769-0.327385-10.338462-0.984615-13.784616-0.656-3.446154-1.927385-6.071385-3.815385-7.876923-1.886769-1.804308-4.594462-2.994462-8.123077-3.569231-3.527385-0.573538-8.246154-0.861538-14.153846-0.861538h-77.046154c-5.579077 0-10.132923 0.288-13.661538 0.861538-3.527385 0.574769-6.317538 1.805538-8.369231 3.692308-2.050462 1.888-3.446154 4.513231-4.184615 7.876923-0.738462 3.364923-1.107692 7.918769-1.107693 13.661539v22.4c0 5.251692 0.369231 9.6 1.107693 13.046153 0.738462 3.446154 2.092308 6.153846 4.061538 8.123077 1.969231 1.969231 4.718769 3.364923 8.246154 4.184616 3.528615 0.820923 8.164923 1.230769 13.907692 1.230769h76.553846c5.907692 0 10.667077-0.409846 14.276923-1.230769 3.611077-0.819692 6.4-2.215385 8.369231-4.184616 1.969231-1.969231 3.282462-4.676923 3.938462-8.123077 0.657231-3.446154 0.984615-7.794462 0.984615-13.046153v-22.4z m-29.538461 15.261538c0 3.446154-0.369231 5.620923-1.107693 6.523077-0.738462 0.903385-2.584615 1.353846-5.538461 1.353846h-59.569231c-2.625231 0-4.307692-0.409846-5.046154-1.230769-0.738462-0.819692-1.107692-3.035077-1.107692-6.646154v-10.338462c0-2.132923 0.328615-3.486769 0.984615-4.061538 0.657231-0.573538 2.380308-0.861538 5.169231-0.861538h59.569231c3.118769 0 5.005538 0.288 5.661538 0.861538 0.657231 0.574769 0.984615 1.928615 0.984616 4.061538v10.338462z m336.796307 85.907692c0-3.773538-1.190154-7.138462-3.569231-10.092307-2.380308-2.953846-6.030769-4.430769-10.953846-4.43077h-195.446154c-5.251692 0-8.944 1.476923-11.076923 4.43077-2.134154 2.953846-3.2 6.318769-3.2 10.092307 0 4.267077 1.065846 7.713231 3.2 10.338462 2.132923 2.626462 5.825231 3.938462 11.076923 3.938461h96.984616c-2.790154 1.313231-5.580308 5.088-8.369231 11.323077a99.585231 99.585231 0 0 1-6.153846 12.184616c-2.297846 3.857231-5.088 8.246154-8.369231 13.16923-2.790154 4.267077-3.446154 8.574769-1.969231 12.923077 1.476923 4.349538 4.430769 7.590154 8.861539 9.723077 3.938462 1.313231 7.465846 1.436308 10.584615 0.369231 3.117538-1.065846 6.563692-4.307692 10.338462-9.723077 2.296615-3.446154 4.635077-7.384615 7.015384-11.815384 2.379077-4.430769 4.553846-8.861538 6.523077-13.292308 3.281231-7.876923 4.142769-13.619692 2.584616-17.230769-1.559385-3.609846-4.882462-6.153846-9.969231-7.63077h87.384615c4.923077 0 8.573538-1.312 10.953846-3.938461 2.379077-2.625231 3.569231-6.071385 3.569231-10.338462z m-6.646154-131.446154c2.296615-4.265846 3.281231-8.246154 2.953847-11.938461-0.328615-3.692308-2.872615-7.015385-7.63077-9.969231-3.774769-2.296615-7.630769-2.871385-11.56923-1.723077-3.938462 1.149538-7.138462 4.349538-9.6 9.6a3966.119385 3966.119385 0 0 1-13.661539 27.076923 1148.551385 1148.551385 0 0 1-13.046154 24.861539 1054.013538 1054.013538 0 0 1-13.169231 23.630769c-4.430769 7.713231-9.107692 15.507692-14.030769 23.384615-1.969231 3.282462-3.036308 6.646154-3.2 10.092308-0.164923 3.446154 1.558154 6.974769 5.169231 10.584615 3.609846 2.790154 7.630769 3.897846 12.061538 3.323077 4.430769-0.573538 8.040615-3.240615 10.83077-8 4.758154-8.040615 9.353846-16 13.784615-23.876923 4.430769-7.876923 8.861538-15.917538 13.292308-24.123077 4.430769-8.204308 8.942769-16.656 13.538461-25.353846a1990.289231 1990.289231 0 0 0 14.276923-27.569231z m-132.676923 83.938462c-4.103385-10.665846-8.082462-20.430769-11.938461-29.292308-3.857231-8.861538-7.836308-17.230769-11.938462-25.107692-4.103385-7.876923-8.492308-15.342769-13.169231-22.4-4.676923-7.056-9.805538-14.112-15.384615-21.169231-4.759385-5.907692-9.313231-9.188923-13.661538-9.846154-4.349538-0.656-8.082462 0.492308-11.2 3.446154-3.282462 3.118769-4.841846 6.688-4.676923 10.707693 0.163692 4.020923 2.379077 8.657231 6.646153 13.907692 4.923077 5.907692 9.517538 12.061538 13.784616 18.461538 4.265846 6.4 8.369231 13.211077 12.307692 20.43077 3.938462 7.220923 7.671385 14.974769 11.2 23.261538 3.527385 8.288 7.015385 17.353846 10.461539 27.2 1.969231 5.415385 4.553846 9.353846 7.753846 11.815385 3.2 2.461538 6.932923 3.118769 11.2 1.96923 5.086769-1.148308 8.409846-3.773538 9.96923-7.876923 1.558154-4.102154 1.107692-9.271385-1.353846-15.507692zM905.846154 817.230769h-78.769231V896h-78.769231v-78.769231H275.692308V896h-78.769231v-78.769231H118.153846C74.704 817.102769 39.512615 781.911385 39.384615 738.461538v-787.692307c0.128-43.449846 35.319385-78.641231 78.769231-78.769231h787.692308c43.449846 0.128 78.641231 35.319385 78.769231 78.769231V738.461538c-0.128 43.449846-35.319385 78.641231-78.769231 78.769231z m0-866.461538H118.153846V659.692308h787.692308v-708.923077z"  horiz-adv-x="1024" />

    
    <glyph glyph-name="zhouyi" unicode="&#58902;" d="M333.694769 375.630769c-4.923077 0-8.450462 0.902154-10.584615 2.707693-2.132923 1.805538-3.2 5.086769-3.2 9.846153 0 4.267077 1.067077 7.302154 3.2 9.107693 2.134154 1.805538 5.661538 2.707692 10.584615 2.707692h35.692308v6.646154c0 5.251692 1.888 9.107692 5.661538 11.569231h-55.630769c-3.938462 0-6.523077-0.492308-7.753846-1.476923-1.230769-0.984615-1.846154-3.117538-1.846154-6.4v-52.923077c0-15.753846-0.286769-29.825231-0.861538-42.215385-0.573538-12.390154-1.558154-23.630769-2.953846-33.723077-1.394462-10.092308-3.281231-19.240615-5.661539-27.446154a139.769846 139.769846 0 0 0-9.230769-23.630769c-2.625231-5.907692-5.619692-9.723077-8.984616-11.446154-3.363692-1.723077-7.425231-1.6-12.184615 0.369231-4.758154 2.297846-7.630769 5.128615-8.615385 8.492308-0.984615 3.363692-0.163692 8 2.461539 13.907692 3.446154 7.056 6.276923 14.113231 8.492308 21.169231 2.215385 7.056 3.980308 14.974769 5.292307 23.753846 1.313231 8.779077 2.215385 18.790154 2.707693 30.030769 0.492308 11.240615 0.738462 24.492308 0.738461 39.753846v62.523077c0 5.579077 0.411077 10.092308 1.230769 13.538462 0.820923 3.446154 2.257231 6.153846 4.307693 8.123077 2.051692 1.969231 4.759385 3.282462 8.123077 3.938461 3.364923 0.656 7.672615 0.984615 12.923077 0.984616h155.076923c5.088 0 9.313231-0.369231 12.676923-1.107693 3.364923-0.738462 6.072615-2.092308 8.123077-4.061538 2.051692-1.969231 3.488-4.676923 4.307692-8.123077 0.820923-3.446154 1.230769-7.959385 1.230769-13.538462v-171.076923c0-4.594462-0.532923-8.820923-1.6-12.676923-1.065846-3.856-2.912-7.097846-5.538461-9.723077-2.625231-2.625231-6.030769-4.636308-10.215385-6.030769-4.184615-1.394462-9.394462-1.928615-15.630769-1.6-7.056 0.328615-13.127385 0.902154-18.215385 1.723077-5.086769 0.820923-9.271385 1.805538-12.553846 2.953846-5.250462 1.805538-8.286769 4.307692-9.107692 7.507692-0.819692 3.2-0.327385 7.015385 1.476923 11.446154 1.641846 3.938462 3.938462 6.276923 6.892307 7.015385 2.953846 0.738462 7.057231 0.451692 12.307693-0.861539 5.415385-1.476923 9.682462-2.502154 12.8-3.076923 3.118769-0.574769 5.457231-0.697846 7.015384-0.36923 1.559385 0.328615 2.544 1.230769 2.953847 2.707692 0.411077 1.476923 0.615385 3.528615 0.615384 6.153846v155.076923c0 4.267077-0.450462 7.056-1.353846 8.369231-0.902154 1.313231-3.240615 1.969231-7.015385 1.969231h-57.846153c3.611077-2.132923 5.415385-5.990154 5.415384-11.569231v-6.646154h37.169231c2.461538 0 4.553846-0.082462 6.276923-0.246154 1.723077-0.163692 3.118769-0.656 4.184615-1.476923 1.067077-0.820923 1.846154-2.009846 2.338462-3.569231 0.492308-1.559385 0.738462-3.815385 0.738461-6.76923 0-4.923077-0.984615-8.205538-2.953846-9.846154-1.969231-1.640615-5.496615-2.461538-10.584615-2.461539h-37.169231v-15.261538h42.830769c4.759385 0 8.288-0.944 10.584616-2.830769 2.297846-1.886769 3.446154-5.128615 3.446154-9.723077 0-3.938462-1.065846-7.015385-3.2-9.23077-2.132923-2.215385-5.661538-3.323077-10.584616-3.323077h-114.953846c-4.923077 0-8.450462 1.107692-10.584615 3.323077-2.132923 2.215385-3.2 5.292308-3.2 9.23077s0.984615 7.015385 2.953846 9.230769c1.969231 2.215385 5.497846 3.323077 10.584615 3.323077h42.092308v15.261538h-35.692308z m116.184616-98.707692c0-5.744-0.327385-10.338462-0.984616-13.784615-0.656-3.446154-1.927385-6.071385-3.815384-7.876924-1.886769-1.805538-4.594462-2.994462-8.123077-3.56923-3.527385-0.574769-8.246154-0.861538-14.153846-0.861539h-77.046154c-5.579077 0-10.132923 0.286769-13.661539 0.861539-3.527385 0.574769-6.317538 1.805538-8.369231 3.692307-2.050462 1.886769-3.446154 4.513231-4.184615 7.876923-0.738462 3.363692-1.107692 7.917538-1.107692 13.661539v22.4c0 5.251692 0.369231 9.6 1.107692 13.046154 0.738462 3.446154 2.092308 6.153846 4.061539 8.123077 1.969231 1.969231 4.718769 3.363692 8.246153 4.184615 3.528615 0.820923 8.164923 1.230769 13.907693 1.230769h76.553846c5.907692 0 10.667077-0.409846 14.276923-1.230769 3.611077-0.820923 6.4-2.215385 8.369231-4.184615 1.969231-1.969231 3.282462-4.676923 3.938461-8.123077 0.657231-3.446154 0.984615-7.794462 0.984616-13.046154V276.923077z m-29.538462 15.261538c0 3.446154-0.369231 5.620923-1.107692 6.523077-0.738462 0.902154-2.584615 1.353846-5.538462 1.353846h-59.569231c-2.625231 0-4.307692-0.409846-5.046153-1.230769-0.738462-0.820923-1.107692-3.036308-1.107693-6.646154v-10.338461c0-2.132923 0.328615-3.486769 0.984616-4.061539 0.657231-0.574769 2.380308-0.861538 5.16923-0.861538h59.569231c3.118769 0 5.005538 0.286769 5.661539 0.861538 0.657231 0.574769 0.984615 1.928615 0.984615 4.061539v10.338461z m343.934769 44.307693c0-4.759385-1.107692-8.451692-3.323077-11.076923-2.215385-2.625231-5.949538-3.938462-11.2-3.938462h-209.723077c-5.580308 0-9.353846 1.313231-11.323076 3.938462-1.969231 2.625231-2.953846 6.317538-2.953847 11.076923 0 4.430769 0.984615 8.123077 2.953847 11.076923 1.969231 2.953846 5.742769 4.430769 11.323076 4.430769h209.723077c5.250462 0 8.984615-1.476923 11.2-4.430769 2.215385-2.953846 3.323077-6.646154 3.323077-11.076923zM905.846154 817.230769h-78.769231V896h-78.769231v-78.769231H275.692308V896h-78.769231v-78.769231H118.153846C74.704 817.102769 39.512615 781.911385 39.384615 738.461538v-787.692307c0.128-43.449846 35.319385-78.641231 78.769231-78.769231h787.692308c43.449846 0.128 78.641231 35.319385 78.769231 78.769231V738.461538c-0.128 43.449846-35.319385 78.641231-78.769231 78.769231z m0-866.461538H118.153846V659.692308h787.692308v-708.923077z"  horiz-adv-x="1024" />

    
    <glyph glyph-name="biaoqian" unicode="&#59364;" d="M256 691.2v-664.1664l256 196.4032 256-196.4032V691.2H256z m0 51.2h512a51.2 51.2 0 0 0 51.2-51.2v-664.1664a51.2 51.2 0 0 0-82.3808-40.6528L512 158.9248l-224.8192-172.544A51.2 51.2 0 0 0 204.8 27.0336V691.2a51.2 51.2 0 0 0 51.2 51.2z"  horiz-adv-x="1024" />

    
    <glyph glyph-name="xitongweihu" unicode="&#58984;" d="M148.88448 305.61792c-11.19744 0-21.59616 3.99872-29.58848 12.00128L12.12416 424.78592C4.12672 432.78848-0.67072 445.58336 0.128 456.7808c0.79872 11.99104 5.60128 23.18848 13.5936 31.19104l39.18848 39.18848c8.79616 8.79616 18.39104 12.79488 31.19616 13.5936h4.79744l-11.20256 11.19744 244.73088 245.53472 18.39616-18.40128 1.60256 0.79872c35.98848 23.1936 69.5808 37.59104 99.968 43.1872a123.99104 123.99104 0 0 0 24.79616 2.40128c26.38848 0 47.98464-8.79616 64.77312-24.79104l22.39488-22.39488L448 671.11936l43.18208-43.1872-70.37952-70.38464 118.36928-118.36928-24.79104-24.79104-143.17056 143.16032L441.6 627.93216l-43.19232 43.1872L504.7808 777.48736l-0.80384 0.7936c-9.59488 8.00256-21.59616 11.99616-36.7872 11.99616-6.39488 0-12.00128-0.79872-18.40128-1.60256-27.99104-4.79744-61.58336-19.9936-99.968-46.3872l-11.19744-9.59488-14.40256 14.39744-196.73088-195.9424 22.39488-22.39488-41.58976-40.7808-15.19616 15.18592c-1.59744 1.60256-2.39616 2.4064-5.59616 2.4064-3.99872 0-6.39488-0.80384-8.80128-3.99872l-38.38464-39.18336c-2.40128-2.4064-3.99872-5.60128-3.99872-8.00256 0-3.2 0.79872-4.79744 1.59744-5.60128l107.17184-106.368c1.60256-1.60256 3.19488-2.40128 5.59616-2.40128 3.99872 0 7.1936 2.40128 9.6 3.99872l38.38464 38.38976c2.40128 2.39616 3.99872 4.80256 3.99872 7.99744 0 2.40128-0.7936 4.79744-2.39616 6.4l-15.19616 15.99488 41.58976 41.58464 22.39488-22.39488 61.58336 61.57824 142.35648-142.35136-24.79104-24.79616-119.168 118.36928-61.58336-61.58336-11.19232 11.19744v-4.79744c-0.79872-11.99616-5.60128-23.1936-13.59872-31.19104l-39.18848-38.38464c-7.99744-8.00256-18.39104-12.8-30.39232-13.59872l-1.59744-0.79872h-1.60256z m619.01312-363.08992c-8.79616 0-16 3.19488-21.60128 9.59488l-236.7232 252.7232 24.79104 23.99232 235.13088-251.12064 0.79872 0.7936 113.56672 114.37568 1.60256 2.39616-1.60256 2.40128-253.52704 225.53088 22.38976 25.59488 260.72576-230.33344c6.4-6.39488 9.6-13.5936 9.6-21.59104 0-11.20256-4.79744-21.59616-13.5936-28.79488l-112.768-112.76288c-8.79616-8.80128-19.19488-12.8-28.78976-12.8z m0 0M236.0576-54.27712c-23.1936 0-45.58848 8.79616-62.3872 25.59488-16.79872 16.7936-25.59488 38.38976-25.59488 62.38208 0 23.99744 8.79616 45.58848 25.59488 62.38208l423.07072 423.08096-0.7936 1.60256c-34.39104 62.37696-22.39488 142.35648 27.99104 193.54112l58.37824 58.38336c31.19616 31.18592 71.9872 47.98464 115.968 47.98464 32.78848 0 63.97952-9.6 91.17696-27.99104l17.59744-11.19744-132.76672-133.56032 75.98592-75.9808 135.15264 135.16288 11.19744-17.60256c43.19744-65.57696 34.39104-152.75008-20.79232-207.13472l-59.1872-59.1872c-31.19104-31.18592-71.97696-47.98464-115.95776-47.98464-27.19744 0-54.39488 6.4-78.3872 19.19488l-2.39616 0.79872-422.27712-422.27712c-15.18592-17.59232-38.37952-27.19232-61.57312-27.19232zM799.89248 787.08224a131.42016 131.42016 0 0 1-92.7744-38.38976l-58.38336-58.38336c-43.98592-43.1872-51.17952-111.96928-16.78848-163.94752l8.00256-11.19744-443.07968-443.07456c-20.79232-20.79232-20.79232-55.17824 0-75.9808 10.39872-10.3936 23.1936-15.19616 37.59104-15.19616 13.5936 0 27.99104 5.60128 38.38976 16l442.27072 442.2656 11.19232-7.99744c21.59616-13.5936 47.19104-21.59104 71.98208-21.59104a131.38944 131.38944 0 0 1 92.76928 38.38976l59.19232 59.18208c37.58592 37.58592 48.78336 95.17568 27.99104 143.16032l-0.80384 2.40128-127.95904-127.96928-123.96032 123.16672 127.95904 127.95904-2.40128 0.80384c-16 7.19872-32.79872 10.39872-51.18976 10.39872z m0 0"  horiz-adv-x="1024" />

    
    <glyph glyph-name="lianjie" unicode="&#58999;" d="M696.674462 423.778462l-36.233847 36.233846 56.39877 56.398769L644.450462 588.8 588.012308 532.440615l-36.194462 36.233847 224.964923 224.964923 144.817231-144.777847-224.964923-225.083076z m-224.492308-224.137847l-224.964923-225.083077L102.4 119.414154l225.004308 225.004308 36.312615-36.352L307.2 251.588923 379.628308 179.2l56.516923 56.477538 36.036923-36.036923zM994.067692 721.250462L849.250462 866.067692a102.478769 102.478769 0 0 1-144.817231 0l-225.004308-225.004307a102.518154 102.518154 0 0 1 0-144.817231l36.194462-36.233846-79.478154-79.478154-36.352 36.273231a102.518154 102.518154 0 0 1-144.817231 0L29.932308 191.803077a102.518154 102.518154 0 0 1 0-144.817231l144.856615-144.777846a102.478769 102.478769 0 0 1 144.777846 0l225.043693 225.004308a102.478769 102.478769 0 0 1 0 144.81723l-36.076308 36.036924 79.556923 79.517538 36.115692-36.155077a102.518154 102.518154 0 0 1 144.856616 0l225.004307 224.964923a102.596923 102.596923 0 0 1 0 144.856616z"  horiz-adv-x="1024" />

    
    <glyph glyph-name="ziyuan" unicode="&#58947;" d="M1028.275574-128h-997.63396a31.35421 31.35421 0 0 0-30.641614 31.35421 30.641614 30.641614 0 0 0 30.641614 30.641615h997.63396a31.35421 31.35421 0 0 0 31.35421-30.641615 31.35421 31.35421 0 0 0-31.35421-31.35421zM845.851079 14.519137H213.778706V330.91162099999997a316.392484 316.392484 0 0 0 632.072373 0z m-570.076549 61.995825H783.855254V330.91162099999997a254.39666 254.39666 0 0 1-508.080724 0zM529.458594 691.485038A31.35421 31.35421 0 0 0 498.81698 722.839248v142.519138A30.641614 30.641614 0 0 0 529.458594 896a31.35421 31.35421 0 0 0 31.35421-30.641614v-142.519138a31.35421 31.35421 0 0 0-31.35421-31.35421zM223.755045 570.343772a33.491997 33.491997 0 0 0-22.090466 8.551148L101.188587 682.221294A30.641614 30.641614 0 0 0 142.519137 723.551844l103.326374-100.475992a32.779402 32.779402 0 0 0 0-44.180932 33.491997 33.491997 0 0 0-22.090466-8.551148zM835.874739 570.343772a30.641614 30.641614 0 0 0-22.090466 8.551148 31.35421 31.35421 0 0 0 0 44.180932l100.475991 100.475992a31.35421 31.35421 0 0 0 44.180933 0 32.066806 32.066806 0 0 0 0-43.468337L855.114823 578.89492a29.929019 29.929019 0 0 0-19.240084-8.551148z"  horiz-adv-x="1059" />

    
    <glyph glyph-name="shoucangjia" unicode="&#58903;" d="M856.8 813.2H386.1c-40.4 43.2-135.5 67-188.9 67-94.9 0-175.8-70.5-188.9-164.4-5.6-16-8.3-31.3-8.3-46.7v-603.7c0-98.7 80.3-179.2 179.2-179.2h695.7c82 0 148.8 66.7 148.8 148.8V646.2c0 92.2-74.8 167-166.9 167z m0-30.4c60 0 110.5-39.2 128.7-93.2H627.2l-183.5 93.2h413.1z m136.6-747.7c0-65.3-53.1-118.4-118.4-118.4H179.3c-82-0.1-148.9 66.7-148.9 148.8V669.2c0 12.3 2.3 24.7 7 38l0.8 3.2c10.5 79.4 78.7 139.5 159.1 139.5 56.2 0 142.9-26.7 170.1-61.2l4.6-5.8h2.6l242.3-120.3h374.9c0.6-5.3 1.6-10.6 1.6-16.1v-611.4z m0 0M201.3 53.4h791v-27.8h-791v27.8z m-92.9 0h30.3v-30.3h-30.3v30.3z m258 260L346.1 202.2c-1.9-10.7 2.3-21.3 11-27.8 8.8-6.5 20.1-7.4 29.8-2.5l98.7 51.6 99.5-53.6c4.3-2.3 8.9-3.4 13.5-3.4 5.7 0 11.5 1.8 16.4 5.3 8.8 6.3 13.3 16.8 11.6 27.6L608.1 309.2l81.8 78c7.8 7.5 10.7 18.6 7.5 29-3.3 10.4-12 17.8-22.7 19.5L564.5 452l-49 101.9c-4.7 9.8-14.4 15.9-25.2 16.1-9.7 0.5-20.7-5.8-25.6-15.5L415.1 454.9l-112-15.1c-10.7-1.5-19.6-8.8-23.1-19.1s-0.8-21.4 6.9-29.1l79.5-78.2z m52.8 111.3c9.2 1.2 17.2 6.9 21.5 15.3l49.2 97.2 47.2-98.3c4.1-8.4 12-14.3 21.2-15.7L666.1 406.4l-78.8-75.2c-6.7-6.4-9.9-15.7-8.4-25l18.5-108.3-97.3 52.3c-4.2 2.3-8.8 3.4-13.4 3.4-4.4 0-8.9-1-13-3.1l-97-49.7 19.6 107.3c1.7 9.2-1.3 18.6-7.9 25.1l-77.3 77 108.1 14.5z m0 0"  horiz-adv-x="1024" />

    
    <glyph glyph-name="icon-" unicode="&#58982;" d="M445.257143 446.96646a108.124224 108.124224 0 1 0 107.700207 108.124223 108.124224 108.124224 0 0 0-107.700207-108.124223z m0 173.422774a65.722567 65.722567 0 1 1 65.298551-65.298551 65.298551 65.298551 0 0 1-65.298551 65.298551zM600.023188 281.175983a21.200828 21.200828 0 0 0-21.200828 21.200829 135.261284 135.261284 0 1 1-270.09855 0 21.200828 21.200828 0 0 0-21.200829-21.200829 21.624845 21.624845 0 0 0-21.200828 21.200829 177.66294 177.66294 0 1 0 354.901864 0 21.624845 21.624845 0 0 0-21.200829-21.200829zM445.257143 5.565217a445.217391 445.217391 0 1 0 445.217391 445.217392 446.065424 446.065424 0 0 0-445.217391-445.217392z m0 805.63147a360.414079 360.414079 0 1 1 360.414079-360.414078 360.838095 360.838095 0 0 1-360.414079 360.414078zM975.277847-121.639752a42.401656 42.401656 0 0 0-30.105176 12.720497l-212.008282 212.008282a42.401656 42.401656 0 1 0 59.786336 59.786335l212.008281-212.008281a42.401656 42.401656 0 0 0 0-59.786336 42.401656 42.401656 0 0 0-29.681159-12.720497z"  horiz-adv-x="1024" />

    
    <glyph glyph-name="weibiaoti--" unicode="&#58904;" d="M121.3 219.6m-40.9 0a40.9 40.9 0 1 1 81.8 0 40.9 40.9 0 1 1-81.8 0ZM266.5 44.4m-40.9 0a40.9 40.9 0 1 1 81.8 0 40.9 40.9 0 1 1-81.8 0ZM512 864.4C252.8 864.4 42.6 654.3 42.6 395c0-69 14.9-134.6 41.7-193.6l74.2 35.4c-21.7 48.3-33.7 101.8-33.7 158.2 0 213.8 173.3 387.2 387.2 387.2S899.2 608.9 899.2 395 725.8 7.9 512 7.9c-81.9 0-157.9 25.4-220.4 68.8l-51.2-57.2c1.5-0.7 2.5-2.1 2.5-3.6s0.3-3.2-1.2-3.9c76.7-54.5 169.2-86.2 270.4-86.2 259.2 0 469.4 210.1 469.4 469.4S771.2 864.4 512 864.4zM379.9 547.2c11.3 19.6 36.4 26.3 55.9 15l226.6-130.9c19.6-11.3 26.3-36.4 15-55.9-11.3-19.6-36.4-26.3-55.9-15L394.9 491.3c-19.6 11.3-26.3 36.3-15 55.9zM416.2 567.7c22.6 0 41-18.3 41-41V265c0-22.6-18.3-41-41-41-22.6 0-41 18.3-41 41V526.8c0 22.6 18.4 40.9 41 40.9zM677.5 417.4c11.5-19.5 5.1-44.6-14.4-56.1L437.8 228.1c-19.5-11.5-44.6-5.1-56.1 14.4s-5.1 44.6 14.4 56.1l225.3 133.2c19.5 11.5 44.6 5 56.1-14.4z"  horiz-adv-x="1024" />

    
    <glyph glyph-name="yonghutianjia" unicode="&#58942;" d="M926.8 152.6h-92.5v93.2c0 18.6-15.1 33.9-33.6 33.9s-33.6-15.2-33.6-33.9v-93.2h-92.5c-18.5 0-33.6-15.2-33.6-33.9 0-18.6 15.1-33.9 33.6-33.9H767v-93.2c0-18.6 15.1-33.9 33.6-33.9s33.6 15.2 33.6 33.9v93.2h92.5c18.5 0 33.6 15.2 33.6 33.9 0.1 18.6-15 33.9-33.5 33.9zM450.8 338.9c-112.7 0-205.2 91.5-205.2 206.7 0 115.2 92.5 205 205.2 205 112.7 0 205.2-91.5 205.2-206.7s-92.5-205-205.2-205zM651 206.8c5-5.1 13.5-8.5 21.9-8.5 18.5 0 32 15.3 32 32.2 0 10.2-5 20.3-13.5 27.1-32 25.4-67.3 42.4-99.2 52.5 77.4 49.1 131.2 133.8 131.2 233.8C723.3 694.7 600.5 815 452.5 815c-149.7 0-270.7-122-270.7-272.8 0-98.3 50.4-184.7 129.5-232.1C85.9 230.5 65.8-1.6 65.8-5c-1.7-18.6 11.8-35.6 30.3-35.6 18.5-1.7 35.3 11.9 37 30.5 0 11.9 25.2 264.3 316.1 281.2 5 0.1 111 5.2 201.8-64.3-1.7 0-1.7 0 0 0z"  horiz-adv-x="1024" />

    
    <glyph glyph-name="quanxianguanli" unicode="&#59096;" d="M473.021842 446.430197a176.107443 176.107443 0 1 0 176.107443 176.107443 176.396975 176.396975 0 0 0-176.107443-176.107443z m0 297.20393a121.096487 121.096487 0 1 1 121.096487-121.096487 121.16887 121.16887 0 0 1-121.096487 121.16887zM472.298014 3.664381H72.382837a17.516647 17.516647 0 0 0-17.661412 17.661412V823.54478A17.516647 17.516647 0 0 0 72.382837 840.989044h802.653284a17.516647 17.516647 0 0 0 17.661412-17.661413v-335.204919a27.360713 27.360713 0 0 1 27.505478-27.505479 27.360713 27.360713 0 0 1 27.505478 27.505479V823.54478a72.382837 72.382837 0 0 1-72.382837 72.382837H72.382837a72.382837 72.382837 0 0 1-72.382837-72.382837v-802.580901a72.382837 72.382837 0 0 1 72.382837-72.382837h399.698028a27.360713 27.360713 0 0 1 27.505478 27.505478 27.650244 27.650244 0 0 1-27.288329 27.577861zM691.835159 297.466318a27.577861 27.577861 0 0 1 21.714852 44.443062 293.078108 293.078108 0 0 1-27.143564 31.197003 300.605924 300.605924 0 0 1-513.339083-212.371245 28.084541 28.084541 0 0 1 26.78165-28.156924 27.28833 27.28833 0 0 1 28.156924 27.505479 246.101647 246.101647 0 0 0 442.11437 148.240051 27.28833 27.28833 0 0 1 21.714851-10.857426zM684.741641-127.638086a130.289107 130.289107 0 1 0 92.288118 38.00099 130.289107 130.289107 0 0 0-92.288118-38.00099z m0 192.683113a61.887326 61.887326 0 0 1-44.081148-18.312858 62.24924 62.24924 0 0 1 0-88.234678 62.683537 62.683537 0 0 1 88.52421 0 62.24924 62.24924 0 0 1 0 88.234678 63.190217 63.190217 0 0 1-44.443062 18.023327z m-68.184632 5.790627zM760.381706 43.69209a34.743762 34.743762 0 0 0-24.103484 9.844066 33.802785 33.802785 0 0 0 0 47.845056l230.394571 230.394571a33.802785 33.802785 0 1 0 47.845055-47.845056l-230.394571-230.394571a33.368488 33.368488 0 0 0-23.741571-9.844066zM836.7456 147.199548a34.743762 34.743762 0 0 0-24.103485 9.844065l-39.014349 39.376264a33.802785 33.802785 0 0 0 47.845055 47.845055l39.376264-39.376263a33.802785 33.802785 0 0 0 0-47.845056 33.296105 33.296105 0 0 0-24.103485-9.844065zM918.538206 228.63024a34.743762 34.743762 0 0 0-24.103485 9.844066l-39.376263 39.376263a33.802785 33.802785 0 0 0 47.845055 47.845056l39.376264-39.376264a33.730402 33.730402 0 0 0-23.741571-57.90627z"  horiz-adv-x="1025" />

    
    <glyph glyph-name="shanchu" unicode="&#58953;" d="M512 864A479.3344 479.3344 0 0 0 992 384 479.3344 479.3344 0 0 0 512-96 479.3344 479.3344 0 0 0 32 384 479.3344 479.3344 0 0 0 512 864zM512-128C230.4-128 0 102.4 0 384S230.4 896 512 896s512-230.4 512-512-230.4-512-512-512z m0 960c-246.4256 0-448-201.6256-448-448 0-246.4256 201.6256-448 448-448 246.4256 0 448 201.6256 448 448 0 246.4256-201.6256 448-448 448zM320 416h384c19.2 0 32-12.8 32-32s-12.8-32-32-32h-384c-19.2 0-32 12.8-32 32s12.8 32 32 32z"  horiz-adv-x="1024" />

    
    <glyph glyph-name="shouye-fangqu" unicode="&#58996;" d="M870.4 133.12H552.96v117.76c0 89.6 69.12 158.72 158.72 158.72 87.04 0 158.72-71.68 158.72-158.72v-117.76z m-266.24 51.2H819.2v66.56c0 58.88-48.64 107.52-107.52 107.52-61.44 0-107.52-46.08-107.52-107.52v-66.56zM870.4 40.96H550.4c-12.8 0-25.6 10.24-25.6 25.6v2.56c0 12.8 10.24 25.6 25.6 25.6H870.4c12.8 0 25.6-12.8 25.6-25.6v-2.56c0-15.36-12.8-25.6-25.6-25.6zM632.32 250.88h53.76v-104.96h-53.76zM473.6 84.48H176.64v148.48h99.84V281.6H176.64v202.24h99.84v48.64H176.64V678.4h99.84v-97.28h199.68V678.4h99.84v-97.28h145.92V678.4h99.84V532.48h-48.64v-48.64h48.64v-56.32c17.92-10.24 35.84-25.6 48.64-40.96V732.16h-197.12v-99.84h-48.64V732.16h-197.12v-99.84h-99.84V732.16H128v-696.32h345.6v48.64zM376.32 409.6h-99.84v-51.2h99.84v51.2z m161.28-2.56h-64V358.4h25.6c10.24 17.92 23.04 35.84 38.4 48.64z m-61.44 128h-99.84V486.4h99.84v48.64z m197.12-51.2v48.64h-99.84v-48.64H673.28zM276.48 135.68h99.84v48.64h-99.84v-48.64z m197.12 148.48h-99.84v-48.64h99.84v48.64z"  horiz-adv-x="1024" />

    
    <glyph glyph-name="GB" unicode="&#58905;" d="M822.3 384.3c0 31.1-5.5 63-17 97.3-30.5 92-103.7 165.2-195.8 195.7-68.4 22.8-125.6 22.8-194.5 0-92-30.6-165.2-103.8-195.8-195.7-11.4-34.3-17-66.1-17-97.3s5.5-63 17-97.3c30.5-92 103.7-165.2 195.7-195.7 34.4-11.4 66.2-17 97.3-17 31.2 0 63 5.6 97.2 17C701.5 121.8 774.7 195 805.2 287c11.5 34.4 17.1 66.2 17.1 97.3z m-191.9-57.1V441.5h122.5c5.1-19.9 8.5-39 8.5-57.2 0-18.1-3.4-37.3-8.5-57.2H630.4z m-358.7 0c-5.1 19.9-8.5 39-8.5 57.2 0 18.1 3.4 37.3 8.5 57.2h122.4v-114.3H271.7z m183.4 114.3h114.3v-114.3H455.1V441.5z m273.5 61h-98.3v98.2c41.6-22.8 75.6-56.7 98.3-98.2zM569.4 624.9v-122.5H455.1V624.9c39.5 10.3 74.9 10.2 114.3 0z m-175.3-24.2v-98.2h-98.2c22.8 41.5 56.7 75.4 98.2 98.2z m-98.2-334.5h98.2V168c-41.5 22.7-75.4 56.7-98.2 98.2z m159.2-122.5V266.2h114.3v-122.5c-39.4-10.2-74.8-10.2-114.3 0zM630.4 168v98.2h98.3c-22.8-41.5-56.8-75.5-98.3-98.2z"  horiz-adv-x="1024" />

    
    <glyph glyph-name="square" unicode="&#58906;" d="M0 896m102.4 0l819.2 0q102.4 0 102.4-102.4l0-819.2q0-102.4-102.4-102.4l-819.2 0q-102.4 0-102.4 102.4l0 819.2q0 102.4 102.4 102.4Z"  horiz-adv-x="1024" />

    
    <glyph glyph-name="jiqunguanli" unicode="&#58884;" d="M374.1 692.1v-211.5l183.4-105.7L740 480.6V692.1L557.5 797.8zM646.7 226.6v-211.4l182.4-105.7 183.5 105.7V226.6L829.1 332.4zM117 228.7v-211.4l183.5-105.8 183.4 105.8V228.7L300.5 334.5zM509.8 328.2l-244.6 141v283l244.6 141 244.6-141v-283l-244.6-141zM331.6 507.6L509.9 405l178.3 102.6V713.8L509.8 816.4 331.6 713.8v-206.2zM248.6-127.9L4 13.1v283l244.6 141 244.6-141v-283l-244.6-141zM70.3 51.5l178.3-102.6 178.3 102.6V257.7L248.6 360.4 70.3 257.7v-206.2zM774.2-126.8l-244.6 141v283l244.6 141 244.6-141v-283l-244.6-141zM594.8 52.5l178.3-102.6 178.3 102.6V258.8L773.1 361.4 594.8 258.8v-206.3zM642.5 698.3l-126.4-73.6-124.4 73.6L515 769.8zM374.1 229.8l-125.5-72.6-125.4 73.6 123.4 70.5zM899.6 228.7l-126.5-72.5-124.4 73.6 123.4 70.4z"  horiz-adv-x="1024" />

    
    <glyph glyph-name="shipin1" unicode="&#58981;" d="M667.733333 459.52v-146.346667l270.933334-161.706666v469.333333zM701.013333 667.733333H135.253333c-27.306667 0-49.92-22.186667-49.92-49.92v-463.786666c0-27.306667 22.186667-49.92 49.92-49.92h566.186667c27.306667 0 49.92 22.186667 49.92 49.92V618.24c-0.426667 27.306667-22.613333 49.493333-50.346667 49.493333z m-399.786666-456.533333v349.866667l285.013333-174.933334-285.013333-174.933333z"  horiz-adv-x="1024" />

    
    <glyph glyph-name="bofang" unicode="&#58887;" d="M422.9 183.3c-4.4 0-8 3.6-8 8V592.9c0 4.4 3.6 8 8 8s8-3.6 8-8v-401.6c0-4.4-3.6-8-8-8zM610.8 183.3c-4.4 0-8 3.6-8 8V592.9c0 4.4 3.6 8 8 8s8-3.6 8-8v-401.6c0-4.4-3.6-8-8-8z"  horiz-adv-x="1024" />

    
    </font>
</defs>
</svg>
