<?xml version="1.0" standalone="no"?>
<!DOCTYPE svg PUBLIC "-//W3C//DTD SVG 1.1//EN" "http://www.w3.org/Graphics/SVG/1.1/DTD/svg11.dtd" >
<!--
2013-9-30: Created.
-->
<svg>
<metadata>
Created by iconfont
</metadata>
<defs>

<font id="iconfont" horiz-adv-x="1024" >
  <font-face
    font-family="iconfont"
    font-weight="500"
    font-stretch="normal"
    units-per-em="1024"
    ascent="896"
    descent="-128"
  />
    <missing-glyph />
    
    <glyph glyph-name="icon-test3" unicode="&#59054;" d="M1033.976885 793.082136H496.476504l-62.568784 92.06754A30.631793 30.631793 0 0 1 406.755737 895.767722H75.048323a71.451229 71.451229 0 0 1-51.334185-19.294974C9.828256 863.509005 1.69256 845.513849 1.076008 826.523385V580.992369a78.740107 78.740107 0 0 0 23.050241 55.656509A78.703522 78.703522 0 0 0 79.77415 659.691588h944.361567a78.70675 78.70675 0 0 0 55.656509-23.04271 78.761627 78.761627 0 0 0 23.041633-55.656509V717.135346c1.789401 39.923121-28.951069 73.820598-68.856974 75.94679zM1024.135717 658.981422H79.77415C36.315267 658.981422 1.076008 623.734631 1.076008 580.28328v-629.586214c0-43.451351 35.239259-78.698142 78.698142-78.698142h944.361567c20.881009 0 40.902289 8.272349 55.656509 23.058849a78.693838 78.693838 0 0 1 23.041633 55.639293V580.28328a78.688458 78.688458 0 0 1-23.041633 55.638217 78.650798 78.650798 0 0 1-55.656509 23.059925zM660.793671 506.582119l149.73188-139.603418v-298.856892c0-23.46558-20.408642-42.47326-45.577543-42.47326H340.18528c-25.151685 0-45.570011 19.00768-45.570011 42.47326V464.076578c0 23.464504 20.41725 42.50554 45.586151 42.505541h320.592251z m123.50096-148.956079v-0.945811H682.081412c-18.011296 0-32.698804 13.60612-32.698805 30.352031v95.79806l134.912024-125.20428z m-19.515556-308.242909H340.362821c-10.753623 0-19.514479 8.170128-19.51448 18.19637V463.383629c0 10.044534 8.760856 18.197446 19.51448 18.197446h283.748665v-95.899205c0-30.115309 26.266429-54.626769 58.542362-54.626769h101.639707v-263.4756c0.001076-10.026242-8.778072-18.19637-19.51448-18.19637z m-132.564174 235.249761c12.491376-6.684161 19.650056-16.644766 19.650057-27.24452 0-10.668618-7.157605-20.594791-19.650057-27.313385l-109.430004-58.81244c-7.039244-3.782168-14.010699-5.70607-20.746508-5.70607-14.947902 0-30.038913 10.196251-30.038913 32.985022V316.167456c0 22.788771 15.091011 33.018379 30.038913 33.018378 6.735809 0 13.707265-1.923902 20.746508-5.704994l109.430004-58.847948z m-10.313536-35.752515l-109.388039-59.083594c-4.582718-2.49849-7.874226-3.00529-9.823952-3.00529-7.13178 0-8.195952 7.967839-8.195953 12.728097V317.685703c0 4.794691 1.063096 12.761454 8.195953 12.761453 1.949726 0 5.241235-0.540156 9.823952-3.004214l109.388039-59.082518c5.486564-2.971934 8.74364-6.583016 8.743641-9.757239 0-3.139791-3.258152-6.753026-8.743641-9.722808zM340.835188 412.893034v39.973694h42.480792v-39.973694h-42.480792z m0-81.229989v40.008126h42.480792v-40.008126h-42.480792z m0-81.163276v39.973694h42.480792v-39.973694h-42.480792z m0-81.195557v39.973694h42.480792v-39.973694h-42.480792z m0-81.196632v39.973694h42.480792v-39.973694h-42.480792z m371.00645 162.392189v39.973694h42.472184v-39.973694h-42.472184z m0-81.195557v39.973694h42.472184v-39.973694h-42.472184z m0-81.196632v39.973694h42.472184v-39.973694h-42.472184z"  horiz-adv-x="1537" />

    
    <glyph glyph-name="chuanganqi1" unicode="&#59053;" d="M512 384m-512 0a512 512 0 1 1 1024 0 512 512 0 1 1-1024 0ZM671.056 429.232a57.024 57.024 0 0 0-57.088 56.992c0 31.392 57.088 126.528 57.088 126.528s57.104-95.04 57.104-126.528a57.008 57.008 0 0 0-57.104-56.992z m-28.8-203.744a149.872 149.872 0 0 0-43.712-106.256 148.4 148.4 0 0 0-210.992 0 149.872 149.872 0 0 0-43.712 106.256 151.456 151.456 0 0 0 22.688 79.664 149.424 149.424 0 0 0 52.208 50.656V617.968a74.336 74.336 0 1 0 148.672 0v-262.16a150.288 150.288 0 0 0 74.864-130.32z m-92.8 112l-6.64 3.44V617.968a49.76 49.76 0 1 1-99.52 0V340.8l-6.704-3.44a124.56 124.56 0 1 1 112.928 0.112z m-56.4-175.488a66.368 66.368 0 0 0-21.968 128.816V534.624a21.968 21.968 0 1 0 43.936 0v-243.76a66.416 66.416 0 0 0-21.904-128.88z"  horiz-adv-x="1024" />

    
    <glyph glyph-name="shipinwenjianjia-new" unicode="&#59052;" d="M1031.347605 792.230509H494.65561L432.185374 884.16725A30.637681 30.637681 0 0 1 405.07619 894.772697H73.866446a71.490417 71.490417 0 0 1-51.264858-19.263922A71.491664 71.491664 0 0 1 0 825.623386v-245.16381a78.564872 78.564872 0 0 0 23.015678 55.560419A78.573603 78.573603 0 0 0 78.577345 659.036921h942.948092a78.572356 78.572356 0 0 0 55.565408-23.016926 78.559883 78.559883 0 0 0 23.016926-55.560419V716.400877c1.777345 39.863659-28.911474 73.709291-68.760166 75.829632zM1021.525437 659.036921H78.577345c-43.395898 0-78.577345-35.182694-78.577345-78.577345v-628.633725a78.577345 78.577345 0 0 1 78.577345-78.577344h942.948092a78.576097 78.576097 0 0 1 55.565408 23.015678 78.563625 78.563625 0 0 1 23.016926 55.561666V580.459576a78.559883 78.559883 0 0 1-23.016926 55.560419 78.572356 78.572356 0 0 1-55.565408 23.016926zM658.722611 506.855055H338.605993C313.474962 506.855055 293.105968 487.861788 293.105968 464.441998v-395.36877C293.105968 45.654685 313.474962 26.660171 338.604745 26.660171h424.120595C787.852629 26.660171 808.224117 45.653437 808.224117 69.074475V367.49751L658.722611 506.855055zM782.031669 358.129345V357.183922h-102.047026C661.980453 357.183922 647.327649 370.784039 647.327649 387.493574V483.157125l134.70402-125.02778zM762.546982 50.3581H338.780609c-10.738904 0-19.482192 8.153335-19.482192 18.17257V463.733554c0 10.02173 8.743289 18.175065 19.482192 18.175065h283.323713v-95.777053c0-30.055211 26.221135-54.513968 58.451566-54.513968H782.031669v-263.089423c0-10.017988-8.743289-18.171323-19.482193-18.171322h-0.002494zM630.196541 285.280663l-109.267411 58.724716c-7.028307 3.779196-13.99924 5.694987-20.715732 5.694986-14.929695 0-29.99659-10.186368-29.996589-32.951347v-117.448185C470.216809 176.539596 485.283703 166.353228 500.213398 166.353228c6.716492 0 13.687425 1.917038 20.71698 5.692492l109.261174 58.7322C642.666641 237.473208 649.822168 247.408877 649.822168 258.028044c0.002495 10.616672-7.151786 20.552341-19.625627 27.252619z m-10.299869-35.721511l-109.23124-59.012833c-4.5737-2.473315-7.857734-2.989681-9.81219-2.989681-7.121851 0-8.185764 7.961257-8.185763 12.709574v118.011946c0 4.750811 1.06516 12.713315 8.185763 12.713316 1.954456 0 5.23849-0.516365 9.808449-2.989681l109.234981-59.007844c5.462996-2.947274 8.722085-6.580541 8.722086-9.718646s-3.259089-6.766382-8.722086-9.716151zM339.254568 413.310597h42.406821v39.912302h-42.406821v-39.912302z m0-81.071864h42.406821v39.912302h-42.406821v-39.912302z m0-81.071863h42.406821v39.912302h-42.406821v-39.912302z m0-81.071864h42.406821v39.912302h-42.406821v-39.912302z m0-81.071863h42.406821v39.912302h-42.406821v-39.912302z m370.436053 162.143727h42.406821v39.912302h-42.406821v-39.912302z m0-81.071864h42.406821v39.912302h-42.406821v-39.912302z m0-81.071863h42.406821v39.912302h-42.406821v-39.912302z"  horiz-adv-x="1101" />

    
    <glyph glyph-name="shipinwenjianjia1" unicode="&#59051;" d="M1031.347605 792.230509H494.65561L432.185374 884.16725A30.637681 30.637681 0 0 1 405.07619 894.772697H73.866446a71.490417 71.490417 0 0 1-51.264858-19.263922A71.491664 71.491664 0 0 1 0 825.623386v-245.16381a78.564872 78.564872 0 0 0 23.015678 55.560419A78.573603 78.573603 0 0 0 78.577345 659.036921h942.948092a78.572356 78.572356 0 0 0 55.565408-23.016926 78.559883 78.559883 0 0 0 23.016926-55.560419V716.400877c1.777345 39.863659-28.911474 73.709291-68.760166 75.829632zM1021.525437 659.036921H78.577345c-43.395898 0-78.577345-35.182694-78.577345-78.577345v-628.633725a78.577345 78.577345 0 0 1 78.577345-78.577344h942.948092a78.576097 78.576097 0 0 1 55.565408 23.015678 78.563625 78.563625 0 0 1 23.016926 55.561666V580.459576a78.559883 78.559883 0 0 1-23.016926 55.560419 78.572356 78.572356 0 0 1-55.565408 23.016926zM760.054957 40.088166l-28.695698 28.118216c109.914738 111.214382 108.492862 290.112546-3.179264 399.578271l-0.523849 0.512623L755.889111 496.876979c127.80418-124.713471 129.892093-328.997106 4.66475-456.277437l-0.498904-0.511376zM346.689481 35.390987c-127.806675 124.714719-129.894587 328.9996-4.668492 456.281179l0.501398 0.507634 28.696946-28.114475c-109.8636-111.52495-108.204745-290.608955 3.700618-400.09713L346.690728 35.390987zM689.926548 108.196015l-28.614626 28.033403c72.278685 71.607659 72.574285 187.999415 0.657306 259.968779a175.894762 175.894762 0 0 1-2.965983 2.906115l28.154387 28.491147c89.203995-87.497744 90.445018-230.381291 2.768916-319.399444z m-275.697968-3.523508c-89.992263 87.007571-92.102626 230.176741-4.710899 319.777364 0.643586 0.661048 1.289666 1.318353 1.941983 1.97067l28.624604-28.038392c-72.298641-71.617637-72.594241-188.030597-0.661048-260.011187 0.979099-0.977851 1.966928-1.945725 2.968478-2.90362l-28.159376-30.794835h-0.003742zM621.105267 172.780356l-28.387625 28.29408c33.719659 35.835011 33.719659 92.179956 0 128.016214l27.011898 29.223289c50.571381-50.929345 50.818339-133.746124 0.546299-184.981047a96.562826 96.562826 0 0 0-0.546299-0.550042h1.375727v-0.002494z m-138.445798 0c-50.535211 51.251138-50.535211 134.281199 0 185.533583l28.383883-28.29408c-33.720906-35.835011-33.720906-92.181203 0-128.017462l-28.38513-29.223289z"  horiz-adv-x="1101" />

    
    <glyph glyph-name="tupianwenjianjia-copy" unicode="&#60463;" d="M1033.615578 793.0007H495.741719L433.134147 885.140146a30.713149 30.713149 0 0 1-27.169324 10.631474H74.026563A71.664013 71.664013 0 0 1 0 826.470157V580.764968a78.751663 78.751663 0 0 0 78.751663 78.751663h945.019957a78.751663 78.751663 0 0 0 78.751663-78.751663V717.005345a72.845288 72.845288 0 0 1-68.907705 75.995355zM1023.77162 659.516631H78.751663a78.751663 78.751663 0 0 1-78.751663-78.751663v-630.013305a78.751663 78.751663 0 0 1 78.751663-78.751663h945.019957a78.751663 78.751663 0 0 1 78.751663 78.751663V580.764968a78.751663 78.751663 0 0 1-78.751663 78.751663z m-236.254989-520.154735a53.944889 53.944889 0 0 0-16.144091-39.375831 54.338648 54.338648 0 0 0-39.375832-15.750333H370.132817a55.126164 55.126164 0 0 0-55.126165 55.126164v292.956187a55.126164 55.126164 0 0 0 55.126165 54.732406h361.470133A55.126164 55.126164 0 0 0 787.516631 432.318083zM731.60295 455.549824H370.132817a23.231741 23.231741 0 0 1-23.231741-23.231741v-219.323382c29.531874-22.837982 102.77092-57.488714 196.879158 42.919657s178.766275 39.375832 212.62949 1.968791v174.434934a23.231741 23.231741 0 0 1-24.806774 23.231741z m-269.724446-154.747018A44.888448 44.888448 0 1 0 506.766952 344.50997900000004a44.888448 44.888448 0 0 0-44.888448-43.707173zM461.878504 390.579701A44.888448 44.888448 0 1 1 506.766952 344.50997900000004a44.888448 44.888448 0 0 1-44.888448 46.069722z"  horiz-adv-x="1102" />

    
    <glyph glyph-name="tupianwenjianjia" unicode="&#59080;" d="M1033.615578 793.0007H495.741719L433.134147 885.140146a30.713149 30.713149 0 0 1-27.169324 10.631474H74.026563A71.664013 71.664013 0 0 1 0 826.470157V580.764968a78.751663 78.751663 0 0 0 78.751663 78.751663h945.019957a78.751663 78.751663 0 0 0 78.751663-78.751663V717.005345a72.845288 72.845288 0 0 1-68.907705 75.995355zM1023.77162 659.516631H78.751663a78.751663 78.751663 0 0 1-78.751663-78.751663v-630.013305a78.751663 78.751663 0 0 1 78.751663-78.751663h945.019957a78.751663 78.751663 0 0 1 78.751663 78.751663V580.764968a78.751663 78.751663 0 0 1-78.751663 78.751663z m-236.254989-520.154735a53.944889 53.944889 0 0 0-16.144091-39.375831 54.338648 54.338648 0 0 0-39.375832-15.750333H370.132817a55.126164 55.126164 0 0 0-55.126165 55.126164v292.956187a55.126164 55.126164 0 0 0 55.126165 54.732406h361.470133A55.126164 55.126164 0 0 0 787.516631 432.318083zM731.60295 455.549824H370.132817a23.231741 23.231741 0 0 1-23.231741-23.231741v-219.323382c29.531874-22.837982 102.77092-57.488714 196.879158 42.919657s178.766275 39.375832 212.62949 1.968791v174.434934a23.231741 23.231741 0 0 1-24.806774 23.231741z m-269.724446-154.747018A44.888448 44.888448 0 1 0 506.766952 344.509979a44.888448 44.888448 0 0 0-44.888448-43.707173zM461.878504 390.579701A44.888448 44.888448 0 1 1 506.766952 344.509979a44.888448 44.888448 0 0 1-44.888448 46.069722z"  horiz-adv-x="1102" />

    
    <glyph glyph-name="quanbu" unicode="&#59007;" d="M512-128C794.769792-128 1024 101.230208 1024 384 1024 666.769792 794.769792 896 512 896 229.230208 896 0 666.769792 0 384 0 101.230208 229.230208-128 512-128ZM384 597.333331 768 597.333331 768 533.333331 384 533.333331 384 597.333331ZM384 426.666669 768 426.666669 768 362.666669 384 362.666669 384 426.666669ZM384 256 768 256 768 192 384 192 384 256ZM256 597.333331 341.333312 597.333331 341.333312 533.333331 256 533.333331 256 597.333331ZM256 426.666669 341.333312 426.666669 341.333312 362.666669 256 362.666669 256 426.666669ZM256 256 341.333312 256 341.333312 192 256 192 256 256Z"  horiz-adv-x="1024" />

    
    <glyph glyph-name="icon-test2" unicode="&#59024;" d="M511.976-127.981C229.248-127.981 0 101.217 0 384.006 0 666.808 229.199 895.981 511.976 895.981 794.702 895.981 1024 666.808 1024 384.006c0-282.789-229.248-511.987-512.024-511.987z m189.69 362.734L486.412 339.085V576.013c0 21.203-17.165 38.369-38.369 38.369-21.203 0-38.443-17.166-38.443-38.369v-255.988c0.1-10.911 4.831-21.253 13.129-28.399 3.518-6.13 8.769-11.072 15.061-14.305l230.387-111.664c12.46-6.439 27.322-5.647 39.014 2.094a38.355 38.355 0 0 1 17.017 35.111c-1.166 13.908-9.835 26.145-22.542 31.891z m0 0"  horiz-adv-x="1024" />

    
    <glyph glyph-name="icon-test11" unicode="&#59027;" d="M1023.994 384c0 282.695-229.268 512-511.988 512-282.707 0-512-229.305-512-512 0-282.708 229.293-512 512-512 282.721 0 511.988 229.292 511.988 512z m-829.1-69.938v59.906H339.4L443.927 764.04l72.006-466.375 76.525 320.036 100.515-242.47h144.011v-61.169H660.029l-52.264 104.851-104.85-441.259-81.207 522.564-49.874-186.156h-176.94z"  horiz-adv-x="1024" />

    
    <glyph glyph-name="icon-test21" unicode="&#59039;" d="M1024 383.994c0 282.72-229.267 512-511.987 512S0 666.714 0 383.994c0-282.708 229.293-511.988 512.013-511.988S1024 101.286 1024 383.994z m-455.216-43.83l29.947 30.269 160.631-160.644c-17.735-51.954-49.639-90.545-104.751-105.122-53.527 53.552-107.029 107.153-160.655 160.644l37.377 38.231-178.688 171.27-45.279 3.951-42.505 66.519 18.85 18.924 18.949 18.85 18.8 18.949 66.631-42.963 3.517-48.425 177.176-170.453zM256.613 215.733l155.132 150.773 62.544-59.807-151.962-159.875s-31.903-3.504-49.217 13.772c-21.624 21.636-16.497 55.137-16.497 55.137zM558.53 400.366l-57.045 53.924 27.891 27.581c-24.77 51.941-13.771 109.457 21.723 144.097 37.799 37.365 94.496 37.365 94.496 37.365l11.419-29.142-56.747-57.44 82.31-81.529 56.302 57.106 29.079-11.432s-0.074-62.283-36.56-94.074c-37.402-32.275-92.49-41.737-146.092-18.491l-26.776-27.965z"  horiz-adv-x="1024" />

    
    <glyph glyph-name="icon-test5" unicode="&#59044;" d="M1023.987 383.9805C1023.987 666.705911 794.729911 895.999 511.9935 895.999 229.306089 895.999 0 666.705911 0 383.9805c0-282.712411 229.306089-511.9805 511.9935-511.9805 282.736411 0 511.9935 229.269089 511.9935 511.9805zM511.919501 677.542773c35.051555-1.621979 66.361158-22.553714 81.446966-54.434309l213.725287-388.386069c18.775762-29.96062 20.312742-67.649141 3.93795-98.997743-18.677763-29.886621-51.99434-47.164401-86.971896-45.157427H300.200189c-34.976556-2.006975-68.343132 15.332805-87.019895 45.157427-16.497791 31.285603-15.135808 68.975124 3.541955 98.997743l213.725286 388.386069c15.010809 31.942594 46.370411 52.923328 81.471966 54.434309zM569.981764 360.287801c0-26.889659-25.438677-48.725381-56.923277-48.725381-31.335602 0-56.775279 21.835723-56.77528 48.725381V547.184428c0 26.938658 25.439677 48.774381 56.77528 48.774381 31.4836 0 56.923277-21.872722 56.923277-48.774381v-186.896627zM567.876791 204.130783c0-31.434601-21.624725-56.924277-48.253388-56.924277h-17.29078c-26.628662 0-48.328386 25.464677-48.328387 56.899278 0 31.409601 21.699725 56.898278 48.328387 56.898277h17.29078c26.628662 0.001 48.253387-25.487676 48.253388-56.873278z"  horiz-adv-x="1024" />

    
    <glyph glyph-name="icon-test6" unicode="&#59045;" d="M0 384.024c0-282.755 229.177-512.019 511.981-512.019 282.793 0 512.019 229.238 512.019 512.019S794.799 895.994 511.981 895.994C229.177 896.043 0 666.805 0 384.024z m859.202-94.883c1.016-5.994 0.768-13.215-0.768-21.723a125.601 125.601 0 0 0-20.114-49.48c-4.211-6.266-9.858-11.443-16.497-14.961a35.843 35.843 0 0 0-15.804-4.607 43.213 43.213 0 0 0-14.862 3.061c-6.168 1.732-12.435 3.121-18.701 4.061-7.556 1.227-15.284 1.523-22.863 0.781a109.555 109.555 0 0 1-23.136-4.842 44.486 44.486 0 0 1-19.816-12.721 73.388 73.388 0 0 1-21.03-42.779c-2.007-16.037 0.272-31.234 6.763-45.775 4.954-9.598 4.137-21.229-2.229-29.996-3.022-4.002-7.827-8.15-14.317-12.361-6.44-4.297-13.624-8.125-21.278-11.654a130.98 130.98 0 0 0-24.374-8.225 102.704 102.704 0 0 0-22.467-2.959c-4.756 0.086-9.264 1.994-12.757 5.227a30.914 30.914 0 0 0-8.224 11.246h-0.768c-5.549 15.643-15.259 29.525-28.04 40.152-12.757 11.098-29.205 17.104-46.073 16.932-16.931 0-32.326-5.623-46.012-16.932-13.017-10.242-22.975-23.891-28.857-39.348a25.23 25.23 0 0 0-11.246-13.166c-5.053-2.762-10.713-4.125-16.46-4.063-6.997 0-14.8 1.201-23.594 3.74a234.621 234.621 0 0 0-26.183 9.34 124.59 124.59 0 0 0-23.581 13.215 63.561 63.561 0 0 0-15.767 14.924c-2.539 3.592-3.951 7.914-4.124 12.336-0.272 4.768 1.647 11.443 5.623 19.84 5.523 11.594 7.616 24.697 6.354 39.473-1.202 14.75-7.593 28.313-19.099 40.834a47.945 47.945 0 0 1-25.414 14.564c-9.326 2.18-18.875 3.121-28.437 2.627-10.479-0.496-21.216-2.453-32.177-6.008-6.974-1.969-14.392-1.449-21.018 1.537-5.45 2.031-10.59 6.613-15.37 13.797a159.527 159.527 0 0 0-12.745 24.002 151.64 151.64 0 0 0-8.645 26.988 63.642 63.642 0 0 0-1.511 22.9c1.511 10.961 6.502 17.957 15.011 20.967 14.961 6.082 28.411 15.865 40.388 29.664 11.952 13.76 17.959 29.142 17.959 46.109 0 17.451-6.007 32.734-17.959 45.776a110.93 110.93 0 0 1-40.388 28.499c-4.409 1.399-8.149 5.003-11.098 10.763-2.947 5.388-4.496 11.432-4.595 17.587 0 6.502 1.016 13.772 3.097 21.773 1.944 7.976 4.57 15.729 7.827 23.284 3.295 7.481 7.01 14.317 11.184 20.634a46.083 46.083 0 0 0 13.896 13.822 17.643 17.643 0 0 0 11.63 3.022c3.765-0.521 7.864-1.536 12.373-3.022 14.949-6.007 30.529-7.84 46.828-5.574 16.188 2.217 30.555 9.339 43.015 21.291 5.981 6.007 10.354 13.388 13.066 22.107 2.762 8.855 4.569 17.414 5.264 25.959a120.35 120.35 0 0 1 0 23.136c-0.496 5.028-1.078 10.044-1.846 15.048-1.114 3.418-2.031 6.923-2.65 10.478a16.777 16.777 0 0 0 1.053 10.515 43.16 43.16 0 0 0 16.163 18.355c7.716 5.227 16.051 9.698 25.08 13.166 8.546 3.307 17.289 5.945 26.244 7.828 8.435 1.808 15.271 2.65 20.188 2.65 6.416 0 11.568-2.081 15.37-6.378 3.703-4.273 6.316-8.632 7.791-13.104 5.474-13.537 14.466-25.353 26.962-35.62 12.46-10.28 27.211-15.457 44.191-15.457 17.438 0 32.944 4.879 46.432 14.651 13.476 9.76 22.963 22.12 28.437 37.131 2.007 3.976 5.078 8.125 9.363 12.311 4.187 4.322 8.596 6.378 13.129 6.378 6.911 0 14.49-0.966 22.788-2.948 8.199-2.081 16.374-4.793 24.226-8.298a90.425 90.425 0 0 0 22.17-13.475c6.787-5.511 12.063-11.543 16.126-18.045 2.551-3.976 3.294-8.335 2.254-13.054-0.645-3.492-1.635-6.911-3.022-10.156-6.44-14.354-8.57-30.22-5.994-45.714 2.526-16.002 9.76-30.059 21.649-42.036 12.014-11.977 26.752-18.603 44.215-19.891 17.488-1.214 33.763 1.647 48.699 8.67 4.409 2.601 9.512 3.604 14.54 2.972 5.747-0.545 10.577-2.787 14.615-6.713 7.48-7.022 14.069-17.661 19.791-31.954 5.747-14.255 9.611-28.598 11.618-43.051 1.04-8.509-0.348-15.185-4.063-19.916a28.184 28.184 0 0 0-11.692-9.338c-15.654-5.685-29.378-15.717-39.583-28.882-10.948-13.772-16.473-29.403-16.473-46.829 0-17.017 4.583-31.917 13.798-44.636 9.264-12.744 21.377-21.873 36.313-27.385a75.856 75.856 0 0 0 8.967-5.943c5.5-4.286 9.414-10.329 11.271-17.104zM566.365 373.608c0-24.733-23.445-44.858-52.377-44.858-28.907 0-52.34 20.125-52.34 44.858V545.652c0 24.783 23.433 44.909 52.34 44.909 28.932 0 52.377-20.126 52.377-44.909v-172.044zM564.359 229.865c0-28.92-19.879-52.377-44.427-52.377h-15.915c-24.522 0-44.438 23.457-44.438 52.377 0 28.895 19.915 52.391 44.438 52.391h15.915c24.524 0 44.427-23.483 44.427-52.391z"  horiz-adv-x="1024" />

    
    <glyph glyph-name="icon-test111" unicode="&#59046;" d="M878.294773 383.694007c0 155.488008-126.100668 281.596175-281.602175 281.596175-155.494007 0-281.609675-126.108167-281.609675-281.596175 0-155.507507 126.115667-281.615675 281.609675-281.615675 155.501507 0 281.602175 126.108167 281.602175 281.615675z m-456.021258-38.480136V378.177131h79.480215l57.492209 214.547681 39.60361-256.515239 42.095055 176.027047 55.273758-133.375505h79.208721v-33.647244h-97.320814L649.360915 402.896576 591.69171 160.197527l-44.662997 287.405544-27.431384-102.3907h-97.323814zM1194.636167 473.412992l280.649697 217.877606c11.362245 8.774803 26.7294 10.367767 39.61711 4.046909A37.676154 37.676154 0 0 0 1535.965501 661.598765v-555.17353c-0.026999-14.351678-8.201816-27.438884-21.062527-33.731243a37.634155 37.634155 0 0 0-39.61711 4.01241L1194.636167 294.582508v-337.241925a85.289584 85.289584 0 0 0-24.984938-60.327145 85.286584 85.286584 0 0 0-60.342145-24.998438l-1023.971501-0.015a85.370582 85.370582 0 0 0-60.346644 24.999938A85.322584 85.322584 0 0 0 0-42.674416V810.654917c0 47.157441 38.187642 85.339083 85.340583 85.339083h1023.971501a85.285084 85.285084 0 0 0 60.342144-24.992439 85.265585 85.265585 0 0 0 24.984939-60.346644l-0.003-337.241925z m-981.322958 294.578383c-47.137941 0-85.331583-38.201142-85.331584-85.345083v-597.312084a85.208586 85.208586 0 0 1 24.998439-60.325645 85.228086 85.228086 0 0 1 60.333145-25.013438l768.00375 0.0135a85.312084 85.312084 0 0 1 60.328645 24.999938 85.300084 85.300084 0 0 1 24.998438 60.325645V682.659792a85.352583 85.352583 0 0 1-85.327083 85.345083l-768.00375-0.0135z"  horiz-adv-x="1535" />

    
    <glyph glyph-name="icon-test12" unicode="&#59047;" d="M878.333791 383.414245c0 155.488291-126.101547 281.585337-281.619838 281.585338-155.473291 0-281.564337-126.095547-281.564337-281.585338 0-155.495791 126.091047-281.594337 281.564337-281.594337 155.515291 0.003 281.619838 126.098547 281.619838 281.594337z m-250.380578-24.1067l16.458136 16.635138 88.364234-88.358233c-9.768081-28.561737-27.286727-49.785413-57.600479-57.80598-29.469245 29.457245-58.881489 58.923489-88.377733 88.358233l20.559171 21.030175-98.297316 94.188782-24.906207 2.187018-23.379194 36.573303 10.381586 10.407087 10.408586 10.368086 10.353086 10.422086 36.649805-23.623696 1.920015-26.628221 97.46631-93.753778z m-171.742426-68.439568l85.325208 82.913188 34.443286-32.895273-83.585194-87.92173s-17.547146-1.926016-27.070724 7.576563c-11.907099 11.901099-9.112576 30.327252-9.112576 30.327252z m166.102379 101.525343l-31.405761 29.673246 15.354127 15.169626c-13.611113 28.576737-7.575063 60.2045 11.9476 79.257658 20.763172 20.559171 51.948431 20.559171 51.948431 20.55917l6.307552-16.030633-31.212259-31.612762 45.258376-44.823372L721.505989 475.995014l15.993133-6.294053s-0.0285-34.257284-20.136167-51.744429c-20.557671-17.751147-50.844422-22.94869-80.342167-10.168585l-14.707622-15.394627zM1194.678917 473.428492l280.67933 217.866309a37.600812 37.600812 0 0 0 39.577828 4.060533A37.689313 37.689313 0 0 0 1536.01275 661.615554v-555.181608a37.669813 37.669813 0 0 0-21.076675-33.73978 37.572312 37.572312 0 0 0-39.577828 4.021533L1194.678917 294.580508v-337.2388a85.365709 85.365709 0 0 0-24.970708-60.3275 85.455709 85.455709 0 0 0-60.381501-24.985708l-1024-0.027a85.398709 85.398709 0 0 0-60.353001 25.012708A85.343208 85.343208 0 0 0 0-42.659792V810.673292c0 47.145391 38.202317 85.326708 85.326708 85.326708h1024a85.470709 85.470709 0 0 0 60.381501-24.972207 85.364209 85.364209 0 0 0 24.970708-60.354501v-337.2448zM213.363271 768.009938c-47.152891 0-85.380709-38.200817-85.380709-85.346209v-597.325958a85.278708 85.278708 0 0 1 25.027708-60.326001 85.295208 85.295208 0 0 1 60.353001-25.000707h767.977875a85.370209 85.370209 0 0 1 60.353001 25.000707 85.290708 85.290708 0 0 1 25.014208 60.326001V682.663729a85.335708 85.335708 0 0 1-25.014208 60.347001 85.319208 85.319208 0 0 1-60.353001 25.000708l-767.977875-0.0015z"  horiz-adv-x="1536" />

    
    <glyph glyph-name="icon-test13" unicode="&#59048;" d="M1194.651917 473.42842l280.677396 217.859479c11.362395 8.785418 26.719252 10.373904 39.550133 4.058963a37.645151 37.645151 0 0 0 21.103304-33.739187V106.413325a37.658651 37.658651 0 0 0-21.103304-33.731687 37.538652 37.538652 0 0 0-39.550133 4.031963l-280.677396 217.860979v-337.232872c0-22.62879-8.953417-44.332089-25.000268-60.34144a85.356708 85.356708 0 0 0-60.34144-24.985268l-1023.986501-0.0135a85.421208 85.421208 0 0 0-60.35344 24.998768A85.316208 85.316208 0 0 0 0-42.671792V810.673292c0 47.140063 38.174646 85.326708 85.353708 85.326708h1023.959501a85.326708 85.326708 0 0 0 60.34144-24.977768 85.254709 85.254709 0 0 0 25.000268-60.34744l-0.003-337.246372z m-981.341896 294.582267c-47.125063 0-85.341708-38.209146-85.341708-85.352208v-597.327458a85.284709 85.284709 0 0 1 25.000268-60.318941 85.362708 85.362708 0 0 1 60.34144-25.013767l768.031875 0.026999a85.299709 85.299709 0 0 1 60.32794 24.986768 85.277209 85.277209 0 0 1 24.998768 60.333941v597.324458a85.322208 85.322208 0 0 1-24.998768 60.33994 85.281709 85.281709 0 0 1-60.32794 25.000268H213.310021zM596.740964 102.409862c-155.503557 0-281.592388 126.052831-281.592388 281.596888 0 155.530557 126.06183 281.584888 281.592388 281.584888 155.502057 0 281.619387-126.054331 281.619387-281.584888 0-155.542557-126.08733-281.596888-281.619387-281.596888z m104.331532 199.48015l-118.392402 57.383467-0.026999 130.320291c0 11.668392-9.427413 21.109304-21.092805 21.109305-11.674392 0-21.130304-9.440912-21.130304-21.109305v-140.794693c0.053999-5.993944 2.656475-11.689392 7.219433-15.598356 1.934982-3.392969 4.825455-6.103443 8.282923-7.880927l126.717325-61.41693a21.175304 21.175304 0 0 1 21.457301 1.153489c6.389941 4.26446 9.986907 11.659392 9.359913 19.304821a21.179804 21.179804 0 0 1-12.394385 17.528838z"  horiz-adv-x="1535" />

    
    <glyph glyph-name="icon-test14" unicode="&#59049;" d="M1194.651667 473.420754l280.662518 217.866244c11.347278 8.773329 26.703978 10.373797 39.593227 4.045421 12.860749-6.301377 21.062589-19.400621 21.062589-33.738841V106.416922a37.574266 37.574266 0 0 0-21.062589-33.732842 37.637265 37.637265 0 0 0-39.593227 4.019922L1194.651667 294.574747v-337.244414a85.330333 85.330333 0 0 0-24.971512-60.325821 85.336333 85.336333 0 0 0-60.351322-25.000012H85.325833a85.363333 85.363333 0 0 0-60.345321 24.985012A85.307834 85.307834 0 0 0 0-42.669667V810.672667c0 47.138079 38.180254 85.325833 85.325833 85.325833l1023.986501-0.0135a85.253835 85.253835 0 0 0 60.342321-24.979012 85.228335 85.228335 0 0 0 24.986512-60.346821v-337.236914l0.0105-0.001499zM213.328833 767.9955c-47.145579 0-85.340833-38.193754-85.340833-85.345333v-597.316834a85.325833 85.325833 0 0 1 24.986512-60.333321 85.409832 85.409832 0 0 1 60.352821-25.013512l767.986501 0.027c22.655558 0 44.358634 8.992324 60.352821 24.986512s24.986512 37.710763 24.986512 60.333321V682.656167a85.379832 85.379832 0 0 1-24.986512 60.345321 85.298834 85.298834 0 0 1-60.352821 25.006012l-767.985001-0.012zM314.573856 374.703182c0-155.516963 126.047038-281.6105 281.585-281.6105 155.528962 0 281.618 126.077038 281.618 281.6105 0 155.528962-126.062038 281.591-281.618 281.591-155.537962 0-281.585-126.075538-281.585-281.591zM787.123127 322.502701c0.571489-3.302935 0.436491-7.274858-0.406493-11.954766a69.028652 69.028652 0 0 0-11.069783-27.200469c-2.317455-3.448433-5.422394-6.293877-9.067323-8.234839a19.735115 19.735115 0 0 0-8.69233-2.528951 23.954532 23.954532 0 0 0-8.182341 1.681467 86.251315 86.251315 0 0 1-10.279299 2.234957c-4.156419 0.673487-8.399836 0.838484-12.581754 0.413992a60.42932 60.42932 0 0 1-12.724252-2.651949 24.647519 24.647519 0 0 1-10.900287-6.995863 40.45571 40.45571 0 0 1-11.558774-23.528541c-1.109978-8.821328 0.136497-17.179164 3.712427-25.190508a15.773692 15.773692 0 0 0-1.219476-16.484678c-1.675467-2.213957-4.304916-4.481912-7.867346-6.797867-3.542931-2.363954-7.493854-4.480412-11.719271-6.407875a71.098611 71.098611 0 0 0-13.406738-4.531411 56.523396 56.523396 0 0 0-12.356759-1.621468c-2.621949 0.046499-5.087901 1.096479-7.009363 2.873943a16.870171 16.870171 0 0 0-4.523912 6.17088h-0.413992a51.063503 51.063503 0 0 1-15.428698 22.093068 38.054257 38.054257 0 0 1-25.342005 9.302819c-9.326818 0-17.780653-3.07944-25.306006-9.302819a50.393016 50.393016 0 0 1-15.88619-21.637077 13.81173 13.81173 0 0 0-6.170879-7.240359 18.45714 18.45714 0 0 0-9.059823-2.248456c-3.842925 0-8.132841 0.667487-12.968747 2.05646a131.370434 131.370434 0 0 0-14.401219 5.1524 68.10167 68.10167 0 0 0-12.976246 7.268858 35.208812 35.208812 0 0 0-8.677331 8.19434 12.832249 12.832249 0 0 0-2.254456 6.799367c-0.161997 2.621949 0.905982 6.281877 3.09444 10.898787 3.025441 6.391375 4.189418 13.595734 3.478432 21.722576-0.647987 8.096842-4.159419 15.565196-10.487795 22.459061a26.571981 26.571981 0 0 1-13.978227 8.012843 56.428898 56.428898 0 0 1-15.640195 1.444472c-5.762887-0.284994-11.668272-1.354474-17.698154-3.302935a16.787672 16.787672 0 0 0-11.558774 0.844483c-3.004441 1.117478-5.824386 3.623929-8.461335 7.574852a89.248257 89.248257 0 0 0-7.003363 13.204242 82.888381 82.888381 0 0 0-4.754907 14.85421 35.024316 35.024316 0 0 0-0.830984 12.583254c0.830984 6.040382 3.56993 9.877307 8.249839 11.545275 8.234839 3.338935 15.632695 8.72533 22.213066 16.307681 6.574372 7.576352 9.884807 16.030187 9.884807 25.367505 0 9.586313-3.310435 18.004148-9.884807 25.177008a61.035308 61.035308 0 0 1-22.213066 15.673194c-2.417953 0.763485-4.475913 2.752446-6.095881 5.906885-1.628968 2.965442-2.473452 6.299877-2.533451 9.686811 0 3.57743 0.565489 7.576352 1.709967 11.974266a78.470967 78.470967 0 0 0 4.304916 12.80675 75.148532 75.148532 0 0 0 6.14388 11.342778 25.6 25.6 0 0 0 7.64385 7.607851 9.75281 9.75281 0 0 0 6.404875 1.661968c2.06396-0.299994 4.324416-0.851983 6.803867-1.661968 8.20934-3.302935 16.790672-4.312416 25.755997-3.079439 8.897826 1.232976 16.798172 5.150899 23.657538 11.720771 3.287936 3.304435 5.687889 7.349856 7.18636 12.158762 1.51197 4.856905 2.513951 9.571313 2.888944 14.264722a65.712217 65.712217 0 0 1 0 12.737751c-0.268495 2.759946-0.598488 5.525892-1.009481 8.276838a41.813183 41.813183 0 0 0-1.459471 5.765888 9.190321 9.190321 0 0 0 0.574489 5.768887 23.704037 23.704037 0 0 0 8.890326 10.102303 69.591141 69.591141 0 0 0 13.79373 7.247858 91.972204 91.972204 0 0 0 14.432719 4.297416c4.640909 0.994481 8.405836 1.457972 11.108783 1.457972 3.530931 0 6.349376-1.136978 8.455334-3.500932 2.03546-2.348954 3.469432-4.747407 4.279417-7.207359 3.010441-7.445855 7.963344-13.951228 14.83021-19.603117 6.859366-5.64139 14.971208-8.486834 24.311525-8.486835 9.593813 0 18.119646 2.677448 25.537002 8.051843 7.409855 5.366895 12.616254 12.170762 15.640194 20.426601 1.094979 2.186957 2.800445 4.468413 5.1374 6.773868 2.294955 2.377454 4.726408 3.508431 7.232859 3.508431 3.785926 0 7.969344-0.53099 12.527755-1.628968 4.510412-1.138478 9.020824-2.642948 13.333239-4.570411a49.449534 49.449534 0 0 0 12.193262-7.411355c3.718427-3.017941 6.63587-6.335876 8.869327-9.908806 1.408472-2.186957 1.811965-4.58691 1.231476-7.19386a25.989992 25.989992 0 0 0-1.655968-5.581391 43.781145 43.781145 0 0 1-3.304435-25.135009c1.397973-8.815328 5.374395-16.538677 11.906767-23.134048 6.613371-6.574372 14.725212-10.2193 24.319025-10.925787 9.617812-0.667487 18.569637 0.892483 26.789477 4.760907a12.557755 12.557755 0 0 0 7.996344 1.628969c3.160438-0.283494 5.818386-1.51947 8.030843-3.685428 4.11442-3.868424 7.721849-9.71381 10.885288-17.582657 3.167938-7.826847 5.293397-15.727193 6.397375-23.671038 0.572989-4.678409-0.190496-8.344337-2.233457-10.946786a15.641694 15.641694 0 0 0-6.428874-5.149399 48.341056 48.341056 0 0 1-21.766075-15.87269c-6.032882-7.574852-9.067323-16.171184-9.067323-25.770997 0-9.343318 2.528951-17.552657 7.583852-24.535021 5.093901-7.009363 11.76427-12.031265 19.96611-15.067205a41.534189 41.534189 0 0 0 4.952903-3.271437c3.022441-2.335454 5.168899-5.687889 6.17688-9.406316zM626.054772 368.970294c0-13.603234-12.902748-24.673018-28.814437-24.673019-15.899689 0-28.785938 11.069784-28.785938 24.673019v94.624151c0 13.615234 12.889248 24.700018 28.785938 24.700018 15.911689 0 28.814437-11.084784 28.814437-24.700018v-94.624151zM624.971794 289.908338c0-15.916189-10.940786-28.805437-24.434523-28.805438h-8.753829c-13.486237 0-24.449522 12.889248-24.449523 28.805438 0 15.88769 10.963286 28.800937 24.449523 28.800937h8.753829c13.487737 0 24.434523-12.902748 24.434523-28.800937z"  horiz-adv-x="1535" />

    
    <glyph glyph-name="renyuan" unicode="&#59301;" d="M511.999 896C229.694 896 0 666.327 0 383.999 0 101.693 229.694-128 511.999-128 794.303-128 1024 101.693 1024 383.999 1024 666.327 794.303 896 511.999 896zM512-64C264.979-64 64 136.979 64 384S264.979 832 512 832c247.02 0 448-200.979 448-448S759.02-64 512-64zM512 704c-106.038 0-192-85.961-192-192s85.962-192 192-192c106.039 0 192 85.961 192 192s-85.961 192-192 192z m0-320c-70.692 0-128 57.308-128 128s57.308 128 128 128 128-57.308 128-128-57.308-128-128-128zM256.042 128C273 244.333 392.715 320 512 320c119.286 0 237.25-70.25 256-192h64c-18.5 148.5-165.188 256-320 256S211.333 274.062 192 128h64.042zM224 126.666m-32 0a32 32 0 1 1 64 0 32 32 0 1 1-64 0ZM800 128m-32 0a32 32 0 1 1 64 0 32 32 0 1 1-64 0Z"  horiz-adv-x="1024" />

    
    <glyph glyph-name="shishichuli" unicode="&#59023;" d="M512 780.8C265.6 780.8 67.2 576 67.2 326.4c0-92.8 28.8-182.4 80-259.2 12.8-16 35.2-22.4 51.2-9.6 16 12.8 19.2 35.2 9.6 51.2-44.8 64-67.2 137.6-67.2 217.6C140.8 534.4 307.2 707.2 512 707.2c204.8 0 371.2-169.6 371.2-380.8S716.8-54.4 512-54.4c-70.4 0-140.8 19.2-198.4 60.8-16 9.6-38.4 6.4-51.2-12.8-9.6-16-6.4-41.6 9.6-51.2 70.4-48 153.6-70.4 240-70.4 246.4 0 444.8 204.8 444.8 454.4S758.4 780.8 512 780.8zM435.2 800h150.4c19.2 0 32 12.8 32 32s-16 32-32 32h-150.4c-19.2 0-32-12.8-32-32s12.8-32 32-32zM515.2 620.8h-9.6c-12.8 0-22.4-9.6-22.4-22.4V284.8c0-3.2 3.2-9.6 6.4-12.8l9.6-6.4c9.6-6.4 22.4-6.4 32 3.2l99.2 115.2c6.4 9.6 6.4 22.4-3.2 32l-9.6 6.4c-9.6 6.4-22.4 6.4-32-3.2l-48-54.4V598.4c0 12.8-9.6 22.4-22.4 22.4zM873.6 633.6c9.6-9.6 25.6-6.4 38.4 6.4 12.8 12.8 16 28.8 6.4 38.4l-73.6 73.6c-9.6 9.6-25.6 6.4-38.4-6.4-12.8-12.8-16-28.8-6.4-38.4l73.6-73.6z"  horiz-adv-x="1024" />

    
    <glyph glyph-name="zanting" unicode="&#59132;" d="M767.7 50.2V719.4c0 27.5-22.3 49.8-49.8 49.7-27.5 0-49.7-22.3-49.7-49.7v-669.2c0-27.5 22.3-49.8 49.8-49.8 27.4 0 49.7 22.3 49.7 49.8M352.2 50.2V719.4c0 27.5-22.3 49.8-49.8 49.8-27.5 0-49.8-22.3-49.8-49.8v-669.2c0-27.5 22.3-49.8 49.8-49.8 27.5 0 49.8 22.3 49.8 49.8"  horiz-adv-x="1024" />

    
    <glyph glyph-name="shanchu6" unicode="&#59253;" d="M785.066667 599.466667h-136.533334c-2.133333 68.266667-57.6 123.733333-128 123.733333s-125.866667-55.466667-128-123.733333h-147.2c-17.066667 0-32-14.933333-32-32s14.933333-32 32-32H298.666667V170.666667c0-68.266667 0-123.733333 89.6-123.733334H640c89.6 0 89.6 55.466667 89.6 123.733334V533.333333h53.333333c17.066667 0 32 14.933333 32 32 2.133333 19.2-12.8 34.133333-29.866666 34.133334zM520.533333 661.333333c36.266667 0 64-27.733333 66.133334-61.866666h-132.266667c2.133333 34.133333 29.866667 61.866667 66.133333 61.866666z m117.333334-554.666666H392.533333c-34.133333 0-36.266667 25.6-36.266666 64V533.333333h317.866666v-364.8c0-36.266667 2.133333-61.866667-36.266666-61.866666zM458.666667 443.733333c-14.933333 0-27.733333-14.933333-27.733334-34.133333v-192c0-19.2 12.8-34.133333 27.733334-34.133333 14.933333 0 27.733333 14.933333 27.733333 34.133333v192c0 19.2-12.8 34.133333-27.733333 34.133333zM571.733333 443.733333c-14.933333 0-27.733333-14.933333-27.733333-34.133333v-192c0-19.2 12.8-34.133333 27.733333-34.133333 14.933333 0 27.733333 14.933333 27.733334 34.133333v192c0 19.2-12.8 34.133333-27.733334 34.133333z"  horiz-adv-x="1024" />

    
    <glyph glyph-name="gengduo1" unicode="&#59028;" d="M904.4 549.8c-21.5 50.7-52.2 96.3-91.3 135.4-39.1 39.1-84.6 69.8-135.4 91.3C625.3 798.6 569.5 809.9 512 809.9s-113.3-11.3-165.8-33.5c-50.7-21.5-96.3-52.2-135.4-91.3-39.1-39.1-69.8-84.6-91.3-135.4C97.4 497.3 86.1 441.5 86.1 384c0-57.5 11.3-113.3 33.5-165.8 21.5-50.7 52.2-96.3 91.3-135.4 39.1-39.1 84.6-69.8 135.4-91.3 52.5-22.2 108.3-33.5 165.8-33.5s113.3 11.3 165.8 33.5c50.7 21.5 96.3 52.2 135.4 91.3 39.1 39.1 69.8 84.6 91.3 135.4 22.2 52.5 33.5 108.3 33.5 165.8-0.2 57.5-11.5 113.3-33.7 165.8zM770.7 125.3c-69.1-69.1-161-107.2-258.7-107.2s-189.6 38.1-258.7 107.2-107.2 161-107.2 258.7 38.1 189.6 107.2 258.7 161 107.2 258.7 107.2 189.6-38.1 258.7-107.2 107.2-161 107.2-258.7-38.1-189.6-107.2-258.7zM290.7 383.5m-60 0a60 60 0 1 1 120 0 60 60 0 1 1-120 0ZM511.5 383.5m-60 0a60 60 0 1 1 120 0 60 60 0 1 1-120 0ZM733.3 384m-60 0a60 60 0 1 1 120 0 60 60 0 1 1-120 0Z"  horiz-adv-x="1024" />

    
    <glyph glyph-name="wenjian" unicode="&#59029;" d="M953.856 648.704h-404.992L455.68 764.928c-10.752 12.8-26.112 20.48-43.008 20.48H64c-30.72 0-55.296-25.088-55.296-55.296v-776.704c0-30.72 25.088-55.296 55.296-55.296h890.368c30.208 0 54.784 24.576 54.784 55.296v640c0 30.72-25.088 55.296-55.296 55.296z m-189.952-393.216l-238.08-177.152c-16.896-12.288-40.96 0-40.96 20.992v110.08H279.04c-19.456 0-35.328 15.872-35.328 35.328v64c0 19.456 15.872 35.328 35.328 35.328h205.824V453.632c0 20.992 24.064 33.28 40.96 20.48l238.08-177.152c13.824-10.24 13.824-31.232 0-41.472z"  horiz-adv-x="1024" />

    
    <glyph glyph-name="kaishi" unicode="&#59499;" d="M268.288-61.44c-18.432 0-36.864 4.608-53.76 14.336-33.792 19.456-53.76 54.272-53.76 92.672V721.92c0 38.912 19.968 73.728 53.76 92.672 33.792 19.456 73.728 19.456 107.008 0l585.728-337.92c33.792-19.456 53.76-54.272 53.76-92.672 0-38.912-19.968-73.728-53.76-92.672l-585.216-337.92c-16.896-10.24-35.328-14.848-53.76-14.848z m0.512 818.688c-8.192 0-14.336-3.072-17.92-4.608-5.12-3.072-17.408-12.288-17.408-30.208v-675.84c0-18.432 12.288-27.136 17.408-30.208 5.12-3.072 19.456-9.216 35.328 0l585.728 337.92c15.872 9.216 17.408 24.064 17.408 30.208 0 6.144-1.536 21.504-17.408 30.208L286.208 752.64c-6.656 3.584-12.288 4.608-17.408 4.608z m0 0"  horiz-adv-x="1024" />

    
    <glyph glyph-name="zhankai" unicode="&#59030;" d="M512 456.3968L885.3504 829.8496a51.2 51.2 0 1 0 72.4992-72.4992l-409.6-409.6a51.2 51.2 0 0 0-72.4992 0l-409.6 409.6a51.2 51.2 0 1 0 72.4992 72.4992L512 456.3968z m0-409.6l373.3504 373.4528a51.2 51.2 0 1 0 72.4992-72.4992l-409.6-409.6a51.2 51.2 0 0 0-72.4992 0l-409.6 409.6a51.2 51.2 0 1 0 72.4992 72.4992L512 46.7968z"  horiz-adv-x="1024" />

    
    <glyph glyph-name="cheliang" unicode="&#59031;" d="M512 850.234637a466.234637 466.234637 0 0 0 329.682235-795.916872A466.240358 466.240358 0 0 0 182.317765 713.682235 463.174078 463.174078 0 0 0 512 850.234637m0 45.765363a512 512 0 1 1 512-512A512 512 0 0 1 512 896zM840.938547 240.096536a10.15419 10.15419 0 0 0-10.268603-10.268603h-30.834413v-41.13162a61.668827 61.668827 0 1 0-123.337654 0v41.103017H347.530726v-41.131621a61.668827 61.668827 0 0 0-123.337653 0v41.131621H193.330056a10.15419 10.15419 0 0 0-10.268603 10.268603v123.366257a71.823017 71.823017 0 0 0 71.966033 71.966033h8.981453l33.723352 134.607375c9.953966 40.473743 49.140559 70.99352 90.901452 70.993519h246.703911c41.760894 0 80.947486-30.519777 90.901452-70.993519l33.723352-134.607375h8.981453a71.823017 71.823017 0 0 0 71.966033-71.966033zM285.861899 384a51.486034 51.486034 0 1 1 51.486034-51.486034 51.486034 51.486034 0 0 1-51.486034 51.486034z m389.320224 51.486034l-28.603352 114.670838a15.588827 15.588827 0 0 1-11.241117 8.581005h-246.675308a15.588827 15.588827 0 0 1-11.241117-8.581005l-28.603352-114.670838z m62.927374-51.486034a51.486034 51.486034 0 1 1 51.486034-51.486034 51.486034 51.486034 0 0 1-51.45743 51.486034z"  horiz-adv-x="1024" />

    
    <glyph glyph-name="zhongxinkaishi" unicode="&#59074;" d="M927.535784 428.393584c-11.354971 200.60449-158.969596 363.359075-355.789095 401.208979S181.892681 761.472737 98.622893 579.793199s-30.279923-397.423989 124.904682-522.328671 378.499037-124.904682 533.683643-3.78499c7.569981 7.569981 18.924952 7.569981 30.279923 3.78499 11.354971-3.78499 15.139961-11.354971 18.924951-22.709942 0-11.354971-3.78499-18.924952-11.354971-26.494933C617.166574-128 367.35721-128 189.462662 12.044644s-238.454393 378.499037-147.614624 586.673507S348.432258 924.227323 571.746689 890.162409 965.385688 670.632968 984.31064 447.318536l22.709942 22.709942c11.354971 11.354971 30.279923 11.354971 41.634894 0 11.354971-11.354971 11.354971-30.279923 0-41.634894l-83.269788-83.269788c-3.78499-3.78499-11.354971-7.569981-18.924952-7.569981s-15.139961 3.78499-18.924952 7.569981l-83.269788 83.269788c-11.354971 11.354971-11.354971 30.279923 0 41.634894 11.354971 11.354971 30.279923 11.354971 41.634894 0l41.634894-41.634894z m-253.594355 3.784991c11.354971-7.569981 15.139961-18.924952 15.139962-34.064914s-7.569981-26.494933-15.139962-34.064913l-200.604489-151.399615c-11.354971-7.569981-30.279923-11.354971-41.634894-3.78499-15.139961 7.569981-22.709942 22.709942-22.709942 37.849904v302.799229c0 15.139961 7.569981 30.279923 22.709942 37.849904s30.279923 3.78499 41.634894-3.784991l200.604489-151.399614zM465.766959 515.448363v-230.884413l155.184605 117.334702-155.184605 113.549711z"  horiz-adv-x="1060" />

    
    <glyph glyph-name="shuju" unicode="&#59436;" d="M117.244 520.373l347.172-239.026c25.4-17.474 66.523-17.515 91.858-0.061l346.328 238.41c25.32 17.435 25.272 45.759-0.11 63.233L555.302 821.954c-25.4 17.475-66.522 17.515-91.86 0.061l-346.31-238.41c-25.337-17.433-25.288-45.757 0.112-63.232z m108.538 54.394L476.63 741.575c18.353 12.183 48.138 12.162 66.522-0.061l251.47-167.2c18.4-12.243 18.433-32.036 0.096-44.24L543.869 363.287c-18.353-12.205-48.138-12.183-66.537 0.04l-251.47 167.219c-18.4 12.224-18.432 32.037-0.08 44.22zM794.718 362.71L543.869 195.923c-18.353-12.203-48.138-12.182-66.537 0.04l-251.47 167.22c-5.73 3.807-9.678 8.349-11.844 13.168H99.304c2.346-8.549 8.32-16.724 17.94-23.342l347.172-239.024c25.4-17.475 66.523-17.516 91.858-0.062L902.6 352.332c9.852 6.783 15.844 15.217 18.017 24.018H806.703c-2.095-4.995-6.083-9.711-11.985-13.64z m0-168.017L543.869 27.905c-18.353-12.205-48.138-12.184-66.537 0.04l-251.47 167.22c-5.73 3.806-9.677 8.348-11.844 13.166H99.304c2.346-8.549 8.322-16.723 17.94-23.34l347.172-239.025c25.4-17.475 66.523-17.516 91.858-0.063L902.6 184.313c9.852 6.784 15.844 15.217 18.017 24.017H806.703c-2.096-4.995-6.083-9.71-11.985-13.637z"  horiz-adv-x="1024" />

    
    <glyph glyph-name="fuzhi2" unicode="&#59032;" d="M875.781112-127.98968H304.158654a100.621606 100.621606 0 0 0-100.334935 100.334935V645.736005A100.621606 100.621606 0 0 0 304.158654 746.357611h573.342486a100.621606 100.621606 0 0 0 100.334935-100.334935v-673.39075a100.621606 100.621606 0 0 0-102.054963-100.621606zM304.158654 689.023363a43.287358 43.287358 0 0 1-43.000687-43.000687v-673.39075A43.287358 43.287358 0 0 1 304.158654-70.655431h573.342486a43.287358 43.287358 0 0 1 43.000686 43.000686V645.736005a43.287358 43.287358 0 0 1-43.000686 43.000686zM74.82166 95.040547a28.667124 28.667124 0 0 0-28.667125 28.667124V794.231709A102.054962 102.054962 0 0 0 147.922827 896h569.615759a28.667124 28.667124 0 0 0 0-57.334249H147.922827A44.434043 44.434043 0 0 1 103.488784 794.231709v-670.524038a28.667124 28.667124 0 0 0-28.667124-28.667124z"  horiz-adv-x="1024" />

    
    <glyph glyph-name="rolling" unicode="&#59035;" d="M269.49128938 312.08362406000003c-10.03484344 0-16.72473844 3.3449475-23.41463438 10.0348425l-76.93379813 80.27874563-80.27874562-76.93379719c-13.37979094-13.37979094-33.44947781-13.37979094-46.82926781 0-13.37979094 13.37979094-13.37979094 33.44947781 0 46.82926781l103.69338 100.3484325c13.37979094 13.37979094 33.44947781 13.37979094 46.82926781 0l100.3484325-103.69338c13.37979094-13.37979094 13.37979094-33.44947781 0-46.82926875-6.68989594-6.68989594-13.37979094-10.03484344-23.41463438-10.0348425zM413.32404219-42.48083625000004c-3.3449475 0-10.03484344 0-13.37979094 3.3449475-190.66202063 76.93379813-301.04529656 284.32055719-264.25087125 491.70731719 3.3449475 16.72473844 20.06968687 30.10452937 40.13937281 26.75958187 16.72473844-3.3449475 30.10452937-20.06968687 26.75958188-40.13937281-30.10452937-173.93728219 63.55400719-351.21951187 220.76655-418.11846656 16.72473844-6.68989594 23.41463437-26.75958188 16.72473937-43.48432031-3.3449475-13.37979094-16.72473844-20.06968687-26.75958187-20.06968688zM848.16724719-96h-10.03484344L700.98954688-55.860627189999946c-16.72473844 3.3449475-26.75958188 23.41463437-23.41463438 40.13937282l36.79442531 140.48780531c3.3449475 16.72473844 23.41463437 26.75958188 40.13937281 23.41463344 16.72473844-3.3449475 26.75958188-23.41463437 23.41463438-40.13937282l-30.10452938-107.0383275 107.03832751-30.10452937c16.72473844-3.3449475 26.75958188-23.41463437 23.41463343-40.13937281 0-16.72473844-16.72473844-26.75958188-30.10452937-26.75958188zM707.67944281-55.860627189999946c-13.37979094 0-26.75958188 6.68989594-30.10453031 23.41463438-6.68989594 16.72473844 3.3449475 36.79442531 20.06968687 43.48432031 167.24738719 60.20905969 274.28571469 230.80139344 250.87108032 404.73867563-3.3449475 16.72473844 10.03484344 33.44947781 30.10452937 36.79442531 20.06968687 3.3449475 33.44947781-10.03484344 36.79442531-30.10452938 26.75958188-204.04181156-97.00348406-401.39372812-294.35540062-474.98257875-3.3449475-3.3449475-10.03484344-3.3449475-13.37979094-3.3449475zM697.64459937 619.81881562c-13.37979094 0-26.75958188 10.03484344-33.44947781 23.41463344-3.3449475 16.72473844 6.68989594 36.79442531 23.41463438 40.13937281l107.0383275 30.10453032-30.10452938 107.0383275c-3.3449475 16.72473844 6.68989594 36.79442531 23.41463438 40.13937281 16.72473844 3.3449475 36.79442531-6.68989594 40.13937281-23.41463437L868.23693406 700.09756125c3.3449475-16.72473844-6.68989594-36.79442531-23.41463437-40.13937281l-140.48780532-36.79442532c-3.3449475-3.3449475-6.68989594-3.3449475-6.689895-3.3449475zM834.78745625 656.61324c-6.68989594 0-13.37979094 3.3449475-20.06968594 6.68989594-140.48780531 113.72822344-341.18466937 120.41811844-474.98257875 13.37979093-16.72473844-13.37979094-36.79442531-10.03484344-50.17421625 3.3449475-10.03484344 16.72473844-6.68989594 36.79442531 6.68989594 46.82926875C456.8083625 853.96515656 694.29965188 847.27526156 854.85714312 716.82229969c13.37979094-10.03484344 16.72473844-33.44947781 3.34494751-46.82926875-3.3449475-10.03484344-13.37979094-13.37979094-23.41463438-13.37979094z"  horiz-adv-x="1052" />

    
    <glyph glyph-name="shouqi" unicode="&#59571;" d="M986.112 404.48c22.016-22.016 22.016-56.32 0-78.336-22.016-22.016-56.32-22.016-78.336 0L511.488 731.648l-394.752-405.504c-22.016-22.016-56.32-22.016-78.336 0-22.016 22.016-22.016 56.32 0 78.336l423.936 425.472c13.824 12.288 30.208 26.112 48.128 23.04 17.92 3.072 36.352-9.216 50.176-23.04L986.112 404.48zM986.112 10.24c22.016-22.016 22.016-56.32 0-78.336-22.016-22.016-56.32-22.016-78.336 0l-396.288 404.992-394.752-405.504c-22.016-22.016-56.32-22.016-78.336 0-22.016 22.016-22.016 56.32 0 78.336L462.336 435.2c13.824 12.288 30.208 26.112 48.128 23.04 17.92 3.072 36.352-9.216 50.176-23.04l425.472-424.96z"  horiz-adv-x="1024" />

    
    <glyph glyph-name="shipin1" unicode="&#59037;" d="M399.93344 207.70816000000002l254.27968 144.83456c23.37450667 13.39847111 23.37450667 51.48216889 0 64.80782222l-254.27968 144.90737778c-21.18997333 12.01493333-46.02083555-5.38851555-46.02083555-32.40391111v-289.81475556c0-26.94257778 24.83086222-44.34602667 46.02083555-32.33109333z m526.39971555 611.96060445H99.34165333c-52.28316445 0-95.0272-49.07918222-95.0272-109.22666667v-650.91811556c0-60.29312 42.37994667-109.22666667 95.0272-109.22666667H926.33315555c52.35598222 0 95.0272 49.152 95.0272 109.22666667V710.44209778c0 60.36593778-42.37994667 109.22666667-95.0272 109.22666667zM194.95139555 59.305528890000005c0-20.17052445-13.61692445-36.55452445-32.11264-36.55452444h-62.91456c-17.76753778 0-32.11264 15.51018667-32.11264 36.55452444v71.72551111c0 20.17052445 13.61692445 36.55452445 32.11264 36.55452445h62.98737778c17.69472 0 32.03982222-15.51018667 32.03982222-36.55452445v-71.72551111z m0 289.81475556c0-20.24334222-13.61692445-36.55452445-32.11264-36.55452445h-62.91456c-17.69472 0-32.11264 15.43736889-32.11264 36.55452445v71.7255111c0 20.17052445 13.61692445 36.55452445 32.11264 36.55452445h62.98737778c17.69472 0 32.03982222-15.51018667 32.03982222-36.55452445v-71.7255111z m0 289.74193777c0-20.17052445-13.61692445-36.55452445-32.11264-36.55452444h-62.91456c-17.69472 0-32.11264 15.51018667-32.11264 36.55452444v71.72551111c0 20.24334222 13.61692445 36.55452445 32.11264 36.55452445h62.98737778c17.69472 0 32.03982222-15.51018667 32.03982222-36.55452445V638.8622222199999z m572.20209778-616.11121777H258.59413333V747.2150755499999h508.55936v-724.4640711z m190.63694222 36.55452444c0-20.17052445-13.61692445-36.55452445-32.03982222-36.55452444h-62.98737778c-17.62190222 0-31.96700445 15.51018667-31.96700444 36.55452444v71.72551111c0 20.17052445 13.61692445 36.55452445 32.03982222 36.55452445h62.98737778c17.62190222 0 31.96700445-15.51018667 31.96700444-36.55452445v-71.72551111z m0 289.81475556c0-20.24334222-13.61692445-36.55452445-32.03982222-36.55452445h-62.98737778c-17.62190222 0-31.96700445 15.51018667-31.96700444 36.55452445v71.7255111c0 20.17052445 13.61692445 36.55452445 32.03982222 36.55452445h62.98737778c17.62190222 0 31.96700445-15.51018667 31.96700444-36.55452445v-71.7255111z m0 289.74193777c0-20.17052445-13.61692445-36.55452445-32.03982222-36.55452444h-62.98737778c-17.62190222 0-31.96700445 15.51018667-31.96700444 36.55452444v71.72551111c0 20.24334222 13.61692445 36.55452445 32.03982222 36.55452445h62.98737778c17.62190222 0 31.96700445-15.51018667 31.96700444-36.55452445V638.8622222199999z"  horiz-adv-x="1024" />

    
    <glyph glyph-name="neirong-weipeizhi" unicode="&#59038;" d="M1004.8 499.2c-51.2 6.4-102.4 25.6-140.8 64-38.4 38.4-57.6 89.6-57.6 147.2 0 32 12.8 64 19.2 76.8L704 857.6c-6.4-6.4-25.6-19.2-44.8-38.4-51.2-32-89.6-44.8-121.6-44.8-38.4 0-76.8 12.8-115.2 44.8-32 19.2-44.8 38.4-51.2 38.4l-128-70.4c6.4-6.4 12.8-38.4 12.8-76.8 0-57.6-19.2-108.8-57.6-147.2-38.4-38.4-83.2-64-140.8-64 0-12.8-6.4-57.6-6.4-89.6 0-32 6.4-70.4 12.8-89.6 51.2 0 96-25.6 134.4-64 38.4-38.4 57.6-89.6 57.6-147.2 0-32-12.8-64-19.2-76.8l121.6-70.4c6.4 6.4 25.6 25.6 51.2 44.8 38.4 32 83.2 44.8 115.2 44.8 38.4 0 76.8-12.8 121.6-44.8 25.6-19.2 44.8-38.4 51.2-44.8l121.6 70.4c-6.4 12.8-19.2 44.8-19.2 76.8 0 57.6 19.2 108.8 57.6 147.2 38.4 38.4 83.2 64 140.8 64 0 12.8 6.4 57.6 6.4 89.6 6.4 32 0 76.8 0 89.6z m-473.6-313.6c-128 0-224 102.4-224 224 0 128 102.4 224 224 224s224-102.4 224-224-96-224-224-224zM633.6 512c-12.8 12.8-32 12.8-44.8 0l-57.6-57.6-57.6 57.6c-12.8 12.8-32 12.8-44.8 0s-12.8-32 0-44.8l57.6-57.6-57.6-51.2c-12.8-12.8-12.8-38.4 0-51.2 6.4-6.4 19.2-6.4 25.6-6.4s19.2 0 25.6 6.4l57.6 57.6 57.6-57.6c6.4-6.4 12.8-6.4 25.6-6.4s19.2 0 25.6 6.4c12.8 12.8 12.8 32 0 44.8L576 409.6l57.6 57.6c12.8 12.8 12.8 32 0 44.8z"  horiz-adv-x="1024" />

    
    <glyph glyph-name="zhongxinchuli" unicode="&#59075;" d="M64.073143 615.350857s92.086857 149.942857 237.568 230.4C447.414857 926.281143 626.834286 903.094857 744.374857 825.051429c117.76-78.043429 157.330286-143.872 157.330286-143.872l101.376 61.001142s20.918857 10.971429 20.918857-14.628571V344.502857s0-34.157714-24.576-21.942857c-20.48 10.24-243.126857 143.945143-313.197714 186.148571-38.4 18.139429-4.681143 32.841143-4.681143 32.841143l97.792 59.099429s-55.734857 73.874286-137.435429 112.859428c-87.405714 48.054857-169.179429 53.833143-269.458285 13.750858C307.2 701.293714 230.107429 634.587429 174.811429 536.137143L64 615.350857z m895.926857-462.701714s-92.16-149.942857-237.714286-230.4-325.046857-57.344-442.660571 20.699428c-117.76 77.970286-157.330286 143.945143-157.330286 143.945143l-101.449143-61.074285S0 14.994286 0 40.374857V423.497143s0 34.011429 24.576 21.942857c20.48-10.24 243.053714-143.945143 313.197714-186.148571 38.473143-18.139429 4.608-32.914286 4.608-32.914286l-97.865143-59.026286s55.954286-73.728 137.581715-112.786286c87.332571-48.274286 169.179429-53.906286 269.385143-13.897142 65.389714 26.038857 142.336 92.745143 197.778285 191.341714l110.738286-79.286857v-0.073143z"  horiz-adv-x="1024" />

    
    <glyph glyph-name="shuju1" unicode="&#59040;" d="M275.2 25.6H179.2c-32 0-57.6 25.6-57.6 57.6V396.8c0 32 25.6 57.6 57.6 57.6h102.4c32 0 57.6-25.6 57.6-57.6v-313.6c0-32-32-57.6-64-57.6z m-76.8 76.8h64V384h-64v-281.6zM563.2 25.6H460.8c-32 0-57.6 25.6-57.6 57.6V838.4c0 32 25.6 57.6 57.6 57.6h102.4c32 0 57.6-25.6 57.6-57.6v-748.8c0-38.4-25.6-64-57.6-64z m-83.2 76.8h64V819.2h-64v-716.8zM844.8 25.6h-102.4c-32 0-57.6 25.6-57.6 57.6V544c0 32 25.6 57.6 57.6 57.6h102.4c32 0 57.6-25.6 57.6-57.6v-256c0-19.2-19.2-38.4-38.4-38.4s-38.4 19.2-38.4 38.4V531.2h-64v-422.4h64v38.4c0 19.2 19.2 38.4 38.4 38.4s38.4-19.2 38.4-38.4v-57.6c0-38.4-25.6-64-57.6-64zM947.2-128H70.4c-19.2 0-32 12.8-32 32v19.2c0 19.2 12.8 32 32 32h876.8c19.2 0 32-12.8 32-32v-19.2c6.4-19.2-12.8-32-32-32z"  horiz-adv-x="1024" />

    
    <glyph glyph-name="yinpin" unicode="&#59041;" d="M206.18969749 463.51067866h73.39447259v-165.13756337H206.18969749zM560.9296484 628.64824201H634.32412102v-489.29648402H560.9296484zM383.55967294 549.13756337h73.39447261v-324.15892068H383.55967294zM744.41582992 494.09170892H817.81030251v-244.64824203h-73.39447259zM903.43718723 873.29648405H120.56281277C65.5169583 873.29648405 22.70351595 830.4830417000001 22.70351595 775.4371872300001v-782.87437446c0-55.04585445 42.81344235-97.85929681 97.85929682-97.85929682h782.87437446c55.04585445 0 97.85929681 42.81344235 97.85929682 97.85929682V775.4371872300001c0 55.04585445-42.81344235 97.85929681-97.85929682 97.85929682z m24.46482421-880.73367128c0-12.2324121-12.2324121-24.46482419-24.46482421-24.46482421H120.56281277c-12.2324121 0-24.46482419 12.2324121-24.46482421 24.46482421V775.4371872300001c0 12.2324121 12.2324121 24.46482419 24.46482421 24.46482421h782.87437446c12.2324121 0 24.46482419-12.2324121 24.46482421-24.46482421v-782.87437446z"  horiz-adv-x="1024" />

    
    <glyph glyph-name="shangchuan1" unicode="&#59042;" d="M857.6 322.56c-15.36 0-25.6-10.24-25.6-25.6v-87c0-41-20.48-76.8-76.8-76.8H263.68c-61.44-5.12-76.8 35.84-76.8 76.8V297c0 15.36-10.24 25.6-25.6 25.6S140.8 312.32 140.8 297v-117.8c0-56.32 46.08-102.4 102.4-102.4h537.6c56.32 0 102.4 46.08 102.4 102.4V297c-5.12 15.36-15.36 25.6-25.6 25.6z m0 0M532.48 682.1c-20.48 20.47-41 0-41 0L353.28 549c-10.24-10.24-10.24-25.6 0-35.84 5.12-10.24 25.6-10.24 35.84 0l97.28 87v-358.4c0-15.37 10.24-25.6 25.6-25.6s25.6 10.23 25.6 25.6V600.18l97.28-87c10.24-10.24 25.6-10.24 35.84 0s10.24 25.6 0 35.84L532.48 682.1z m0 0"  horiz-adv-x="1024" />

    
    <glyph glyph-name="renyuanku" unicode="&#59043;" d="M824.192 196.096a301.568 301.568 0 0 1-86.4 60.416 199.552 199.552 0 0 1 74.24 155.52 201.216 201.216 0 0 1-203.264 200 200.128 200.128 0 0 1-122.752-355.52c-31.744-14.72-60.928-34.88-86.4-60.416a298.048 298.048 0 0 1-87.616-203.904 8 8 0 0 1 8-8.192h56A7.936 7.936 0 0 1 384-8.32a226.048 226.048 0 0 0 66.688 153.536 226.624 226.624 0 0 0 161.28 66.752c60.928 0 118.208-23.68 161.28-66.752a226.944 226.944 0 0 0 66.752-153.536c0.128-4.288 3.712-7.68 8-7.68h56c4.48 0 8.128 3.712 8 8.192a297.408 297.408 0 0 1-87.808 203.904zM611.968 283.968a126.912 126.912 0 0 0-90.496 37.504 128.192 128.192 0 0 0 89.216 218.496 128.768 128.768 0 0 0 91.008-36.544c24.832-24.32 38.4-56.832 38.4-91.392 0-34.24-13.312-66.304-37.504-90.56a127.36 127.36 0 0 0-90.56-37.44zM361.536 385.664a256.384 256.384 0 0 0 2.944 72.96 8.064 8.064 0 0 1-4.48 8.768 127.552 127.552 0 0 0-75.584 120.512 127.36 127.36 0 0 0 36.224 85.568 127.36 127.36 0 0 0 93.248 38.72 127.872 127.872 0 0 0 106.368-58.88 8 8 0 0 1 9.28-3.2c17.6 6.144 36.224 10.432 55.296 12.48a8 8 0 0 1 6.336 11.52A200.32 200.32 0 0 1 415.36 784c-110.912 1.728-203.328-89.216-203.328-199.872 0-62.848 28.928-118.848 74.24-155.52-31.808-14.72-61.12-35.008-86.528-60.416a297.408 297.408 0 0 1-87.808-203.968 8 8 0 0 1 8-8.256h56.128a7.936 7.936 0 0 1 8 7.68 226.048 226.048 0 0 0 66.688 153.6 225.728 225.728 0 0 0 104.704 59.648 8 8 0 0 1 5.952 8.704z"  horiz-adv-x="1024" />

    
    <glyph glyph-name="tishi-zhuyi" unicode="&#59033;" d="M512 552.32c-26.24 0-48-21.76-48-48v-224c0-26.24 21.76-48 48-48s48 21.76 48 48v224c0 26.24-21.76 48-48 48zM512 152.32m-48 0a48 48 0 1 1 96 0 48 48 0 1 1-96 0ZM1012.48 56.32L585.6 796.16C570.24 822.4 542.72 838.4 512 838.4s-58.24-16-73.6-42.24L11.52 56.32c-15.36-26.24-15.36-58.88 0-85.12 15.36-26.24 42.88-42.24 73.6-42.24h854.4c30.08 0 58.24 16 73.6 42.24 14.72 26.88 14.72 58.88-0.64 85.12z m-113.28-28.16c-6.4-10.88-17.28-17.28-29.44-17.28H155.52c-12.16 0-23.68 6.4-29.44 17.28-6.4 10.88-6.4 23.68 0 34.56l357.12 631.04c6.4 10.88 17.28 17.28 29.44 17.28s23.68-6.4 29.44-17.28l357.12-631.04c6.4-10.88 6.4-23.68 0-34.56z"  horiz-adv-x="1024" />

    
    <glyph glyph-name="xiugaitubiao1" unicode="&#59327;" d="M1071.476364 547.374545a33.885091 33.885091 0 0 1-34.164364-34.257454v-492.823273c0-39.098182-32.209455-71.028364-71.586909-71.028363H139.729455a71.400727 71.400727 0 0 0-71.493819 71.028363V756.177455c0 39.098182 32.116364 71.028364 71.493819 71.028363H698.181818a33.885091 33.885091 0 0 1 34.071273 34.257455c0 18.618182-15.080727 34.350545-34.071273 34.350545H139.729455a139.915636 139.915636 0 0 1-139.636364-139.636363v-735.883637c0-77.079273 62.929455-138.984727 139.636364-138.984727h825.995636c77.451636 0 139.822545 62.557091 139.822545 138.984727V513.117091a33.885091 33.885091 0 0 1-34.164363 34.257454zM311.668364 339.223273c-1.303273-2.420364-3.258182-5.492364-3.909819-7.819637l-72.890181-222.673454c-2.606545-9.029818 0-18.618182 7.261091-25.227637a29.137455 29.137455 0 0 1 27.554909-6.050909l242.688 66.746182a21.224727 21.224727 0 0 1 8.564363 3.723637l581.911273 533.690181a38.912 38.912 0 0 1 13.125818 28.858182 38.912 38.912 0 0 1-13.032727 28.858182L955.205818 872.913455a47.290182 47.290182 0 0 1-62.370909 0L313.716364 341.643636l-1.954909-2.420363z m566.923636 448.232727L924.392727 829.626182 1054.999273 709.818182l-45.893818-42.077091-130.606546 119.714909zM392.936727 342.202182l446.091637 409.134545 130.606545-119.714909-446.184727-409.134545L393.029818 342.109091z m-89.925818-202.752l51.851636 159.464727 121.949091-111.988364-173.800727-47.476363z"  horiz-adv-x="1117" />

    
    <glyph glyph-name="shou" unicode="&#59005;" d="M424.134 383.716c0 20.692 0 35.114 0 50.164 0 134.187-1.255 228.243-1.254 363.057 0 94.683 47.028 129.798 97.819 129.798 47.655 0.627 92.175-30.725 94.056-109.733 1.255-42.012 0.627-82.769-1.254-134.187-0.627-24.455 6.897-34.487 31.352-31.352 38.249 4.389 72.737-1.882 99.072-33.233 11.914-13.795 28.844-6.897 43.893-5.644 42.012 3.762 80.261-5.644 107.851-39.503 15.049-17.558 31.979-16.931 50.79-15.049 40.131 3.762 83.396-10.033 105.343-46.401 21.947-35.741 17.558-81.516 16.303-121.646-2.508-78.38 1.254-158.015-9.406-236.394-11.287-80.888-40.131-158.016-69.602-234.514-23.2-59.569-45.774-92.802-114.122-90.294-112.24 3.136-225.108 1.882-337.348 0.627-32.606-0.627-47.655 15.676-55.807 43.266-30.725 108.478-84.651 205.67-158.015 290.947-34.487 40.131-65.839 82.143-104.089 119.765-37.623 36.996-31.352 104.716-2.508 135.441 35.114 37.623 90.922 42.638 136.695 11.287 21.32-13.795 42.012-27.59 70.23-46.401zM481.822 551.763c0-94.057 0-187.485 0-281.542 0-14.421 3.762-33.233-21.32-32.606-16.931 0.627-29.471-1.255-37.623 22.573-15.049 46.401-50.79 79.634-88.414 110.36-23.2 18.811-42.012 28.217-67.093 5.644-28.217-25.708-4.389-44.52 9.406-60.823 98.445-113.495 201.28-223.853 247.681-373.089 4.389-13.795 5.644-45.774 45.774-43.893 104.716 5.644 209.432 3.135 314.148 0.627 23.828-0.627 36.996 13.168 42.012 26.335 29.471 75.872 62.705 154.252 72.737 235.767 7.524 62.704 8.779 126.036 8.779 189.367 0 43.266 18.811 131.051-38.876 146.101-49.537 13.168-52.044-35.114-54.552-67.72-1.254-20.693 6.897-42.638-30.725-42.013-34.488 0.627-27.59 20.692-27.59 39.503 0 21.946-1.882 43.893 0.627 65.839 3.762 35.114-7.524 51.417-45.147 50.79-62.078-1.254-46.402-69.602-46.401-113.496 0-19.438-13.168-23.2-30.725-23.827-29.472-0.627-28.844 14.422-28.217 34.487 0.627 34.488 1.882 68.975 0.628 102.834-0.627 36.368-30.098 49.537-43.893 50.164-15.049 0.628-44.521 3.135-46.401-24.454-2.508-38.876-1.254-76.499-2.508-101.582-1.254-18.811 5.644-40.131-28.844-40.758-32.606 0-29.472 18.811-29.471 39.503 0 118.51-1.254 237.649 0.627 356.159 0.627 29.472-6.897 48.282-38.249 48.282-28.216 0-36.996-21.32-36.996-47.028-1.254-89.667 1.254-180.588 0.628-271.508z"  horiz-adv-x="1362" />

    
    <glyph glyph-name="zhixian" unicode="&#59186;" d="M886.357333 827.818667l69.3888-69.3888-817.898666-817.8944-69.3888 69.3888z"  horiz-adv-x="1024" />

    
    <glyph glyph-name="fanhui1" unicode="&#59008;" d="M476.646926 598.1814059999999V719.9645370000001c-11.070862 50.928155-53.138191 19.925605-53.138192 19.925605L131.228004 489.686472c-64.212702-44.285881-4.427372-77.500899-4.427372-77.500899l287.852142-247.989985c57.565563-42.072195 61.994151 22.140508 61.994152 22.140508v112.927171c292.279514 90.781798 411.848959-272.349043 411.848959-272.349043 11.070862-19.931687 17.713136 0 17.713136 0 112.925955 544.698086-429.562095 571.267182-429.562095 571.267182z m0 0"  horiz-adv-x="1024" />

    
    <glyph glyph-name="duobianxing" unicode="&#59128;" d="M535.371294 814.682353l467.546353-325.270588-162.635294-474.352941-575.969882-67.764706L81.317647 475.858824 535.371294 814.682353z m0 81.317647L0 502.964706l216.847059-623.435294 670.84047 81.317647L1084.235294 516.517647 535.371294 896z"  horiz-adv-x="1084" />

    
    <glyph glyph-name="shanchu5" unicode="&#59009;" d="M799.2352 12.992c0-35.2-28.032-63.936-62.4-63.936H287.1712a63.296 63.296 0 0 0-62.336 64V691.84h574.4v-678.848z m-449.6 793.6a12.8 12.8 0 0 0 12.8 13.184h299.968a12.8 12.8 0 0 0 12.8-13.12v-38.528H349.5712v38.528z m636.8-38.464h-236.8v38.528C749.6352 855.808 710.4032 896 662.4032 896H362.3712C314.3072 895.872 275.3312 855.936 275.2032 806.656v-38.528H37.6352A38.016 38.016 0 0 1 0.0032 729.6c0-21.376 16.832-38.592 37.632-38.592h112v-678.016c0-37.376 14.464-73.216 40.32-99.712 25.728-26.432 60.8-41.28 97.28-41.28h449.536c36.48 0 71.552 14.848 97.28 41.28 25.856 26.496 40.32 62.336 40.32 99.712V691.84h112A38.016 38.016 0 0 1 1024.0032 730.368a37.312 37.312 0 0 1-37.632 37.76zM512.0032 64.64a38.016 38.016 0 0 1 37.632 38.528V513.152A38.016 38.016 0 0 1 512.0032 551.68a38.016 38.016 0 0 1-37.632-38.528v-409.984c0-21.312 16.832-38.528 37.632-38.528z m-175.168 0a38.016 38.016 0 0 1 37.568 38.528V513.152a38.016 38.016 0 0 1-37.568 38.528 38.016 38.016 0 0 1-37.632-38.528v-409.984c0.832-21.312 17.6-38.528 37.632-38.528z m350.4 0a38.08 38.08 0 0 1 37.632 38.528V513.152a38.016 38.016 0 0 1-37.632 38.528 38.08 38.08 0 0 1-37.632-38.528v-409.984c0-21.312 16.768-38.528 37.632-38.528z"  horiz-adv-x="1024" />

    
    <glyph glyph-name="qingkong" unicode="&#59010;" d="M301.21984 119.808l18.28352 23.47008-31.7952-64.04096a16.80384 16.80384 0 0 1-0.24064-14.47424 17.01888 17.01888 0 0 1 11.11552-9.37472L354.816 40.448a17.16224 17.16224 0 0 1 16.256 4.18304 460.83072 460.83072 0 0 1 42.60864 45.27104l18.30912 23.4752-31.81568-64.04608a16.82432 16.82432 0 0 1-0.24576-14.47424 17.024 17.024 0 0 1 11.12064-9.3696l79.47776-21.1456a17.152 17.152 0 0 1 16.26112 4.18816 459.264 459.264 0 0 1 42.59328 45.26592l18.304 23.4752-31.81056-64.04096a16.8192 16.8192 0 0 1-0.24576-14.49472 17.01888 17.01888 0 0 1 11.14112-9.37472l67.84512-18.05312a17.14176 17.14176 0 0 1 16.256 4.18816 460.09856 460.09856 0 0 1 42.59328 45.2864l18.30912 23.47008-31.81568-64.05632a16.82944 16.82944 0 0 1-0.22528-14.47424 17.02912 17.02912 0 0 1 11.12064-9.35936l81.31072-21.79584 3.61472 0.19456a104.36608 104.36608 0 0 1 41.24672 11.96032 91.2128 91.2128 0 0 1 49.09568 73.08288c2.00704 17.30048 4.49024 36.00384 7.90528 59.3408 1.536 10.48064 2.76992 18.688 5.8624 39.07072 10.3936 68.48512 13.76768 94.36672 16.11264 124.8512l0.89088 11.55584 2.66752 2.73408 11.5968 1.2544a39.424 39.424 0 0 1 23.34208 10.48064 40.35584 40.35584 0 0 1 10.43968 39.424l-35.328 160.256a78.336 78.336 0 0 1-21.78048 37.20192 86.76352 86.76352 0 0 1-37.53472 22.31808l-106.55744 28.35456-2.12992 3.66592 49.75616 184.22784c7.82848 29.01504-11.05408 59.53536-42.30656 67.84512l-74.82368 19.8912c-31.232 8.30464-62.976-8.74496-70.8096-37.76l-49.7152-184.24832-3.69664-2.10944-111.104 29.55264a87.09632 87.09632 0 0 1-43.75552-0.69632 79.01696 79.01696 0 0 1-37.59104-21.42208L226.23232 494.3616a40.47872 40.47872 0 0 1-10.83392-39.31648c3.91168-13.312 14.90944-23.552 30.9504-28.51328l12.8-3.98848 2.00704-3.62496-3.41504-12.9024c-19.8656-74.57792-49.75616-127.87712-80.64512-140.93312-44.71808-18.8672-68.608-46.16192-73.7792-79.42144-4.736-30.52032 8.704-62.68416 35.36384-85.504l20.73088-7.78752 70.25152-18.69312a40.35072 40.35072 0 0 1 38.77888 10.32192 404.992 404.992 0 0 1 32.768 35.7632z m518.76864 370.38592c13.312-3.54304 28.16-17.92 30.8224-29.88544l32.51712-147.36896a9.89696 9.89696 0 0 0-2.87232-9.33888 10.10176 10.10176 0 0 0-9.53344-2.41664L269.312 461.184a9.93792 9.93792 0 0 0-4.81792 16.33792L366.85312 589.0048c8.30464 9.04192 28.4416 14.14656 41.74336 10.5984l132.97664-35.3792a20.18816 20.18816 0 0 1 15.232 1.98656 19.92704 19.92704 0 0 1 9.35424 12.09856l54.85568 203.264a19.93216 19.93216 0 0 0 9.35424 12.09856 20.20864 20.20864 0 0 0 15.232 1.98656l72.4992-19.28704a20.05504 20.05504 0 0 0 12.19072-9.28768 19.7888 19.7888 0 0 0 2.00192-15.11936l-54.87616-203.264a19.90656 19.90656 0 0 1 14.19264-24.38656l128.37888-34.15552z m-480.29184-279.39328q-47.50848-63.23712-87.30624-95.0784l-5.56032-4.46464-2.67264-0.55808-82.8928 22.528-2.74944 2.96448c-12.288 13.23008-18.22208 28.98944-15.9744 43.52 3.072 19.92704 20.75136 36.74112 50.05312 49.11104 29.8496 12.5952 56.27904 43.99616 78.01856 93.31712A511.27808 511.27808 0 0 1 295.424 393.6768l3.65568 13.45024 3.67104 2.10944 532.67456-141.69088 2.20672-3.072-0.7424-11.4176c-1.8688-28.5696-28.53888-214.25664-30.208-228.74112a51.2 51.2 0 0 0-25.97376-41.472 69.16096 69.16096 0 0 0-20.13184-7.56736l-4.71552-0.68096-56.80128 15.104 10.57792 18.944q11.68384 20.992 40.54528 80.896a19.67104 19.67104 0 0 1-9.3696 26.30144l-2.95424 1.39264a20.16256 20.16256 0 0 1-24.70912-6.05696q-47.47776-63.11424-87.18848-94.84288l-5.56032-4.44416-2.66752-0.55296-49.43872 13.14816 10.46016 18.944q5.02272 9.08288 9.83552 18.3296 9.9328 18.944 30.6688 62.40768a19.82464 19.82464 0 0 1-9.3952 26.43968l-2.85184 1.3568a20.1728 20.1728 0 0 1-24.81152-6.016q-47.41632-63.06816-87.12704-94.78656l-5.56032-4.44416-2.66752-0.55808-49.05472 13.05088 10.45504 18.944q4.57728 8.25344 9.83552 18.3296 9.87648 18.86208 30.9504 62.976a19.51744 19.51744 0 0 1-9.51296 26.15808l-3.12832 1.43872a20.16256 20.16256 0 0 1-24.52992-6.17472q-47.47776-63.1296-87.296-94.98624l-5.56032-4.44416-2.65216-0.55296-30.72 8.1664 10.43968 18.90816q5.00224 9.1136 9.83552 18.3296 9.85088 18.8928 30.92992 63.00672a19.60448 19.60448 0 0 1-9.472 26.21952l-3.072 1.41824a20.16768 20.16768 0 0 1-24.61184-6.144z m0 0"  horiz-adv-x="1024" />

    
    <glyph glyph-name="legend-base" unicode="&#59011;" d="M1.76 766.6800000000001v-765.35h1020.47V766.6800000000001H1.76z m956.69-701.57H65.54V702.9h892.91v-637.79z"  horiz-adv-x="1024" />

    
    <glyph glyph-name="righttop" unicode="&#59017;" d="M139.08607033 42.327591040000016l468.62281276 468.62281277L651.09988438 467.55940251 182.47707162-1.0634102499999472l-43.39100128 43.3910013zM475.22620999 638.15691037L875.75699299 742.29491368l-100.13269568-404.53609063-300.39808732 300.39808732z"  horiz-adv-x="1024" />

    
    <glyph glyph-name="xuanzeziyuan" unicode="&#59459;" d="M361.045333 18.602667h682.666667v-126.293334h-682.666667v126.293334z m0 341.333333h682.666667v-126.293333h-682.666667v126.293333z m0 341.333333h682.666667v-126.293333h-682.666667v126.293333z m-305.493333 96.426667l87.722667-75.264L273.493333 896l68.266667-51.2-185.002667-246.613333L0 733.013333l55.637333 64.682667z m-35.84-308.053333h256v-256h-256v256z m85.333333-85.333334v-85.333333h85.333334v85.333333h-85.333334z m-85.333333-256h256v-256h-256v256z m85.333333-85.333333v-85.333333h85.333334v85.333333h-85.333334z"  horiz-adv-x="1109" />

    
    <glyph glyph-name="fuzhiguize" unicode="&#59001;" d="M253.155556 122.311111H99.555556c-8.533333 0-14.222222 5.688889-14.222223 14.222222V873.244444c0 8.533333 5.688889 14.222222 14.222223 14.222223h608.711111c8.533333 0 14.222222-5.688889 14.222222-14.222223v-136.533333c0-8.533333-5.688889-14.222222-14.222222-14.222222s-14.222222 5.688889-14.222223 14.222222V859.022222H113.777778v-708.266666h142.222222c8.533333 0 14.222222-5.688889 14.222222-14.222223s-8.533333-14.222222-17.066666-14.222222zM483.555556-25.6H253.155556c-8.533333 0-14.222222 5.688889-14.222223 14.222222V733.866667c0 8.533333 5.688889 14.222222 14.222223 14.222222H881.777778c8.533333 0 14.222222-5.688889 14.222222-14.222222v-452.266667c0-8.533333-5.688889-14.222222-14.222222-14.222222s-14.222222 5.688889-14.222222 14.222222V719.644444H267.377778v-716.8H483.555556c8.533333 0 14.222222-5.688889 14.222222-14.222222s-5.688889-14.222222-14.222222-14.222222zM787.911111 531.911111H352.711111c-8.533333 0-14.222222 5.688889-14.222222 14.222222s5.688889 14.222222 14.222222 14.222223h432.355556c8.533333 0 14.222222-5.688889 14.222222-14.222223s-5.688889-14.222222-11.377778-14.222222zM506.311111 381.155556h-153.6c-8.533333 0-14.222222 5.688889-14.222222 14.222222s5.688889 14.222222 14.222222 14.222222h153.6c8.533333 0 14.222222-5.688889 14.222222-14.222222s-5.688889-14.222222-14.222222-14.222222zM452.266667 236.088889h-99.555556c-8.533333 0-14.222222 5.688889-14.222222 14.222222s5.688889 14.222222 14.222222 14.222222h99.555556c8.533333 0 14.222222-5.688889 14.222222-14.222222s-5.688889-14.222222-14.222222-14.222222zM915.911111 51.2l-8.533333 2.844444c-11.377778 8.533333-22.755556 19.911111-22.755556 36.977778 0 17.066667 8.533333 28.444444 19.911111 36.977778l8.533334 5.688889c8.533333 5.688889 14.222222 14.222222 11.377777 22.755555-2.844444 5.688889-2.844444 8.533333-5.688888 14.222223s-2.844444 8.533333-5.688889 14.222222c-5.688889 8.533333-17.066667 11.377778-25.6 8.533333l-5.688889-2.844444c-14.222222-2.844444-31.288889 0-42.666667 11.377778-11.377778 11.377778-14.222222 28.444444-11.377778 42.666666l2.844445 8.533334c2.844444 8.533333 0 19.911111-8.533334 25.6-5.688889 2.844444-8.533333 5.688889-14.222222 5.688888-5.688889 2.844444-8.533333 2.844444-14.222222 5.688889-8.533333 2.844444-19.911111-2.844444-22.755556-11.377777l-2.844444-8.533334c-8.533333-11.377778-19.911111-22.755556-36.977778-22.755555-17.066667 0-28.444444 8.533333-36.977778 22.755555l-2.844444 8.533334c-5.688889 8.533333-14.222222 14.222222-22.755556 11.377777-5.688889-2.844444-8.533333-2.844444-14.222222-5.688889s-8.533333-2.844444-14.222222-5.688888c-8.533333-5.688889-11.377778-17.066667-8.533333-25.6l2.844444-8.533334c2.844444-14.222222 0-31.288889-11.377778-42.666666-11.377778-11.377778-28.444444-14.222222-42.666666-11.377778l-11.377778 2.844444c-8.533333 2.844444-19.911111 0-25.6-8.533333-2.844444-5.688889-5.688889-8.533333-5.688889-14.222222-2.844444-5.688889-2.844444-8.533333-5.688889-14.222223-2.844444-8.533333 2.844444-19.911111 11.377778-22.755555l8.533333-2.844445c11.377778-8.533333 22.755556-19.911111 22.755556-36.977777 0-17.066667-8.533333-28.444444-19.911111-36.977778l-8.533334-5.688889c-8.533333-5.688889-14.222222-14.222222-11.377777-22.755556 2.844444-5.688889 2.844444-8.533333 5.688888-14.222222s2.844444-8.533333 5.688889-14.222222c5.688889-8.533333 17.066667-11.377778 25.6-8.533333l8.533334 2.844444c14.222222 2.844444 31.288889 0 42.666666-11.377778 11.377778-11.377778 14.222222-28.444444 11.377778-42.666666l-2.844444-8.533334c-2.844444-8.533333 0-19.911111 8.533333-25.6 5.688889-2.844444 8.533333-5.688889 14.222222-5.688889 5.688889-2.844444 8.533333-2.844444 14.222222-5.688888 8.533333-2.844444 19.911111 2.844444 22.755556 11.377777l2.844444 8.533334c8.533333 11.377778 19.911111 22.755556 36.977778 22.755555 17.066667 0 28.444444-8.533333 36.977778-19.911111l5.688889-8.533333c5.688889-8.533333 14.222222-14.222222 22.755555-11.377778 5.688889 2.844444 8.533333 2.844444 14.222223 5.688889s8.533333 2.844444 14.222222 5.688889c8.533333 5.688889 11.377778 17.066667 8.533333 25.6l-2.844444 8.533333c-2.844444 14.222222 0 31.288889 11.377778 42.666667 11.377778 11.377778 28.444444 14.222222 42.666666 11.377778l8.533334-2.844445c8.533333-2.844444 19.911111 0 25.6 8.533333 2.844444 5.688889 5.688889 8.533333 5.688888 14.222223 2.844444 5.688889 2.844444 8.533333 5.688889 14.222222-2.844444 5.688889-5.688889 14.222222-14.222222 19.911111m-184.888889-62.577778c-56.888889 0-105.244444 45.511111-105.244444 105.244445 0 56.888889 45.511111 105.244444 105.244444 105.244444 56.888889 0 105.244444-45.511111 105.244445-105.244444-2.844444-59.733333-48.355556-105.244444-105.244445-105.244445z"  horiz-adv-x="1024" />

    
    <glyph glyph-name="niantie" unicode="&#59004;" d="M716.726857-128H163.108571a89.965714 89.965714 0 0 0-89.746285 89.819429V676.352c0 49.590857 40.228571 89.746286 89.746285 89.819429H716.8c49.517714-0.073143 89.673143-40.228571 89.746286-89.819429v-714.605714A89.965714 89.965714 0 0 0 716.8-128zM163.108571 709.339429a32.987429 32.987429 0 0 1-32.914285-32.987429v-714.605714a32.987429 32.987429 0 0 1 32.914285-32.914286H716.8c18.139429 0 32.914286 14.701714 32.914286 32.914286v714.605714a32.987429 32.987429 0 0 1-32.914286 32.914286H163.108571zM864.987429 1.828571a28.379429 28.379429 0 1 0 0 56.832 21.065143 21.065143 0 0 1 21.138285 21.065143V818.102857a21.065143 21.065143 0 0 1-21.065143 21.065143H287.744a21.065143 21.065143 0 0 1-21.065143-21.065143 28.452571 28.452571 0 0 0-56.832 0C209.846857 861.110857 244.736 896 287.670857 896h577.316572c43.008 0 77.824-34.889143 77.897142-77.897143V79.725714c0-43.008-34.889143-77.824-77.897142-77.897143zM600.356571 290.669714H279.552a28.452571 28.452571 0 0 0 0 56.832h320.804571a28.452571 28.452571 0 0 0 0-56.832zM439.954286 130.194286a28.379429 28.379429 0 0 0-28.452572 28.525714V479.451429a28.452571 28.452571 0 1 0 56.832 0v-320.877715a28.379429 28.379429 0 0 0-28.379428-28.452571z"  horiz-adv-x="1024" />

    
    <glyph glyph-name="yinpinx" unicode="&#58999;" d="M892.032-128H134.144A134.528 134.528 0 0 0 0 6.144V761.856C0 835.648 60.352 896 134.144 896h755.648C963.584 896 1024 835.648 1024 761.856v-755.712c2.24-73.792-58.112-134.144-131.904-134.144zM134.144 851.264c-49.216 0-89.408-40.256-89.408-89.408v-755.712c0-49.152 40.192-89.408 89.408-89.408h755.648c49.216 0 89.408 40.256 89.408 89.408V761.856C979.2 811.008 939.008 851.2 889.792 851.2H134.144zM192 481.728c0 10.24 8.576 18.624 18.752 18.624h20.672c10.368 0 18.752-8.32 18.752-18.624v-195.456c0-10.24-8.576-18.624-18.752-18.624h-20.672A18.624 18.624 0 0 0 192 286.272V481.728z m145.472 116.16c0 10.432 8.576 18.816 18.688 18.816h20.736c10.368 0 18.752-8.448 18.752-18.816v-427.776a18.88 18.88 0 0 0-18.752-18.816h-20.736a18.816 18.816 0 0 0-18.688 18.816V597.888z m436.352-116.16c0 10.24 8.576 18.624 18.752 18.624h20.672c10.368 0 18.752-8.32 18.752-18.624v-195.456c0-10.24-8.576-18.624-18.752-18.624h-20.672a18.624 18.624 0 0 0-18.752 18.624V481.728zM628.352 597.888c0 10.432 8.576 18.816 18.752 18.816h20.736c10.304 0 18.688-8.448 18.688-18.816v-427.776a18.88 18.88 0 0 0-18.688-18.816h-20.736a18.816 18.816 0 0 0-18.752 18.816V597.888zM482.88 685.184c0 10.368 8.64 18.816 18.752 18.816h20.736c10.368 0 18.752-8.576 18.752-18.816v-602.368a18.88 18.88 0 0 0-18.752-18.816h-20.736a18.88 18.88 0 0 0-18.752 18.816V685.184z"  horiz-adv-x="1024" />

    
    <glyph glyph-name="picture" unicode="&#59069;" d="M765.376 615.424s103.04 1.024 103.04-100.992c0 0 9.536-98.752-103.04-100.928 0 0-100.864-2.176-99.84 100.928 0 0.064-1.088 91.456 99.84 100.992zM968.32 770.56s54.208-4.224 54.208-52.032v-712.832s-3.2-51.008-54.208-52.096V770.56zM1.472 5.632s2.176-52.096 52.096-52.096H968.32v150.848h-99.712l-203.072 206.144-153.024-153.984-208.192 257.024-205.056-307.072-45.632-1.024L52.48 718.464H1.472v-712.832zM968.32 770.56H53.568S1.472 771.648 1.472 718.528H968.32V770.56z"  horiz-adv-x="1024" />

    
    <glyph glyph-name="shipin" unicode="&#59136;" d="M413.504 229.056l223.488 127.296c20.544 11.776 20.544 45.248 0 56.96l-223.488 127.36c-18.624 10.56-40.448-4.736-40.448-28.48v-254.72c0-23.68 21.824-38.976 40.448-28.416z m462.656 537.856H149.312c-45.952 0-83.52-43.136-83.52-96v-572.096c0-52.992 37.248-96 83.52-96H876.16c46.016 0 83.52 43.2 83.52 96V670.912c0 53.056-37.248 96-83.52 96zM233.344 98.624c0-17.728-11.968-32.128-28.224-32.128h-55.296c-15.616 0-28.224 13.632-28.224 32.128v63.04c0 17.728 11.968 32.128 28.224 32.128h55.36c15.552 0 28.16-13.632 28.16-32.128v-63.04z m0 254.72c0-17.792-11.968-32.128-28.224-32.128h-55.296c-15.552 0-28.224 13.568-28.224 32.128v63.04c0 17.728 11.968 32.128 28.224 32.128h55.36c15.552 0 28.16-13.632 28.16-32.128v-63.04z m0 254.656c0-17.728-11.968-32.128-28.224-32.128h-55.296c-15.552 0-28.224 13.632-28.224 32.128v63.04c0 17.792 11.968 32.128 28.224 32.128h55.36c15.552 0 28.16-13.632 28.16-32.128V608z m502.912-541.504H289.28V703.232h446.976v-636.736z m167.552 32.128c0-17.728-11.968-32.128-28.16-32.128h-55.36c-15.488 0-28.096 13.632-28.096 32.128v63.04c0 17.728 11.968 32.128 28.16 32.128h55.36c15.488 0 28.096-13.632 28.096-32.128v-63.04z m0 254.72c0-17.792-11.968-32.128-28.16-32.128h-55.36c-15.488 0-28.096 13.632-28.096 32.128v63.04c0 17.728 11.968 32.128 28.16 32.128h55.36c15.488 0 28.096-13.632 28.096-32.128v-63.04z m0 254.656c0-17.728-11.968-32.128-28.16-32.128h-55.36c-15.488 0-28.096 13.632-28.096 32.128v63.04c0 17.792 11.968 32.128 28.16 32.128h55.36c15.488 0 28.096-13.632 28.096-32.128V608z"  horiz-adv-x="1024" />

    
    <glyph glyph-name="zhuyi" unicode="&#58994;" d="M511.33886 895.999009A511.999505 511.999505 0 1 1 1023.999009 383.669182 511.669182 511.669182 0 0 1 511.33886 895.999009z m66.064452-169.124998l-23.783203-487.885979h-82.580565l-23.783203 487.225335z m-11.230957-665.269033a79.607665 79.607665 0 0 0-53.181884-20.149658 71.679931 71.679931 0 0 0-52.190917 21.140625 66.064452 66.064452 0 0 0-22.461914 52.190917 66.064452 66.064452 0 0 0 22.461914 52.190917 71.679931 71.679931 0 0 0 52.190917 20.149658 74.652831 74.652831 0 0 0 53.181884-20.149658 69.697997 69.697997 0 0 0 21.470947-52.190917 72.340575 72.340575 0 0 0-21.470947-53.181884z"  horiz-adv-x="1024" />

    
    <glyph glyph-name="wancheng" unicode="&#58998;" d="M512 896c-70.5536 0-137.0112-13.312-199.3728-40.004267A513.809067 513.809067 0 0 1 149.504 746.496a513.809067 513.809067 0 0 1-109.568-163.089067C13.380267 521.0112 0 454.5536 0 384s13.312-137.0112 40.004267-199.3728A513.809067 513.809067 0 0 1 149.504 21.504a513.809067 513.809067 0 0 1 163.089067-109.568C374.9888-114.619733 441.4464-128 512-128s137.0112 13.312 199.3728 40.004267a513.809067 513.809067 0 0 1 163.089067 109.533866 513.809067 513.809067 0 0 1 109.568 163.089067C1010.619733 246.9888 1024 313.4464 1024 384s-13.312 137.0112-40.004267 199.3728A513.809067 513.809067 0 0 1 874.496 746.496a513.809067 513.809067 0 0 1-163.089067 109.568C649.0112 882.619733 582.5536 896 512 896z m285.525333-398.779733L424.618667 124.3136a23.620267 23.620267 0 0 0-17.237334-7.406933 23.620267 23.620267 0 0 0-17.237333 7.406933l-7.3728 7.3728-205.550933 206.779733a23.620267 23.620267 0 0 0-7.3728 17.237334c0 6.5536 2.4576 12.288 7.3728 17.2032l50.4832 50.4832a23.620267 23.620267 0 0 0 17.2032 7.3728c6.587733 0 12.322133-2.4576 17.237333-7.3728l145.237333-146.466134 305.220267 305.220267a23.620267 23.620267 0 0 0 17.237333 7.406933c6.587733 0 12.288-2.4576 17.237334-7.406933l50.449066-50.449067a23.620267 23.620267 0 0 0 7.406934-17.237333c0-6.5536-2.4576-12.288-7.406934-17.237333z"  horiz-adv-x="1024" />

    
    <glyph glyph-name="dengdai" unicode="&#59006;" d="M512 896C228.693333 896 0 667.306667 0 384s228.693333-512 512-512 512 228.693333 512 512S795.306667 896 512 896z m238.933333-614.4H409.6V622.933333h68.266667v-273.066666h273.066666v-68.266667z"  horiz-adv-x="1024" />

    
    <glyph glyph-name="tip-being" unicode="&#59000;" d="M512.000107-127.998293a508.627532 508.627532 0 0 0-362.025385 149.951469A508.627532 508.627532 0 0 0 0.00192 383.999893 508.648865 508.648865 0 0 0 149.953389 746.046611 508.627532 508.627532 0 0 0 512.000107 895.99808a508.648865 508.648865 0 0 0 362.046717-149.972802A508.648865 508.648865 0 0 0 1023.998293 383.999893a508.627532 508.627532 0 0 0-149.972802-362.025384A508.648865 508.648865 0 0 0 512.000107-127.998293z m0 810.663795a299.006941 299.006941 0 0 1-298.665609-298.665609 299.006941 299.006941 0 0 1 298.665609-298.665609 299.049608 299.049608 0 0 1 287.486981 223.999207H721.066033a221.865881 221.865881 0 0 0-209.065926-149.332804 222.377879 222.377879 0 0 0-158.186107 65.791767A222.377879 222.377879 0 0 0 288.0009 383.999893a222.420546 222.420546 0 0 0 65.791767 158.20744A222.377879 222.377879 0 0 0 512.000107 607.9991a215.828569 215.828569 0 0 0 156.799444-67.199762l-119.466243-119.466244H810.665716V682.665502l-89.599683-89.599682A286.292319 286.292319 0 0 1 512.000107 682.665502z"  horiz-adv-x="1024" />

    
    <glyph glyph-name="dengdai1" unicode="&#58995;" d="M160 832H64V896h896v-64h-96v-134.784h-64V832h-576v-134.784h-64V832z m704-896H960v-64H64v64h96v134.528h64V-64h576v134.528h64V-64zM576 351.232V416.768A288.128 288.128 0 0 1 800 697.6h64a352 352 0 0 0-192-313.6 352 352 0 0 0 192-313.6h-64A288.128 288.128 0 0 1 576 351.232z m-128 0A288.128 288.128 0 0 1 224 70.4h-64a352 352 0 0 0 192 313.6 352 352 0 0 0-192 313.6h64A288.128 288.128 0 0 1 448 416.768v-65.536z"  horiz-adv-x="1024" />

    
    <glyph glyph-name="manglu" unicode="&#58997;" d="M940.629576 808.887932h-65.924775V699.879702c0-137.284209-64.113222-260.46981-174.06661-327.339744 109.953388-66.712407 174.06661-189.031613 174.06661-326.237058v-87.190832h65.924775c22.526267 0 43.319745-15.516345 43.319745-44.895008a41.586955 41.586955 0 0 0-40.799323-42.21706H80.220685A41.586955 41.586955 0 0 0 39.421361-85.704177c0 23.313899 15.988924 44.895008 43.94985 44.895008h65.924775v87.190832c0 137.205446 68.366433 259.524652 178.398585 326.315822-110.032151 66.79117-178.398585 190.055534-178.398585 327.26098V808.887932H83.371211c-22.526267 0-43.319745 21.581109-43.319744 44.895008C39.972704 877.096839 60.766181 896 83.292448 896H943.780103c22.526267 0 40.799323-20.242135 40.799323-43.556034a45.44635 45.44635 0 0 0-43.94985-43.556034z m-153.903238 0H237.27445V699.879702c0-135.472656 72.462118-253.302361 199.507115-286.382894a40.169218 40.169218 0 0 0 14.334897-7.009922l1.023921-0.787632 0.708869-0.551342 0.393815-0.393816a43.319745 43.319745 0 0 0 10.790555-49.463272l-0.551342-1.260211c0-0.23629-0.157526-0.472579-0.23629-0.630105a27.645873 27.645873 0 0 0-1.338974-2.520422 41.429429 41.429429 0 0 0-2.126605-3.308053h-0.078763a56.945773 56.945773 0 0 0-5.19837-6.064764 41.508192 41.508192 0 0 0-2.993-2.599185l-0.157527-0.078763a44.422429 44.422429 0 0 0-1.4965-1.102685l-0.078763-0.078763a40.169218 40.169218 0 0 0-14.492424-6.301054c-126.336128-33.631874-198.010615-150.122606-198.010614-285.122682v-87.112069h549.451888v87.190832c0 135.472656-72.934697 252.27844-200.058457 285.358972a29.693716 29.693716 0 0 0-1.890316 0.551342l-0.551342 0.157527a43.240981 43.240981 0 0 0-2.756711 1.023921 40.405507 40.405507 0 0 0-13.38974 8.979002l-0.157526 0.236289a35.679717 35.679717 0 0 0-0.787632 0.787632l-0.551342 0.630105-0.630105 0.708869a31.977848 31.977848 0 0 0-0.787632 0.866395l-0.315053 0.472579a42.138297 42.138297 0 0 0-5.119606 8.348896v0.078763a36.231059 36.231059 0 0 0-0.787632 1.73279V356.472271a48.518114 48.518114 0 0 0-1.26021 3.544343l-0.078764 0.23629a52.535036 52.535036 0 0 0-0.630105 2.126605l-0.315053 1.417737v0.393816a81.283594 81.283594 0 0 0-0.315052 1.575264l-0.078763 0.472579a41.193139 41.193139 0 0 0-0.23629 1.811553V368.286747a42.059534 42.059534 0 0 0 30.638874 45.288824c127.12376 33.080532 200.058457 150.910238 200.058457 286.382894V808.887932zM569.891325 476.743635a106.093993 106.093993 0 0 1-58.048457-38.98777 107.669256 107.669256 0 0 1-14.965003 16.067687l-2.914238 2.441658-2.284132 2.047843-2.677947 1.811553a105.77894 105.77894 0 0 1-35.443428 16.697792c-65.846012 17.091608-114.679179 67.421275-136.969156 135.945235h390.665333c-22.289978-68.52396-71.359434-118.853627-137.362972-136.023998z m-79.550803-245.110991l3.938158 3.150527 0.472579 0.315052 2.441658 2.047843 0.393816 0.393816c1.73279 1.4965 3.386816 3.071764 5.040843 4.72579l2.126606 2.205369 2.993001 3.465579 2.993 3.780633 1.023921 1.575263 6.064765-9.215291 2.599184-1.417737 0.787632-0.708869a83.488962 83.488962 0 0 1 29.53619-19.37574l3.150526-1.102685a69.941697 69.941697 0 0 1 4.331975-1.338973c73.643566-20.478425 118.617337-80.968541 118.617337-177.059611v-18.509346H347.149075v18.509346c0 95.303438 44.107376 155.478502 116.648258 176.665795 8.821475 2.205369 17.170372 5.907238 24.889162 11.026844l1.575263 0.787631z"  horiz-adv-x="1024" />

    
    <glyph glyph-name="gongxiang" unicode="&#58991;" d="M441.379885 501.732329l188.890018 0 0-125.925669-188.890018 0 0 125.925669ZM504.344234 879.511356c-278.231352 0-503.704697-225.535936-503.704697-503.704697 0-278.167751 225.473345-503.703687 503.704697-503.703687 278.229333 0 503.703687 225.535936 503.703687 503.703687C1008.047921 653.97542 782.572557 879.511356 504.344234 879.511356zM441.379885 186.91765 315.454215 186.91765l0-62.963339-62.963339 0L252.490876 186.91765l62.963339 0 0 62.96233 125.925669 0L441.379885 186.91765zM819.157903 123.954311l-62.96132 0L756.196582 186.91765 630.269903 186.91765l0 62.96233 125.926679 0L756.196582 186.91765l62.96132 0L819.157903 123.954311zM819.157903 312.84332 693.232233 312.84332l-62.96233 0L441.379885 312.84332l-62.96233 0L252.490876 312.84332l0 62.963339 125.925669 0L378.416545 501.732329 315.454215 501.732329l0 62.963339 62.963339 0L378.417555 690.622347l62.96233 0 0-125.925669 188.890018 0L630.269903 690.622347l62.96233 0 0-125.925669 62.964349 0 0-62.963339-62.964349 0 0-125.925669 125.925669 0L819.157903 312.84332z"  horiz-adv-x="1024" />

    
    <glyph glyph-name="dujiaxiaoshou" unicode="&#58992;" d="M507.345455 500.363636h69.818181v-134.981818h-69.818181zM609.745455 500.363636h69.818181v-134.981818h-69.818181zM512 849.454545C256 849.454545 46.545455 640 46.545455 384s209.454545-465.454545 465.454545-465.454545 465.454545 209.454545 465.454545 465.454545S768 849.454545 512 849.454545zM404.945455 169.890909c-13.963636-9.309091-27.927273-13.963636-51.2-13.963636h-37.236364l-9.309091 32.581818h37.236364c18.618182 0 27.927273 4.654545 32.581818 9.309091 13.963636 13.963636 18.618182 51.2 18.618182 121.018182 0 23.272727 0 41.890909-4.654546 60.509091-27.927273-37.236364-55.854545-69.818182-93.090909-93.09091l-18.618182 32.581819c46.545455 32.581818 79.127273 69.818182 107.054546 111.709091 0 13.963636-4.654545 32.581818-9.309091 46.545454 0 4.654545-4.654545 9.309091-4.654546 9.309091-18.618182-13.963636-41.890909-32.581818-69.818181-46.545455l-18.618182 32.581819c27.927273 13.963636 51.2 27.927273 69.818182 46.545454-13.963636 23.272727-32.581818 46.545455-55.854546 65.163637l27.927273 23.272727c18.618182-18.618182 37.236364-41.890909 51.2-65.163637 23.272727 23.272727 41.890909 41.890909 55.854545 69.818182l32.581818-18.618182c-23.272727-32.581818-46.545455-60.509091-65.163636-79.127272 4.654545-9.309091 4.654545-13.963636 9.309091-23.272728 13.963636-41.890909 23.272727-97.745455 23.272727-172.218181 0-83.781818-9.309091-130.327273-27.927272-148.945455z m297.890909-18.618182c-4.654545 13.963636-9.309091 27.927273-9.309091 41.890909-55.854545-13.963636-134.981818-23.272727-237.381818-32.581818l-4.654546 37.236364c46.545455 4.654545 83.781818 4.654545 125.672727 9.309091v121.018182h-102.4V532.945455h102.4V616.727273h37.236364v-83.781818h102.4v-204.8h-102.4v-116.363637c27.927273 4.654545 51.2 9.309091 74.472727 13.963637-9.309091 23.272727-13.963636 46.545455-23.272727 69.818181l27.927273 9.309091c18.618182-41.890909 32.581818-93.090909 46.545454-148.945454l-37.236363-4.654546z"  horiz-adv-x="1024" />

    
    <glyph glyph-name="chuli" unicode="&#58993;" d="M512.22859321 893.46270549c-280.99010333 0-508.77465259-227.78523079-508.77465259-508.7751077 0-280.99055843 227.78454926-508.77578923 508.77465259-508.77578922 280.9912411 0 508.77624434 227.78523079 508.77624434 508.77578922C1021.00483755 665.6774747 793.21983431 893.46270549 512.22859321 893.46270549zM439.54792903 313.45821013L439.54792903 749.55197099l72.68066418 0 0-363.41105096 363.41150606 0 0-72.68293745L439.54792903 313.45798258z"  horiz-adv-x="1024" />

    
    <glyph glyph-name="zhengzaichuli" unicode="&#59061;" d="M1024 369.371429c0 73.142857-14.628571 138.971429-43.885714 204.8-29.257143 65.828571-65.828571 124.342857-117.028572 175.542857-51.2 51.2-109.714286 87.771429-168.228571 109.714285C629.028571 881.371429 563.2 896 497.371429 896 431.542857 896 365.714286 881.371429 299.885714 852.114286c-58.514286-29.257143-117.028571-65.828571-160.914285-117.028572C95.085714 683.885714 58.514286 625.371429 36.571429 566.857143 14.628571 501.028571 0 435.2 0 369.371429c0-65.828571 14.628571-131.657143 43.885714-197.485715 29.257143-58.514286 65.828571-117.028571 109.714286-160.914285 43.885714-43.885714 102.4-80.457143 160.914286-102.4 58.514286-29.257143 117.028571-36.571429 182.857143-36.571429 65.828571 0 124.342857 14.628571 182.857142 43.885714 58.514286 29.257143 109.714286 65.828571 153.6 109.714286 43.885714 43.885714 73.142857 102.4 95.085715 160.914286 14.628571 36.571429 21.942857 73.142857 29.257143 109.714285h7.314285c29.257143 0 58.514286 29.257143 58.514286 73.142858 0-7.314286 0-7.314286 0 0z m-102.4-182.857143c-21.942857-58.514286-58.514286-109.714286-102.4-153.6-43.885714-43.885714-95.085714-73.142857-146.285714-95.085715-58.514286-21.942857-117.028571-29.257143-175.542857-29.257142-58.514286 0-117.028571 14.628571-168.228572 36.571428-51.2 21.942857-102.4 58.514286-138.971428 102.4-36.571429 43.885714-73.142857 95.085714-87.771429 146.285714C73.142857 252.342857 65.828571 310.857143 65.828571 369.371429c0 58.514286 14.628571 117.028571 36.571429 168.228571 21.942857 51.2 58.514286 95.085714 95.085714 138.971429 36.571429 36.571429 87.771429 73.142857 138.971429 87.771428 51.2 21.942857 102.4 29.257143 160.914286 29.257143 51.2 0 109.714286-14.628571 153.6-36.571429 51.2-21.942857 95.085714-51.2 131.657142-95.085714 36.571429-36.571429 65.828571-87.771429 80.457143-138.971428 21.942857-51.2 29.257143-102.4 29.257143-160.914286v-7.314286c0-36.571429 29.257143-65.828571 58.514286-65.828571-7.314286-29.257143-14.628571-65.828571-29.257143-102.4z"  horiz-adv-x="1024" />

    
    <glyph glyph-name="mimayincang" unicode="&#58987;" d="M515.302209 202.297658c-95.108125 0-172.47212 79.513962-172.47212 177.24175 0 97.731882 77.363995 177.251983 172.47212 177.251983 95.105055 0 172.514075-79.520101 172.514075-177.251983C687.816285 281.81162 610.407264 202.297658 515.302209 202.297658L515.302209 202.297658zM515.302209 493.420085c-61.107753 0-110.809735-51.093678-110.809735-113.880677s49.701982-113.874537 110.809735-113.874537c61.10059 0 110.848621 51.087539 110.848621 113.874537S576.403822 493.420085 515.302209 493.420085L515.302209 493.420085zM515.302209 62.206016c-206.761064 0-392.041908 118.910227-483.45999 310.323745-4.216022 8.804527-4.216022 19.119453 0 27.927049 91.418083 191.397145 276.698926 310.307372 483.45999 310.307372 206.806089 0 392.083863-118.910227 483.501946-310.307372 4.211928-8.810666 4.211928-19.122523 0-27.927049C907.386072 181.116243 722.102159 62.206016 515.302209 62.206016L515.302209 62.206016zM94.114494 386.495844c83.184561-161.365154 243.174392-260.931824 421.187715-260.931824 178.017416 0 338.046133 99.56667 421.233764 260.931824C853.348342 547.831322 693.319625 647.394922 515.302209 647.394922 337.327772 647.394922 177.299055 547.831322 94.114494 386.495844L94.114494 386.495844z"  horiz-adv-x="1024" />

    
    <glyph glyph-name="zhongzhimima" unicode="&#59016;" d="M320.13759 374.201914v-172.266355c0-40.792033 30.294083-73.785589 67.68678-73.785588h248.251514c37.392697 0 67.68678 33.093536 67.68678 73.785588V374.201914c0 40.792033-30.294083 73.885569-67.68678 73.885569H387.924351c-37.492677 0-67.78676-33.093536-67.786761-73.885569z m76.685023-34.393283c0 24.495216 18.196446 44.291349 40.692052 44.291349h148.970904c22.495606 0 40.692052-19.796134 40.692053-44.291349v-103.379809c0-24.495216-18.196446-44.291349-40.692053-44.291349H437.514665c-22.395626 0-40.692052 19.796134-40.692052 44.291349V339.808631zM491.804062 276.620972v-56.988869h39.292325v56.988869c13.697325 7.598516 26.194884 19.996095 26.194884 36.192932 0 24.195274-20.595977 43.891427-45.891037 43.891427-25.29506 0-45.891037-19.596173-45.891037-43.891427 0.09998-16.196837 12.69752-28.594415 26.294865-36.192932zM639.775161 448.087483v57.588752s0 134.373755-128.174966 134.373755C383.52521 640.04999 383.52521 505.676235 383.52521 505.676235V448.087483h64.387424v63.787541c0.199961 13.397383 3.799258 63.987502 63.987503 63.987503s63.887522-50.79008 63.987502-63.987503V448.087483h63.887522zM985.207694 578.761961l-59.18844-24.395236c21.695763-52.589729 33.7934-110.0785 33.7934-170.566686 0-247.351689-200.560828-447.912517-447.912517-447.912517s-447.912517 200.560828-447.912517 447.912517 200.560828 447.912517 447.912517 447.912517c77.084944 0 149.470806-19.696153 212.858426-54.089436l-52.78969-72.985744L895.425229 671.943761 810.241867 896l-47.590705-65.887131C688.565632 871.804726 603.082328 895.800039 511.900137 895.800039 229.15536 895.800039 0.000117 666.644796 0.000117 383.90002s229.155243-511.90002 511.90002-511.90002 511.90002 229.155243 511.900019 511.90002c0 68.986526-13.797305 134.773677-38.592462 194.861941z"  horiz-adv-x="1024" />

    
    <glyph glyph-name="mimayincang1" unicode="&#58988;" d="M275.2 604.8c-76.8-44.8-137.6-112-176-192 73.6-153.6 233.6-256 412.8-256 60.8 0 121.6 12.8 176 35.2l-64 64c-32-22.4-70.4-35.2-112-35.2-105.6 0-192 86.4-192 192 0 41.6 12.8 80 35.2 112l-80 80z m-44.8 48l-48 44.8c-12.8 12.8-12.8 32 0 44.8 12.8 12.8 32 12.8 44.8 0l611.2-611.2c12.8-12.8 12.8-32 0-44.8s-32-12.8-44.8 0L736 144c-70.4-32-147.2-48-224-48-211.2 0-396.8 121.6-476.8 307.2-3.2 3.2-3.2 6.4-3.2 12.8 0 3.2 0 9.6 3.2 12.8 38.4 89.6 108.8 169.6 195.2 224zM403.2 480c-12.8-19.2-19.2-41.6-19.2-64 0-70.4 57.6-128 128-128 22.4 0 44.8 6.4 64 19.2L403.2 480zM992 416c0-6.4 0-12.8-3.2-19.2C960 336 921.6 278.4 870.4 233.6c-12.8-12.8-32-9.6-44.8 3.2s-9.6 32 3.2 44.8C870.4 320 902.4 364.8 928 416c-73.6 153.6-233.6 256-412.8 256-32 0-60.8-3.2-92.8-9.6-16-3.2-35.2 6.4-38.4 25.6s6.4 35.2 25.6 38.4c32 6.4 67.2 9.6 102.4 9.6 208 0 393.6-121.6 476.8-300.8 3.2-9.6 3.2-16 3.2-19.2z"  horiz-adv-x="1024" />

    
    <glyph glyph-name="yidongzuzhi" unicode="&#58989;" d="M132.654545-26.530909h851.781819V556.032H503.714909L339.316364 720.430545h-206.661819V-26.530909zM1085.998545-128H31.092364V821.992727h350.301091L545.792 657.687273h540.206545V-128zM621.381818 321.163636L507.717818 434.920727l71.773091 71.773091L815.755636 270.429091 579.490909 34.164364l-71.773091 71.773091 113.664 113.75709H301.335273v101.469091h320.046545z"  horiz-adv-x="1117" />

    
    <glyph glyph-name="quanxian" unicode="&#58990;" d="M292.63-1.189H162.433c13.141 181.37 164.907 324.91 349.57 324.91 43.34 0 84.868-7.91 123.217-22.356l39.267 39.267c-2.04 0.903-4.075 1.81-6.133 2.681a401.237 401.237 0 0 1-34.501 12.76c18.548 10.671 35.812 23.853 51.35 39.39 46.264 46.264 71.742 107.775 71.742 173.202 0 65.428-25.478 126.938-71.742 173.202C638.94 788.131 577.429 813.61 512.002 813.61s-126.937-25.479-173.2-71.743c-46.265-46.264-71.743-107.774-71.743-173.202 0-65.427 25.478-126.938 71.742-173.201 15.538-15.538 32.802-28.719 51.35-39.39a401.237 401.237 0 0 1-34.501-12.76c-47.832-20.232-90.785-49.19-127.664-86.069-36.88-36.88-65.837-79.832-86.068-127.664-20.952-49.536-31.575-102.14-31.575-156.353 0-14.13 11.454-25.584 25.584-25.584H292.63c14.131 0 25.584 11.455 25.584 25.584s-11.454 25.583-25.584 25.583z m25.597 569.853c0 106.849 86.927 193.777 193.776 193.777S705.78 675.513 705.78 568.664s-86.927-193.776-193.776-193.776-193.776 86.928-193.776 193.776zM882.089 129.58c-18.228 43.095-43.56 82.212-75.368 116.513l-36.323-36.323c51.763-56.497 85.305-129.946 91.174-210.959H731.35c-14.13 0-25.584-11.454-25.584-25.584s11.455-25.584 25.584-25.584h156.73c14.13 0 25.584 11.455 25.584 25.584 0 54.212-10.624 106.817-31.575 156.353z m-90.541 215.407c-9.992 9.99-26.19 9.99-36.18 0l-244.121-244.12-107.032 107.03c-9.992 9.99-26.19 9.99-36.18 0-9.992-9.991-9.992-26.19 0-36.18l125.122-125.122c4.996-4.995 11.542-7.493 18.09-7.493s13.096 2.498 18.092 7.493l262.211 262.21c9.989 9.99 9.989 26.19-0.002 36.182z"  horiz-adv-x="1025" />

    
    </font>
</defs>
</svg>
