<?xml version="1.0" standalone="no"?>
<!DOCTYPE svg PUBLIC "-//W3C//DTD SVG 1.1//EN" "http://www.w3.org/Graphics/SVG/1.1/DTD/svg11.dtd" >
<!--
2013-9-30: Created.
-->
<svg>
<metadata>
Created by iconfont
</metadata>
<defs>

<font id="iconfont" horiz-adv-x="1024" >
  <font-face
    font-family="iconfont"
    font-weight="500"
    font-stretch="normal"
    units-per-em="1024"
    ascent="896"
    descent="-128"
  />
    <missing-glyph />
    
    <glyph glyph-name="quyu" unicode="&#59085;" d="M0 896v-1024h1024V896z m955.733333-955.733333H68.266667V827.733333h887.466666zM341.333333 8.533333h546.133334V759.466667H136.533333v-750.933334h204.8z m477.866667 68.266667h-68.266667l68.266667 68.266667z m0 204.8l-204.8-204.8H477.866667l341.333333 341.333333zM204.8 691.2h204.8L204.8 486.4z m0-341.333333l341.333333 341.333333h136.533334l-477.866667-477.866667z m0-273.066667l614.4 614.4v-136.533333l-477.866667-477.866667z"  horiz-adv-x="1024" />

    
    <glyph glyph-name="daoru" unicode="&#59084;" d="M140.8-42.496H885.76c27.648 0 50.688 22.528 50.688 50.688V184.32c0 15.36-10.24 25.088-25.088 25.088-15.36 0-25.088-10.24-25.088-25.088v-176.64H140.8V752.64H885.76v-156.672c0-15.36 10.24-25.088 25.088-25.088 15.36 0 25.088 10.24 25.088 25.088V752.64c0 27.648-22.528 50.688-50.688 50.688H140.8c-27.648 0-50.688-22.528-50.688-50.688v-744.96c0-27.648 20.48-50.176 50.688-50.176zM594.944 161.792c-5.12-5.12-12.8-7.68-17.92-7.68s-12.8 2.56-17.92 7.68l-202.24 202.24c-2.56 2.56-5.12 5.12-5.12 7.68-2.56 5.12-2.56 12.8 0 19.968 2.56 2.56 2.56 5.12 5.12 7.68l202.24 202.24c10.24 10.24 25.088 10.24 35.328 0s10.24-25.088 0-35.328l-158.72-159.744h474.624c15.36 0 25.088-10.24 25.088-25.088 0-15.36-10.24-25.088-25.088-25.088H435.712l159.232-159.232c9.728-10.24 9.728-25.088 0-35.328z"  horiz-adv-x="1024" />

    
    <glyph glyph-name="tianqi" unicode="&#59082;" d="M369.92499 472.494139m-201.369031-28.300572a203.348 203.348 0 1 1 402.738063 56.601144 203.348 203.348 0 1 1-402.738063-56.601144ZM399.552 261.686C283.126 245.324 175.479 326.441 159.117 442.867 142.754 559.293 223.872 666.939 340.297 683.302c116.426 16.362 224.073-64.755 240.435-181.18 16.363-116.427-64.754-224.073-181.18-240.436z m-2.654 18.879c106 14.897 179.853 112.903 164.956 218.903-14.897 106-112.904 179.853-218.903 164.955-106-14.897-179.853-112.903-164.956-218.903 14.897-106 112.904-179.853 218.903-164.955zM330.708 750.347c10.426 1.465 20.066-5.8 21.532-16.225l2.653-18.879c1.465-10.426-5.799-20.066-16.225-21.531-10.426-1.465-20.066 5.799-21.532 16.225l-2.653 18.878c-1.465 10.427 5.8 20.067 16.225 21.532zM471.668 733.15c9.762-3.945 14.478-15.056 10.534-24.818l-7.142-17.675c-3.944-9.762-15.055-14.479-24.817-10.535-9.762 3.944-14.478 15.055-10.534 24.817l7.141 17.676c3.945 9.762 15.056 14.478 24.818 10.534zM591.046 642.658c6.482-8.296 5.01-20.277-3.286-26.759l-15.022-11.737c-8.297-6.482-20.278-5.01-26.76 3.286-6.482 8.296-5.01 20.277 3.286 26.76l15.022 11.736c8.297 6.482 20.278 5.011 26.76-3.286zM142.352 435.455c1.465-10.426-5.799-20.066-16.225-21.531l-18.878-2.654c-10.427-1.465-20.067 5.8-21.532 16.226-1.465 10.426 5.8 20.066 16.225 21.531l18.879 2.653c10.426 1.465 20.066-5.799 21.531-16.225zM155.942 555.035c-3.944-9.762-15.055-14.479-24.817-10.534l-17.676 7.141c-9.762 3.944-14.478 15.055-10.534 24.817 3.944 9.762 15.055 14.478 24.817 10.534l17.675-7.141c9.762-3.944 14.479-15.055 10.535-24.817zM228.616 645.359c-8.296-6.482-20.277-5.011-26.76 3.285l-11.736 15.023c-6.482 8.297-5.011 20.277 3.286 26.76 8.296 6.481 20.277 5.01 26.759-3.286l11.737-15.023c6.482-8.297 5.01-20.277-3.286-26.76zM332.477 737.761a6.355 6.355 0 0 1-5.408-7.177l2.653-18.878a6.355 6.355 0 0 1 12.585 1.769l-2.653 18.878a6.355 6.355 0 0 1-7.177 5.408z m-1.769 12.586c10.426 1.465 20.066-5.8 21.532-16.225l2.653-18.879c1.465-10.426-5.799-20.066-16.225-21.531-10.426-1.465-20.066 5.799-21.532 16.225l-2.653 18.878c-1.465 10.427 5.8 20.067 16.225 21.532zM466.907 721.366a6.355 6.355 0 0 1-8.273-3.512l-7.141-17.676a6.355 6.355 0 0 1 11.784-4.76l7.141 17.675a6.355 6.355 0 0 1-3.511 8.273z m4.76 11.783c9.763-3.944 14.479-15.055 10.535-24.817l-7.142-17.675c-3.944-9.762-15.055-14.479-24.817-10.535-9.762 3.944-14.478 15.055-10.534 24.817l7.141 17.676c3.945 9.762 15.056 14.478 24.818 10.534zM581.031 634.834a6.355 6.355 0 0 1-8.92 1.095l-15.023-11.737a6.355 6.355 0 0 1 7.825-10.015l15.022 11.737a6.355 6.355 0 0 1 1.096 8.92z m10.015 7.824c6.482-8.296 5.01-20.277-3.286-26.759l-15.022-11.737c-8.297-6.482-20.278-5.01-26.76 3.286-6.482 8.296-5.01 20.277 3.286 26.76l15.022 11.736c8.297 6.482 20.278 5.011 26.76-3.286zM129.767 433.686a6.355 6.355 0 0 1-7.178 5.409l-18.878-2.654a6.355 6.355 0 0 1 1.769-12.585l18.878 2.653a6.355 6.355 0 0 1 5.409 7.177z m12.585 1.769c1.465-10.426-5.799-20.066-16.225-21.531l-18.878-2.654c-10.427-1.465-20.067 5.8-21.532 16.226-1.465 10.426 5.8 20.066 16.225 21.531l18.879 2.653c10.426 1.465 20.066-5.799 21.531-16.225zM144.158 559.796a6.355 6.355 0 0 1-3.512 8.272l-17.675 7.142a6.355 6.355 0 0 1-4.761-11.784l17.676-7.142a6.355 6.355 0 0 1 8.272 3.512z m11.784-4.761c-3.944-9.762-15.055-14.479-24.817-10.534l-17.676 7.141c-9.762 3.944-14.478 15.055-10.534 24.817 3.944 9.762 15.055 14.478 24.817 10.534l17.675-7.141c9.762-3.944 14.479-15.055 10.535-24.817zM220.792 655.374a6.355 6.355 0 0 1 1.095 8.92l-11.737 15.022a6.355 6.355 0 0 1-10.015-7.825l11.737-15.022a6.355 6.355 0 0 1 8.92-1.095z m7.824-10.015c-8.296-6.482-20.277-5.011-26.76 3.285l-11.736 15.023c-6.482 8.297-5.011 20.277 3.286 26.76 8.296 6.481 20.277 5.01 26.759-3.286l11.737-15.023c6.482-8.297 5.01-20.277-3.286-26.76zM537.418 562.362c118.07 0 218.016-77.59 251.632-184.564C884.348 372.53 960 293.586 960 196.972c0-100.023-81.084-181.107-181.106-181.107H257.816C150.774 15.865 64 102.64 64 209.681c0 107.041 86.774 193.815 193.816 193.815a194.87 194.87 0 0 0 36.123-3.36c39.757 95.269 133.799 162.226 243.48 162.226zM252.54 331.8c6.591 2.414 13.89-0.972 16.304-7.563 2.414-6.591-0.973-13.891-7.564-16.305-44.632-16.344-80.554-51.076-98.348-95.17-2.627-6.508-10.033-9.656-16.542-7.029-6.509 2.627-9.656 10.033-7.03 16.542 20.487 50.766 61.801 90.71 113.18 109.526zM432.535 460.28c5.389 4.498 13.403 3.775 17.9-1.614 4.498-5.39 3.775-13.404-1.615-17.901a242.919 242.919 0 0 1-52.781-61.75c-3.604-6.023-11.409-7.984-17.432-4.38-6.023 3.604-7.985 11.408-4.38 17.431a268.337 268.337 0 0 0 58.308 68.215zM537.418 536.943c-97.05 0-183.278-58.55-220.021-146.596l-7.93-19.004-20.237 3.815a169.452 169.452 0 0 1-31.414 2.92c-93.004 0-168.398-75.394-168.398-168.397 0-93.003 75.394-168.397 168.398-168.397h521.078c85.984 0 155.688 69.704 155.688 155.688 0 82.729-64.717 150.902-146.935 155.446l-17.57 0.972-5.276 16.788c-30.94 98.456-122.55 166.765-227.383 166.765z m0 25.419c118.07 0 218.016-77.59 251.632-184.564C884.348 372.53 960 293.586 960 196.972c0-100.023-81.084-181.107-181.106-181.107H257.816C150.774 15.865 64 102.64 64 209.681c0 107.041 86.774 193.815 193.816 193.815a194.87 194.87 0 0 0 36.123-3.36c39.757 95.269 133.799 162.226 243.48 162.226z"  horiz-adv-x="1024" />

    
    <glyph glyph-name="zaigang" unicode="&#59064;" d="M772.75869 376.90659000000005a43.34945 43.34945 0 0 0 43.041453-40.617484l0.101999-2.832964v-19.763749h82.362954c39.884494 0 72.549079-31.743597 74.444055-71.474093l0.084999-3.634954v-284.549387c0-40.17449-31.4876-73.095072-70.929099-74.989048l-3.582955-0.102999H521.727877c-39.867494 0-72.532079 31.743597-74.427056 71.474092l-0.101998 3.617955v284.566387c0 40.19149 31.5046 73.113072 70.928099 75.007048l3.583955 0.101998h82.378954V333.457142a43.399449 43.399449 0 0 0 40.329488 43.382449l2.831964 0.084999h125.507407z m-137.198259-260.826689h-133.458305v-162.045942c0-10.170871 7.661903-18.550764 17.475778-19.625751l2.132973-0.119999h376.537219c10.102872 0 18.431766 7.713902 19.489753 17.595777l0.119999 2.149973V116.07990099999995H784.396542c0.050999-1.329983 0.101999-2.644966 0.101999-3.959949 0-41.402474-33.432576-75.091047-74.529054-75.091047s-74.512054 33.689572-74.512054 75.092047c0 1.330983 0.034 2.644966 0.102998 3.959949z m93.609812 0h-38.365513a19.71175 19.71175 0 0 1 19.182756-23.721699 19.71175 19.71175 0 0 1 19.182757 23.721699z m169.077853 142.266194H521.727877c-10.819863 0-19.609751-8.874887-19.609752-19.762749V171.40919899999994H917.874847v67.173147c0 10.922861-8.788888 19.762749-19.609751 19.762749z m-141.208207 63.231197h-94.120805a3.92495 3.92495 0 0 1-3.789952-2.900963l-0.135998-1.040986v-3.94295H760.966839v3.94295a3.92495 3.92495 0 0 1-3.92595 3.941949zM494.490222 896c144.058171 0 261.252683-117.263511 261.252684-261.423681 0-80.433979-36.556536-155.339028-100.265727-205.480392l-16.314793-12.799837c-33.330577-29.985619-97.108767-39.969493-139.245233-43.246451-1.791977 0-3.566955 0.119998-5.359932 0.119998-11.979848 0-23.789698-0.631992-35.463549-1.723978h-0.511994c-190.461582-18.192769-340.048683-179.248724-340.048683-374.677243v-57.49627H376.031726c22.186718-2.457969 33.279578-13.653827 33.279578-33.621573 0-19.949747-11.092859-31.162604-33.279578-33.637573H84.878422A33.689572 33.689572 0 0 0 51.20585-94.34942699999999v91.118843c0 182.268686 109.685608 343.939634 279.411453 411.812772l19.217756 7.696902-16.299793 12.799838c-63.708191 50.141363-100.264727 125.046412-100.264727 205.480391C233.270539 778.7534880000001 350.449051 896 494.490222 896z m0-67.242146c-106.904643 0-193.875539-87.106894-193.875538-194.181535 0-107.058641 86.970896-194.147535 193.875538-194.147535 106.920643 0 193.925538 87.088894 193.925538 194.147535 0 107.074641-87.004895 194.164535-193.925538 194.164535z"  horiz-adv-x="1024" />

    
    <glyph glyph-name="jiancerenyuanshuliang" unicode="&#59065;" d="M616.448 207.872c-53.248 14.336-114.688 18.432-157.696 75.776 0 0-22.528 24.576 26.624 88.064 49.152 61.44 53.248 159.744 40.96 237.568-12.288 75.776-81.92 126.976-155.648 126.976s-143.36-51.2-155.648-126.976c-12.288-75.776-8.192-174.08 40.96-235.52s26.624-88.064 26.624-88.064c-43.008-57.344-102.4-61.44-157.696-75.776-20.48-6.144-40.96-12.288-59.392-26.624C4.096 138.24 18.432 35.84 18.432 35.84h700.416s14.336 102.4-47.104 147.456c-14.336 10.24-34.816 18.432-55.296 24.576z m0 0M954.368 181.248c-18.432 12.288-36.864 20.48-57.344 24.576-55.296 14.336-180.224 102.4-131.072 163.84 49.152 61.44 53.248 159.744 40.96 237.568-12.288 75.776-81.92 126.976-155.648 126.976-32.768 0-63.488-10.24-90.112-28.672 18.432-24.576 30.72-55.296 34.816-86.016 8.192-51.2 20.48-176.128-43.008-272.384-6.144-6.144-8.192-14.336-8.192-22.528 0-20.48 22.528-32.768 38.912-36.864l18.432-4.096c10.24-2.048 20.48-4.096 30.72-8.192 26.624-6.144 55.296-16.384 81.92-36.864 81.92-59.392 79.872-167.936 75.776-204.8h208.896c2.048 0 18.432 102.4-45.056 147.456z m0 0"  horiz-adv-x="1024" />

    
    <glyph glyph-name="jiancerenyuanshuliang1" unicode="&#59066;" d="M616.448 207.872c-53.248 14.336-114.688 18.432-157.696 75.776 0 0-22.528 24.576 26.624 88.064 49.152 61.44 53.248 159.744 40.96 237.568-12.288 75.776-81.92 126.976-155.648 126.976s-143.36-51.2-155.648-126.976c-12.288-75.776-8.192-174.08 40.96-235.52s26.624-88.064 26.624-88.064c-43.008-57.344-102.4-61.44-157.696-75.776-20.48-6.144-40.96-12.288-59.392-26.624C4.096 138.24 18.432 35.84 18.432 35.84h700.416s14.336 102.4-47.104 147.456c-14.336 10.24-34.816 18.432-55.296 24.576z m0 0M954.368 181.248c-18.432 12.288-36.864 20.48-57.344 24.576-55.296 14.336-180.224 102.4-131.072 163.84 49.152 61.44 53.248 159.744 40.96 237.568-12.288 75.776-81.92 126.976-155.648 126.976-32.768 0-63.488-10.24-90.112-28.672 18.432-24.576 30.72-55.296 34.816-86.016 8.192-51.2 20.48-176.128-43.008-272.384-6.144-6.144-8.192-14.336-8.192-22.528 0-20.48 22.528-32.768 38.912-36.864l18.432-4.096c10.24-2.048 20.48-4.096 30.72-8.192 26.624-6.144 55.296-16.384 81.92-36.864 81.92-59.392 79.872-167.936 75.776-204.8h208.896c2.048 0 18.432 102.4-45.056 147.456z m0 0"  horiz-adv-x="1024" />

    
    <glyph glyph-name="dajia" unicode="&#59067;" d="M8.649532 560.955915c14.423149 36.74417 35.033872 69.294298 64.958638 95.340936 48.36766 42.016681 104.96 58.60766 168.360851 54.108596 9.303149-0.620936 18.922213-0.925957 28.214468-0.468426 40.785702 2.178723 68.84766-16.743489 79.697702-55.808 15.806638-56.744851 53.324255-91.473702 108.358809-107.432851 26.983489-7.908766 55.197957-12.091915 83.259915-15.817532 29.30383-3.878128 44.021106-16.743489 42.790128-41.548255-1.394383-27.451915-23.257872-49.457021-49.609532-47.441702-67.289872 5.272511-130.701617 22.789447-186.357107 62.943319-3.867234 2.788766-7.28783 6.045957-11.002553 8.987234-3.257191 2.79966-6.666894 5.435915-11.470979 9.303149-5.425021-23.246979-10.850043-45.262979-15.817532-67.278979-10.076596-43.411064-19.684766-86.974638-30.066383-130.385702-2.026213-8.518809-0.326809-12.865362 7.592852-17.211915 43.716085-24.488851 81.233702-55.808 106.190978-100.297532 27.288511-48.836085 32.866043-100.613447 22.016-154.874553-10.076596-49.772936-31.47166-94.883404-56.897361-138.131064-11.002553-18.769702-27.746043-25.589106-46.973277-20.937532-21.242553 4.956596-40.927319 25.730723-41.395745 46.668256-0.305021 11.155064 2.483745 23.094468 6.819405 33.334468 11.634383 28.051064 27.125106 54.718638 37.060085 83.401532 20.153191 58.60766 0.305021 106.659404-46.984171 143.251064-20.915745 16.275064-45.426383 28.061957-70.220255 42.942638-5.272511-19.227234-9.619064-34.728851-13.802213-50.382979-23.562894-89.458383-47.125787-178.905872-70.852085-268.364255-7.745362-29.30383-31.929191-42.942638-61.08051-35.349787-29.151319 7.603745-44.032 32.713532-36.275745 61.548936 32.397617 122.008511 65.884596 243.712 97.051234 366.025532 23.094468 90.395234 43.095149 181.705532 64.490213 272.394893 2.015319 8.377191 4.030638 16.590979 6.361872 26.515064-29.772255-7.756255-51.940766-24.18383-68.684255-47.125787-9.771574-13.333787-17.974468-28.061957-24.957277-43.24766-13.028766-28.072851-43.726979-29.151319-63.88017-8.998127-7.44034 7.44034-11.318468 18.137872-16.885106 27.277617v17.059404zM1125.201702 303.605106c-6.056851-20.774128-14.891574-40.306383-32.724425-53.487659-10.697532-7.908766-22.789447-13.802213-34.412937-20.469107-42.321702-24.031319-79.523404-54.577021-114.415659-88.21651-20.621617-19.989787-41.07983-40.142979-62.006468-59.686128-24.804766-23.246979-62.169872-18.758809-81.397107 9.303149-12.712851 18.453787-10.545021 38.606979 6.819405 56.123915 21.547574 21.547574 43.726979 42.637617 65.427063 64.032681a89.632681 89.632681 0 0 1 13.486298 16.885106c-18.758809-7.581957-37.822638-14.412255-56.276425-22.931064-75.035234-35.044766-135.494809-87.595574-182.63149-155.658893-3.714723-5.425021-7.592851-10.697532-11.92851-15.654128-13.802213-16.122553-33.650383-19.06383-51.940766-8.061277-28.061957 16.896-36.59166 52.245787-18.301277 79.370894 63.88017 95.035915 148.686979 164.493617 255.967319 204.952511 39.217021 14.72817 80.155234 24.499745 121.856 37.060085-7.603745 16.885106-15.501617 36.275745-25.12068 55.034553-25.578213 50.219574-59.217702 94.567489-99.676596 133.947915-11.939404 11.623489-20.621617 26.820085-31.166638 39.837957-2.483745 2.941277-6.514383 5.588426-10.392511 6.209362-75.492766 14.259745-151.148936 28.051064-226.805107 42.158298-8.224681 1.557787-16.438468 2.79966-24.499744 4.967489-26.199149 7.28783-39.837957 31.319149-33.63949 58.444256 6.350979 27.451915 28.530383 42.942638 55.502979 38.291063 27.125106-4.793191 54.250213-10.076596 81.386213-15.185702 60.622979-11.329362 121.245957-22.636936 182.010553-33.486978 4.183149-0.773447 9.45566 0.457532 13.028766 2.788766 33.792 20.926638 67.431489 18.442894 96.88783-8.682213 98.598128-90.700255 166.508936-200.453447 201.390298-330.065702 1.241872-4.499064 2.32034-8.987234 3.409702-13.638809 0.152511-8.061277 0.152511-16.122553 0.152511-24.18383zM295.30417 725.438638c-46.973277-0.457532-85.11183 37.212596-85.732766 84.501788-0.468426 45.578894 37.517617 84.022468 83.412426 84.795914 46.973277 0.773447 85.732766-37.049191 86.190298-84.022468 0.620936-46.047319-37.517617-84.806809-83.869958-85.275234zM808.001362 709.011064c-44.337021 0.925957-78.913362 36.896681-77.834894 80.928681 1.089362 42.942638 36.907574 78.129021 79.076766 77.824 44.021106-0.468426 80.460255-36.74417 79.675915-79.686809-0.610043-44.957957-36.580766-80.155234-80.917787-79.065872zM654.052766 358.182128h-14.107234c0.152511 31.613277 12.091915 56.733957 37.365106 74.871829 6.198468 4.499064 8.671319 9.150638 9.608171 16.590979 1.241872 9.60817 4.499064 18.911319 6.971914 28.672-7.592851 5.12-16.122553 9.924085-23.715404 15.970043-5.882553 4.651574-11.786894 10.076596-15.501617 16.438468-6.514383 11.470979-12.865362 21.863489-28.998808 17.211915V543.591489c8.377191 0 16.285957 0.468426 24.031319-0.315915 2.483745-0.152511 5.893447-2.788766 6.819404-5.12 11.165957-27.430128 31.319149-43.705191 61.548936-50.219574-2.32034-4.030638-4.33566-7.135319-6.045957-10.545021-2.636255-5.12-5.882553-10.24-7.124426-15.817532-2.331234-10.534128-0.773447-22.789447-5.893447-31.62417-4.804085-8.366298-16.590979-12.244426-24.183829-19.379745-10.850043-10.229106-16.590979-23.562894-19.06383-38.291064-0.326809-4.33566-0.936851-8.987234-1.710298-14.107234z"  horiz-adv-x="1132" />

    
    <glyph glyph-name="zhiliu" unicode="&#59068;" d="M878.5 127.89999999999998c7.8 2.1 16.1 0.9 23-3.3 6.9-4.2 11.9-11.1 13.8-19.2 8.4-34 12.7-69.1 12.7-104.2 0-17.2-13.6-31.1-30.4-31.1H128.9c-16.8 0-30.4 13.9-30.4 31.1 0 189.1 121.7 349.6 289.2 404.2-53.1 39.7-87.9 103.4-87.9 175.8 0 120.6 95.6 218.4 213.5 218.4s213.5-97.8 213.5-218.4-95.6-218.4-213.5-218.4c-0.8 0-1.5 0.2-2.3 0.2-184-1.2-335-146.4-350.4-330.7h705.3c-1.6 19.5-4.8 38.9-9.5 57.9-2 8-0.8 16.5 3.4 23.5 4.1 7.1 10.8 12.2 18.7 14.2zM513.2 734c-82.4 0-149.5-68.6-149.5-152.9s67-152.9 149.5-152.9 149.5 68.6 149.5 152.9S595.7 734 513.2 734z m284.9-651l-21.6-23.7-20.8 24.4c-38.8 45.4-64.9 74.7-77.7 87.3-26.8 26.4-42.2 62.4-42.2 100.7 0 78.1 63.3 141.4 141.4 141.4s141.4-63.3 141.4-141.4c0-33.8-11.9-65.9-33.3-91.2-14.2-16.7-43.2-49.1-87.2-97.5zM842 217c12.8 15.2 20 34.4 20 54.7 0 46.9-38 84.8-84.8 84.8s-84.8-38-84.8-84.8c0-23 9.2-44.6 25.3-60.4 11.7-11.5 31.6-33.6 60.1-66.5 31.6 34.8 53.1 59 64.2 72.2z m-64.8 17c-20.8 0-37.7 16.9-37.7 37.7 0 20.8 16.9 37.7 37.7 37.7 20.8 0 37.7-16.9 37.7-37.7 0-20.8-16.9-37.7-37.7-37.7z"  horiz-adv-x="1024" />

    
    <glyph glyph-name="juzhong" unicode="&#59071;" d="M935.97-8.192H639.625c-8.841 44.442-4.267 56.2 30.088 78.746 16.35 10.786 32.068 22.237 49.391 31.06 17.681 8.824 20.292 22.529 16.691 39.22-1.314 5.547-1.98 12.083-5.564 16.333-22.237 28.45-12.765 60.467-10.461 91.187 2.61 34.987 42.188 62.089 78.83 57.856 35.329-4.267 59.188-34.987 56.577-71.577-0.649-8.824 2.61-17.972 2.61-26.795 0-8.175 0-16.999-2.286-24.85-2.287-8.157-7.85-15.36-11.435-23.21-13.739-31.044-10.137-43.452 18.313-61.764 13.397-8.5 25.839-18.944 39.902-25.498 35.976-16.674 40.567-45.107 33.69-80.725z m-830.157-0.341c-8.823 36.283-1.638 64.716 34.68 82.346 16.008 7.868 29.764 20.293 45.79 28.45 17.322 9.165 20.6 22.528 16.025 39.544-1.314 5.564-2.287 11.776-5.563 16.333-21.914 29.115-12.425 61.781-9.148 92.501 3.584 33.673 41.54 59.17 76.527 55.245 35.652-3.925 56.593-33.673 59.545-69.973 2.287-31.352-4.915-58.488-15.718-86.58-10.462-27.136-6.212-33.348 18.33-49.015 12.1-7.85 23.552-17.323 36.3-23.21 37.274-17 50.381-44.8 39.254-85.641H105.813z m428.152 575.232V463.41h-31.403c1.007 10.138 2.304 18.944 2.97 28.109 0.648 10.786 1.621 21.572 1.621 32.034 0 11.776-0.648 23.21-0.973 34.97 1.963 0.324 4.25 0.324 6.213 0.648-0.342 1.314 0 3.584-0.99 3.926-39.578 18.944-52.327 57.856-58.88 94.464-5.24 29.73-8.824 65.024 16.042 92.484 33.349 36.267 79.156 35.294 110.217-2.953 2.611-3.242 6.212-7.168 6.212-11.093 0.649-33.024 16.691-66.68-4.25-98.714-0.648-1.314-1.638-2.287-1.962-3.925-5.888-31.368-20.6-56.866-44.817-66.662zM673.963 464.4h-115.78c6.877 38.23 13.414 75.162 20.599 116.992 29.116-19.934 58.88-35.294 80.793-57.856 11.435-11.759 9.49-36.59 14.388-59.136zM462.336 577.792c6.878-37.58 13.414-75.162 20.617-114.38H375.67c-10.803 41.181-6.212 54.578 27.136 78.113 17.664 12.425 35.67 24.184 53.334 36.267 1.297 0.666 2.935 0 6.212 0zM618.77 160.324c-26.847 14.729-46.934 26.863-60.246 36.386-27.819 19.627-51.695 18.313-78.848-0.972-12.715-9.114-31.95-20.873-57.737-35.277a20.668 20.668 0 0 0-27.955 7.68 20.992 20.992 0 0 0 7.066 28.348c26.316 16.4 46.967 28.04 61.952 34.884 31.06 14.046 41.864 34.304 38.263 67.652-1.604 15.53-2.048 37.82-1.314 66.85a20.617 20.617 0 0 0 20.6 20.088c11.093 0 20.138-8.926 20.275-20.02 0.477-38.229 0.153-67.515-0.973-87.842-0.973-18.636 4.915-29.406 20.94-37.922 18.347-9.728 44.579-24.508 78.678-44.373 9.677-5.615 12.97-18.005 7.339-27.682a20.838 20.838 0 0 0-28.04-7.8z"  horiz-adv-x="1024" />

    
    <glyph glyph-name="ligang" unicode="&#59072;" d="M450.1 395c118.8 0 215.5 98.4 215.5 219.3S568.9 833.5 450.1 833.5c-118.9 0-215.5-98.4-215.5-219.2S331.2 395 450.1 395z m74.8-21.1H377.4c-150 0-272.1-124.1-272.1-276.6v-16.4c0-79.8 120.1-79.8 272.1-79.8h83.5c-26.8 43.6-42.6 94.8-42.6 149.8 0.1 90.1 41.7 170.4 106.6 223zM702.8 367.4c-119.2 0-215.9-96.9-215.9-216.4s96.6-216.4 215.9-216.4S918.7 31.5 918.7 151s-96.6 216.4-215.9 216.4z m96.1-270.3H691.3c-19.8 0-35.9 16.1-35.9 35.9V240.5c0 19.8 16.1 35.9 35.9 35.9s35.9-16.1 35.9-35.9v-71.7h71.7c19.8 0 35.9-16.1 35.9-35.9 0-19.8-16.1-35.8-35.9-35.8z"  horiz-adv-x="1024" />

    
    <glyph glyph-name="quegang" unicode="&#59073;" d="M498.968134 65.97534700000006a197.829968 197.829968 0 0 1 13.745859-42.294565 168.541269 168.541269 0 0 1 27.490717-45.465533 255.667373 255.667373 0 0 1 44.409544-45.466533 319.001723 319.001723 0 0 1 68.726294-41.236576c-21.146783-4.228957-42.293565-8.457913-63.440348-10.572892s-46.523522-5.286946-76.129218-6.343935-63.441348-2.114978-102.562947-2.114978c-19.031804 0-42.293565-1.056989-67.669304 0s-51.810468 1.056989-80.359175 3.171967c-32.777663 2.114978-52.867457 0-83.531142 2.114979-27.489718 2.114978-49.694489 4.229957-72.95625 7.400924a509.324767 509.324767 0 0 0-57.097414 10.573891c-15.859837 3.171967-25.375739 1.056989-29.605695 5.286946-6.343935 5.285946-12.68787 40.179587-15.859837 67.669305a434.358538 434.358538 0 0 0 4.229956 107.849892 88.817088 88.817088 0 0 0 30.662685 57.097413 210.729835 210.729835 0 0 0 57.096414 31.719674c22.204772 7.401924 44.409544 14.803848 67.670304 21.147783a222.042719 222.042719 0 0 1 62.383359 26.433728 108.166889 108.166889 0 0 1 32.777664 26.433729 67.14131 67.14131 0 0 1 15.859837 25.375739 71.05427 71.05427 0 0 1 4.229956 25.376739c0 8.458913 0 17.974815-1.056989 29.605696a52.867457 52.867457 0 0 1-15.859837 37.00762 390.478988 390.478988 0 0 1-29.606696 28.547707 61.960363 61.960363 0 0 0-14.802848 20.089793 199.732948 199.732948 0 0 0-11.62988 26.433729c-3.172967 10.573891-6.344935 21.146783-10.573892 32.777663a48.532501 48.532501 0 0 0-14.802847 7.401924 85.222124 85.222124 0 0 0-12.68787 14.802848 71.265268 71.265268 0 0 0-11.630881 25.375739 69.468286 69.468286 0 0 0-4.229956 31.720674 216.544775 216.544775 0 0 0 5.286946 25.37674 52.127464 52.127464 0 0 0 13.745858 21.146782 629.439533 629.439533 0 0 0 4.228957 77.186207 375.993137 375.993137 0 0 0 14.802848 69.785283 193.70601 193.70601 0 0 0 31.719674 66.613316 184.084109 184.084109 0 0 0 43.352555 46.522522 218.553755 218.553755 0 0 0 47.579511 28.549707 255.561375 255.561375 0 0 0 48.6395 13.744859 359.498307 359.498307 0 0 0 47.579511 3.171967 211.469827 211.469827 0 0 0 57.097414-7.401924 262.117307 262.117307 0 0 0 50.752478-17.974815 194.974997 194.974997 0 0 0 41.236577-25.37574 153.632422 153.632422 0 0 0 29.605695-28.549706 204.702897 204.702897 0 0 0 38.064609-71.899262 453.708339 453.708339 0 0 0 16.917827-75.071228 719.737606 719.737606 0 0 0 5.286945-82.473153 38.169608 38.169608 0 0 0 11.629881-13.745859 52.021466 52.021466 0 0 0 6.344935-17.974815 65.027332 65.027332 0 0 0 0-28.548707 87.549101 87.549101 0 0 0-8.459913-33.834652 76.235217 76.235217 0 0 0-14.801848-20.089794 51.492471 51.492471 0 0 0-19.032805-11.62988 297.220947 297.220947 0 0 0-10.572891-32.778664c-3.171967-8.458913-7.401924-16.917826-11.630881-26.433728a76.235217 76.235217 0 0 0-14.802848-20.089794 69.996281 69.996281 0 0 1-22.204772-32.777663c-2.113978-5.286946-4.229957-11.629881-6.343934-17.974815a120.537762 120.537762 0 0 0-10.572892-20.089794c-31.720674-48.6375-49.695489-91.989055-54.982435-130.053664a348.079424 348.079424 0 0 1 6.343935-115.250816zM1003.957946 244.666511a231.876618 231.876618 0 0 1-47.580511 70.843273 245.410479 245.410479 0 0 1-70.842272 47.579511 209.989843 209.989843 0 0 1-85.646121 16.917826 243.190502 243.190502 0 0 1-86.702109-16.916826 214.429797 214.429797 0 0 1-70.842272-47.580511 231.876618 231.876618 0 0 1-47.580511-70.843273 209.989843 209.989843 0 0 1-16.917826-85.64512 219.187748 219.187748 0 0 1 64.498337-156.487392 245.410479 245.410479 0 0 1 70.842272-47.580511 212.737814 212.737814 0 0 1 172.34823 0 231.876618 231.876618 0 0 1 70.842272 47.580511 214.429797 214.429797 0 0 1 47.579511 70.842272 218.236758 218.236758 0 0 1 17.975815 85.64512 222.042719 222.042719 0 0 1-17.974815 85.64512z m-78.244196-158.60137a38.9096 38.9096 0 0 0-54.981435-54.982435l-71.899262 71.899261-71.900261-71.899261a38.9096 38.9096 0 0 0-54.982435 54.982435l71.899261 71.899261-71.899261 71.899262a38.9096 38.9096 0 0 0 54.982435 54.982435l71.899261-71.899262 71.899262 71.899262a38.9096 38.9096 0 0 0 54.982435-54.982435l-71.899262-71.899262z"  horiz-adv-x="1024" />

    
    <glyph glyph-name="yuejie" unicode="&#59076;" d="M472.576 783.36a112.64 112.64 0 1 1 225.28 0 112.64 112.64 0 1 1-225.28 0z m73.728-139.264c-73.216 17.408-183.808 0-230.912-26.112-66.048-36.864-152.064-215.04-167.936-236.032s-10.752-62.976 20.992-78.848c33.792-16.896 52.736-15.872 94.72 41.984 29.184 39.936 52.736 83.968 73.728 115.712 15.872 23.552 57.856 68.096 47.104 10.752-7.68-41.472-36.864-132.096-47.104-157.696-10.752-26.112-52.736-178.688-62.976-178.688-20.992 0-135.168 55.808-157.696 62.976-47.104 15.872-94.72-47.104-73.728-94.72 22.528-51.2 251.904-157.696 309.76-131.072 49.152 22.528 83.968 157.696 104.96 178.688 13.312 13.312 115.712-5.12 125.952-15.872 15.872-15.872 52.736-197.12 68.096-236.032 20.992-52.736 131.072-20.992 125.952 36.864-4.096 47.104-52.736 278.016-78.848 309.76-14.848 17.92-83.968 47.104-157.696 52.736 0 0 6.144 34.304 20.992 68.096 15.872 36.864 26.112 83.968 31.744 83.968 15.872 0 41.984-57.856 78.848-68.096C709.12 371.712 890.88 422.912 919.04 435.2c36.864 15.872 41.984 94.72-20.992 104.96-47.104 7.68-157.696-47.104-173.056-31.744-24.064 23.04-68.608 109.568-178.688 135.68zM405.504-117.76c-12.288 0-24.576 6.656-31.232 17.92-9.728 16.896-4.096 38.912 13.312 49.152l545.792 314.88c16.896 9.728 38.912 4.096 49.152-13.312 9.728-16.896 4.096-38.912-13.312-49.152l-545.792-314.88c-5.632-3.072-11.776-4.608-17.92-4.608z"  horiz-adv-x="1024" />

    
    <glyph glyph-name="shuigang" unicode="&#59078;" d="M420.571 329.14300000000003c100.992 0 182.858-81.865 182.858-182.857v-201.143H237.714V146.28599999999994c0 100.992 81.865 182.857 182.857 182.857zM416.037 438.857h-118.93c-123.685 0-223.964-97.371-223.964-217.508v-294.492H640V221.35000000000002c0 120.137-100.279 217.508-223.963 217.508z m0-50.048l5.174-0.073c92.837-2.651 167.26-76.58 167.26-167.387v-244.444H124.672V221.35000000000002c0 92.489 77.202 167.46 172.434 167.46h118.93zM347.429 822.857c-48.458 0-92.179-62.884-139.283-82.103C154.551 718.921 128 716.434 128 701.038c0-12.873 23.717-35.804 31.378-45.093 7.644-9.307 6.345-24.174 6.84-30.519 64.95-24.978 181.21-26.386 181.21-26.386s116.261 1.426 181.212 26.386c0.494 6.345-0.805 21.212 6.857 30.52 7.662 9.288 31.36 32.219 31.36 45.092 0 15.415-26.55 17.883-80.146 39.753-47.122 19.163-90.825 82.066-139.282 82.066z m36.059-91.428c-4.882-29.806-19.2-54.858-35.986-54.858-14.355 0-33.737 24.668-35.987 54.858-2.45 33.188 13.203 54.857 35.987 54.857 22.802 0 41.289-22.583 35.986-54.857z m-36.023-274.286c153.436 0 177.481 111.03 181.175 149.98-41.93-10.003-103.863-26.405-181.211-26.405s-139.283 16.055-181.212 26.404c3.73-38.948 27.813-149.98 181.248-149.98zM758.857 566.857c5.047 0 9.143-3.84 9.143-8.594v-18.834c0-5.943-2.048-11.703-5.851-16.458L697.49 442.15a1.957 1.957 0 0 1-0.2-2.158c0.365-0.695 1.133-1.134 1.956-1.134h59.611c5.047 0 9.143-3.84 9.143-8.558v-19.456c0-4.717-4.096-8.557-9.143-8.557H630.894a9.454 9.454 0 0 0-6.492 2.505 8.302 8.302 0 0 0-2.688 6.089v18.834c0 5.943 2.048 11.703 5.852 16.457l64.658 80.823a1.957 1.957 0 0 1 0.201 2.158 2.213 2.213 0 0 1-1.956 1.152h-59.612a9.454 9.454 0 0 0-6.455 2.487 8.302 8.302 0 0 0-2.688 6.07V558.3c0 4.718 4.096 8.558 9.143 8.558h128z m198.857 182.82c6.309 0 11.429-4.827 11.429-10.77v-24.137c0-6.327-2.231-12.489-6.345-17.517l-83.2-101.669a1.371 1.371 0 0 1-0.147-1.518 1.536 1.536 0 0 1 1.372-0.786h76.891c6.309 0 11.429-4.827 11.429-10.789v-23.15a10.478 10.478 0 0 0-3.346-7.606 11.794 11.794 0 0 0-8.083-3.164h-160a11.794 11.794 0 0 0-8.082 3.164 10.478 10.478 0 0 0-3.346 7.607v24.137c0 6.345 2.23 12.507 6.345 17.518l83.2 101.668a1.371 1.371 0 0 1 0.146 1.518 1.536 1.536 0 0 1-1.371 0.804h-76.892a11.794 11.794 0 0 0-8.1 3.164 10.46 10.46 0 0 0-3.328 7.625v23.168c0 5.943 5.12 10.77 11.428 10.77l160-0.036z"  horiz-adv-x="1024" />

    
    <glyph glyph-name="anquanjingjie" unicode="&#59079;" d="M985.115957-115.208127H54.64129A55.426032 55.426032 0 0 0 0.003576-59.164444V557.13727a25.429333 25.429333 0 0 0 25.031111 25.705651 25.421206 25.421206 0 0 0 25.088-25.705651v-616.301714c0-2.486857 2.088635-4.632381 4.518603-4.632381h930.474667a4.673016 4.673016 0 0 1 4.518603 4.632381V557.13727a25.421206 25.421206 0 0 0 25.088 25.705651 25.429333 25.429333 0 0 0 25.031111-25.705651v-616.301714a55.426032 55.426032 0 0 0-54.637714-56.043683zM517.391766 100.774603c-37.115937 0-67.226413 30.898794-67.226412 68.981841 0 38.074921 30.110476 68.973714 67.226412 68.973715s67.177651-30.898794 67.177651-68.973715c0-38.083048-30.061714-68.981841-67.177651-68.981841zM527.615512 290.425905h-15.473777a47.339683 47.339683 0 0 0-46.551365 47.794793V847.481905c0 26.266413 20.959492 47.737905 46.551365 47.737905h15.473777c25.6 0 46.551365-21.471492 46.551365-47.737905v-509.25308a47.339683 47.339683 0 0 0-46.551365-47.786666z"  horiz-adv-x="1040" />

    
    <glyph glyph-name="genzong" unicode="&#59081;" d="M898.333538 86.163692H230.744615c-3.800615 0-7.463385-0.590769-10.88-1.683692h-94.198153a35.249231 35.249231 0 0 0-35.396924 35.396923 35.249231 35.249231 0 0 0 35.387077 35.396923h155.106462a35.249231 35.249231 0 0 1 35.396923 35.396923 35.249231 35.249231 0 0 1-35.396923 35.396923H125.656615A105.531077 105.531077 0 0 1 20.007385 120.418462c0-58.436923 47.202462-105.649231 105.64923-105.649231H792.713846c3.800615 0 7.453538 0.590769 10.88 1.683692h94.769231a35.249231 35.249231 0 0 0 35.396923-35.396923 35.249231 35.249231 0 0 0-35.396923-35.396923H476.868923a35.249231 35.249231 0 0 1-35.396923-35.396923 35.249231 35.249231 0 0 1 35.396923-35.396923h421.464615c58.446769 0 105.649231 47.202462 105.649231 105.649231 0 58.446769-47.192615 105.649231-105.649231 105.64923zM487.827692 719.960615a92.553846 92.553846 0 0 1 92.740923 0 92.770462 92.770462 0 0 1 46.365539 80.364308C627.003077 851.554462 585.501538 893.046154 534.252308 893.046154c-51.239385 0-92.8-41.501538-92.8-92.731077a92.849231 92.849231 0 0 1 46.365538-80.364308zM411.411692 423.089231c16.679385-0.935385 30.414769 11.874462 30.41477 28.553846V551.532308h13.804307v-348.179693c0-19.534769 15.232-36.647385 35.2-36.647384 19.958154-0.502154 36.135385 15.665231 36.135385 35.712V395.027692h14.237538v-191.182769c0-19.534769 15.241846-36.637538 35.2-36.637538 19.968-0.512 36.135385 15.655385 36.135385 35.702153V551.089231h13.814154v-98.953846c0-15.232 11.372308-28.553846 26.614154-29.469539 16.679385-0.935385 23.758769 11.874462 23.758769 28.553846v199.68c0.206769 31.409231-25.481846 57.107692-56.891077 57.107693h-8.585846c-20.893538-17.604923-47.576615-28.553846-77.056-28.553847-29.479385 0-56.103385 10.948923-77.056 28.553847h-8.595693c-31.409231 0-57.097846-25.698462-57.097846-57.107693v-198.340923c0-15.241846 4.804923-28.544 19.968-29.479384z"  horiz-adv-x="1024" />

    
    <glyph glyph-name="shanchu7" unicode="&#59083;" d="M782.168178 31.118222c0-34.474667-27.306667-62.407111-61.041778-62.464H281.090844a61.838222 61.838222 0 0 0-61.098666 62.464V694.044444h562.119111v-662.926222zM342.189511 806.115556a12.515556 12.515556 0 0 0 12.515556 12.8h293.546666a12.515556 12.515556 0 0 0 12.572445-12.8v-37.660445H342.189511v37.660445z m623.160889-37.660445h-231.708444v37.660445c0 48.014222-38.343111 87.267556-85.333334 87.267555H354.705067c-46.990222 0-85.333333-39.253333-85.333334-87.267555v-37.660445H36.866844A37.205333 37.205333 0 0 1 0.059733 730.908444a37.205333 37.205333 0 0 1 36.807111-37.660444h109.568v-662.186667c0-76.060444 60.302222-137.671111 134.712889-137.671111h439.978667c74.353778 0 134.656 61.610667 134.656 137.671111V694.044444h109.568a37.205333 37.205333 0 0 1 36.807111 37.660445 36.465778 36.465778 0 0 1-36.807111 36.807111z m-464.213333-686.990222a37.205333 37.205333 0 0 1 36.750222 37.660444V519.509333a37.205333 37.205333 0 0 1-36.750222 37.660445 37.205333 37.205333 0 0 1-36.807111-37.660445v-400.327111a37.205333 37.205333 0 0 1 36.807111-37.660444z m-171.463111 0a37.205333 37.205333 0 0 1 36.807111 37.660444V519.509333a37.205333 37.205333 0 0 1-36.807111 37.660445 37.205333 37.205333 0 0 1-36.807112-37.660445v-400.327111c0.796444-20.821333 17.237333-37.660444 36.807112-37.660444z m342.926222 0a37.205333 37.205333 0 0 1 36.750222 37.660444V519.509333a37.205333 37.205333 0 0 1-36.807111 37.660445 37.205333 37.205333 0 0 1-36.750222-37.660445v-400.327111a37.205333 37.205333 0 0 1 36.750222-37.660444z"  horiz-adv-x="1024" />

    
    <glyph glyph-name="yunxiazai" unicode="&#59063;" d="M864.384 568c0 159.04-128.928 256-288 256-159.04 0-288-96.96-288-256-119.264 0-216-64.704-216-184s96.736-184 216-184v-72c-146.304-0.192-269.504 77.344-286.4 222.656-16.96 145.312 77.76 248.256 220.16 281.728C253.504 803.36 402.56 895.552 576.384 895.552c173.856 0 322.88-92.16 354.24-263.2 141.92-33.952 236.032-136.64 219.136-281.568C1132.864 205.856 1010.304 128.416 864.384 128v72c119.296 0 216 64.704 216 184s-96.704 184-216 184z m-576-368h144v-72h-144v72z m432 0h144v-72h-144v72zM534.144 459.808a36.48 36.48 0 0 0 36 36.192 36.48 36.48 0 0 0 36-36.192v-438.72l72.64 72.64a36.224 36.224 0 0 0 61.376-25.536c0.064-9.504-3.744-18.656-10.496-25.376l-134.24-134.24c-6.72-6.72-15.84-10.4-25.344-10.304a33.856 33.856 0 0 0-25.184 10.24l-134.24 134.304a36.224 36.224 0 0 0 25.504 61.408c9.536 0.032 18.688-3.744 25.376-10.496l72.64-72.64V459.84z"  horiz-adv-x="1152" />

    
    <glyph glyph-name="shiting" unicode="&#59133;" d="M701.88544 423.76704l-247.54688 150.0672a41.3952 41.3952 0 0 1-26.93632 10.24 42.53184 42.53184 0 0 1-41.04192-34.63168v-7.68a21.82656 21.82656 0 0 1 1.28512-8.98048v-306.54464a42.7008 42.7008 0 0 1 42.32704-42.32704 47.77472 47.77472 0 0 1 25.6512 8.97536l248.832 151.3472a43.61216 43.61216 0 0 1 26.9312 39.76704c-3.83488 17.96608-14.11072 33.3568-29.50144 39.76704zM512-128a512 512 0 1 0 512 512 512.56832 512.56832 0 0 0-512-512z m0 952.15104A440.15616 440.15616 0 1 1 952.12544 384 440.6528 440.6528 0 0 1 512 824.16128z"  horiz-adv-x="1024" />

    
    <glyph glyph-name="diedaopingfen" unicode="&#59057;" d="M1043.814728 773.628764l-185.972242-279.054125C843.669524 469.229297 830.709564 447.84217 830.709564 447.84217l-255.368681-319.21085-285.438342-211.700636a63.84217 63.84217 0 1 0-79.611186 99.849154l228.554969 182.333237a458.131413 458.131413 0 0 0-7.980272 3.894373l-0.31921-0.57458-3.894373 2.617529A4413.409219 4413.409219 0 0 1 319.972203 256.31566l6.894954 7.788745-261.433686-71.694757c-29.303556-6.894954-58.032533 13.853751-64.225223 46.413257-6.19269 32.495665 12.513065 64.41675 41.816621 71.311704l272.797593 72.716232 2.426002-0.57458L319.972203 384l12.002328-4.852005c20.812547-4.979689 48.456207-12.321539 78.972764-20.621021l107.38253 119.895596-187.376769 187.376769a63.84217 63.84217 0 1 0 90.272829 90.33667l182.269395-182.333237 1.787581 2.042949c25.536868-1.213001 95.699413-0.510737 163.755166 0L932.027088 832.874298c16.343596 25.792237 54.648898 33.453297 85.484665 17.109702 30.89961-16.343596 42.64657-50.562999 26.302975-76.355236zM703.025224 639.36868a127.68434 127.68434 0 1 0 0 255.368681 127.68434 127.68434 0 0 0 0-255.368681z"  horiz-adv-x="1086" />

    
    <glyph glyph-name="benpao" unicode="&#59058;" d="M763.17 556.62c-57.62 0-104.49 46.87-104.49 104.49 0 57.58 46.87 104.43 104.49 104.43 57.64 0 104.53-46.85 104.53-104.43 0-57.62-46.89-104.49-104.53-104.49z m180.25-71.7L839.1 370.65a59.952 59.952 0 0 0-37.09-19.09 63.1 63.1 0 0 0-7.12-0.42 59.84 59.84 0 0 0-33.42 10.2l-77.9 52.28-75.28-66.92 115.07-56c15.19-7.4 26.59-20.95 31.28-37.17 4.69-16.2 2.3-33.73-6.58-48.08L641.02 32.190000000000055c-8.4-13.6-21.6-23.11-37.17-26.8a60.296 60.296 0 0 0-13.89-1.63c-10.98 0-21.77 3.04-31.34 8.97-28.1 17.33-36.83 54.27-19.49 82.34l72.28 116.97-88.29 42.99-71.47-110.14a60.348 60.348 0 0 0-20.24-19.26L247.37 12.370000000000005c-9.22-5.34-19.46-8.07-29.86-8.07-5.2 0-10.41 0.69-15.57 2.07-15.46 4.13-28.39 14.04-36.37 27.89-16.51 28.56-6.68 65.22 21.89 81.73L359 222.07000000000005l85.02 127.45 0.84 1.36a59.723 59.723 0 0 0 17.03 25.83l118.63 105.47-53.22 35.26-111.51-31.89c-31.81-8.95-64.99 9.49-74.04 41.04-9.07 31.72 9.37 64.93 41.05 74.02l138.12 39.45a59.814 59.814 0 0 0 49.53-7.63l141.07-93.45c1.78-1.17 3.46-2.45 5.07-3.79v0.06l68.83-45.88 69.56 76.2c10.77 11.82 25.52 18.71 41.51 19.44 15.97 0.73 31.28-4.82 43.1-15.61 24.36-22.19 26.1-60.11 3.83-84.48zM328.67 648.9300000000001h-208.1c-9.97 0-18.1 8.23-18.1 18.29 0 10.06 8.13 18.29 18.1 18.29h208.1c9.95 0 18.1-8.23 18.1-18.29 0-10.05-8.15-18.29-18.1-18.29z m-1.81-251.61H82.1c-9.95 0-18.1 8.23-18.1 18.29 0 10.06 8.15 18.29 18.1 18.29h244.76c9.95 0 18.08-8.23 18.08-18.29 0.01-10.06-8.12-18.29-18.08-18.29zM221.89 526.4H147.7c-9.95 0-18.1 8.23-18.1 18.29 0 10.06 8.15 18.29 18.1 18.29h74.19c9.95 0 18.1-8.23 18.1-18.29 0.01-10.05-8.14-18.29-18.1-18.29z"  horiz-adv-x="1024" />

    
    <glyph glyph-name="tudouyumaozi" unicode="&#59059;" d="M711.111111 463.644444c-22.755556 108.088889-68.266667 182.044444-136.533333 216.177778-91.022222 39.822222-199.111111 11.377778-341.333334-45.511111-68.266667-28.444444-113.777778-68.266667-130.844444-125.155555-22.755556-62.577778-5.688889-136.533333 45.511111-233.244445C39.822222 173.51111100000003 28.444444 139.37777800000003 28.444444 116.62222199999997c0-11.377778 5.688889-22.755556 11.377778-28.444444 22.755556-22.755556 45.511111-28.444444 62.577778-28.444445 22.755556 0 51.2 11.377778 73.955556 17.066667 17.066667 5.688889 39.822222 17.066667 68.266666 22.755556 39.822222 5.688889 96.711111 11.377778 159.288889 17.066666 73.955556 5.688889 159.288889 11.377778 233.244445 28.444445 79.644444 17.066667 352.711111 91.022222 347.022222 199.111111-5.688889 62.577778-96.711111 102.4-273.066667 119.466666z m-551.822222 28.444445c11.377778 34.133333 39.822222 62.577778 96.711111 85.333333 108.088889 45.511111 221.866667 79.644444 295.822222 45.511111 62.577778-28.444444 91.022222-113.777778 102.4-176.355555-176.355556-51.2-329.955556-102.4-455.111111-153.6-39.822222 85.333333-56.888889 147.911111-39.822222 199.111111z m460.8-290.133333c-62.577778-17.066667-147.911111-22.755556-221.866667-28.444445-62.577778-5.688889-125.155556-11.377778-164.977778-17.066667-28.444444-5.688889-56.888889-17.066667-73.955555-22.755555-39.822222-17.066667-56.888889-22.755556-73.955556-11.377778 5.688889 11.377778 28.444444 45.511111 102.4 113.777778 136.533333 56.888889 312.888889 119.466667 517.688889 170.666667 210.488889-22.755556 216.177778-68.266667 216.177778-68.266667 5.688889-17.066667-85.333333-85.333333-301.511111-136.533333z"  horiz-adv-x="1024" />

    
    <glyph glyph-name="renshukouzhao" unicode="&#59070;" d="M288.76166 655.8893869999999c0 67.017346 117.191072 161.941276 223.319181 161.941276 106.118899 0 223.310995-94.924953 223.310995-161.941276v-184.202279l-55.66888-22.339797L512.220011 488.385419l-167.511132-39.038108-55.66888 22.339797-0.278339 184.202279zM735.391836 466.118276a466.201931 466.201931 0 0 0-55.66888-161.941276l5.568832 139.529847 50.100048 22.411429zM344.56971 315.31261800000004a375.822504 375.822504 0 0 0-50.239218 145.165194l44.676525-16.770965 5.562693-128.394229zM958.708971-49.83066299999996H65.376986v41.339524c-1.088798 14.992459 8.143471 28.803 22.404266 33.541931l279.126209 133.961014c21.629623 7.798617 36.827767 27.364231 39.044248 50.247404 4.783956 21.376866-4.062526 43.49563-22.273283 55.667857a123.761722 123.761722 0 0 0-22.338774 27.841092l150.740166-22.272259 150.73198 22.272259c-11.20111-11.136641-16.770965-22.272259-27.840069-27.841092a64.558341 64.558341 0 0 1-22.333658-55.667857 70.922283 70.922283 0 0 1 39.038109-50.247404l279.127231-133.961014c5.567809 0 27.840068-5.635347 27.840069-39.110763l0.065491-35.770692"  horiz-adv-x="1024" />

    
    <glyph glyph-name="cheliangjiance" unicode="&#59060;" d="M0 896h1024v-1024H0zM851.268 47.64999999999998H675.994c-8.636 0-14.797 6.212-14.797 14.916s7.407 14.934 14.814 14.934h159.215V219.32399999999996c0 8.704 7.407 14.933 14.813 14.933 8.636 0 14.797-6.23 14.797-14.933v-156.758c1.246-8.704-4.932-14.916-13.568-14.916z m-0.614 479.88c-8.636 0-14.814 6.213-14.814 14.934V690.5H675.38c-8.636 0-14.798 6.213-14.798 14.934 0 8.704 7.39 14.916 14.797 14.916h174.029c8.653 0 14.814-6.212 14.814-14.916v-162.987c1.246-8.704-4.932-14.916-13.568-14.916zM332.56 690.5H189.39v-148.036c0-8.704-7.407-14.933-14.797-14.933-8.653 0-14.814 6.212-14.814 14.933v162.97c0 8.704 7.407 14.916 14.814 14.916h159.215c8.636 0 14.814-6.212 14.814-14.916s-7.407-14.934-16.043-14.934zM173.346 235.50300000000004c8.636 0 14.814-6.23 14.814-14.933v-141.824h144.401c8.653 0 14.814-6.213 14.814-14.934 0-8.704-7.407-14.916-14.814-14.916H173.346c-8.636 0-14.814 6.212-14.814 14.916V219.32399999999996c0 8.704 6.178 16.162 14.814 16.162z m677.94-192.836H676.01c-10.906 0-19.746 8.909-19.746 19.9 0 11.007 8.84 19.916 19.763 19.916H830.31V219.30700000000002c0 10.99 8.84 19.9 19.747 19.9 10.905 0 19.746-8.91 19.746-19.9v-156.758c1.229-11.195-7.407-19.9-18.518-19.9z m9.88 176.64c0 3.584-1.876 6.86-4.948 8.635a9.813 9.813 0 0 1-9.865 0 9.967 9.967 0 0 1-4.95-8.618v-146.79H676.029a9.864 9.864 0 0 1-8.568-4.984 10.018 10.018 0 0 1 0-9.95c1.775-3.072 5.035-4.984 8.568-4.984h174.029a9.694 9.694 0 0 1 7.014 2.885 9.71 9.71 0 0 1 2.85 7.065V219.32399999999996h1.246z m-10.495 303.24a19.422 19.422 0 0 0-14.046 5.769 19.729 19.729 0 0 0-5.7 14.148V685.517H675.396a19.422 19.422 0 0 0-14.029 5.751 19.73 19.73 0 0 0-5.717 14.166 19.724 19.724 0 0 0 5.717 14.148 19.372 19.372 0 0 0 14.03 5.751h174.011c12.356 0 20.992-8.704 20.992-19.9v-162.986a19.685 19.685 0 0 0-5.717-14.131 19.36 19.36 0 0 0-14.03-5.769z m9.864 182.887a9.847 9.847 0 0 1-2.85 7.065 9.694 9.694 0 0 1-7.014 2.884H675.396a9.694 9.694 0 0 1-7.014-2.884 9.847 9.847 0 0 1-2.85-7.065 9.848 9.848 0 0 1 2.85-7.083 9.763 9.763 0 0 1 7.014-2.884h164.165v-153.003c0-3.567 1.877-6.844 4.949-8.619a9.722 9.722 0 0 1 9.864 0 9.967 9.967 0 0 1 4.933 8.619v162.97h1.228z m-527.957-19.917h-138.24v-143.053a19.706 19.706 0 0 0-5.7-14.165 19.44 19.44 0 0 0-14.029-5.752 19.422 19.422 0 0 0-14.046 5.769 19.73 19.73 0 0 0-5.717 14.148v162.97c-1.246 11.195 7.39 19.9 18.5 19.9h159.232c5.257 0.068 10.308-2.015 14.029-5.752a19.763 19.763 0 0 0 5.717-14.165c1.23-11.18-8.653-19.9-19.763-19.9z m0 29.866H173.363a9.694 9.694 0 0 1-7.014-2.884 9.847 9.847 0 0 1-2.85-7.065v-162.987a9.847 9.847 0 0 1 2.85-7.066 9.678 9.678 0 0 1 7.014-2.867 9.694 9.694 0 0 1 7.032 2.867 9.888 9.888 0 0 1 2.85 7.083V695.467h149.333a9.694 9.694 0 0 1 7.032 2.884 9.818 9.818 0 0 1 2.85 7.083c1.229 6.212-3.704 9.95-9.882 9.95z m-159.215-476.16a19.411 19.411 0 0 0 14.046-5.751 19.748 19.748 0 0 0 5.7-14.165v-136.824h139.47c10.922 0 19.762-8.909 19.762-19.917 0-10.99-8.84-19.9-19.763-19.9H173.363a19.422 19.422 0 0 0-14.029 5.752 19.73 19.73 0 0 0-5.717 14.165V219.30700000000002a19.724 19.724 0 0 0 5.717 14.148 19.344 19.344 0 0 0 14.03 5.751z m-9.864-176.64a9.848 9.848 0 0 1 2.85-7.082 9.694 9.694 0 0 1 7.014-2.885h159.232a9.865 9.865 0 0 1 8.534 4.984 10.018 10.018 0 0 1 0 9.95 9.864 9.864 0 0 1-8.534 4.983H184.474V219.30700000000002a9.847 9.847 0 0 1-2.85 7.1 9.694 9.694 0 0 1-7.015 2.867 9.694 9.694 0 0 1-7.031-2.868 9.848 9.848 0 0 1-2.85-7.082v-156.758h-1.23zM776.5 489.212h-52.285c-2.389-0.026-4.73-0.619-6.808-1.724l-23.603 67.56C686.271 593.502 657.869 612 622.938 612H401.524c-40.12 0-64.393-24.871-70.866-56.952l-23.603-67.769a14.957 14.957 0 0 1-7.254 1.933h-52.285c-8.06-0.086-14.539-6.245-14.507-13.793V463.4c0-7.68 6.528-13.899 14.507-13.899l19.865-3.187c-6.647-12.543-10.013-26.387-9.82-40.389l-7.366-79.733c0-2.352 0.167-4.703 0.502-7.054a23.888 23.888 0 0 1-0.502-4.494v-95.93c-0.093-13.543 11.54-24.6 26.003-24.715h39.618c6.95 0.041 13.598 2.67 18.476 7.307 4.878 4.636 7.586 10.899 7.526 17.407v30.828H682.7v-30.828c-0.093-13.522 11.506-24.57 25.947-24.714h39.618c14.462 0.115 26.095 11.172 26.003 24.714v95.931a23.486 23.486 0 0 1-0.447 4.494c0.28 2.351 0.447 4.702 0.447 7.053l-7.31 79.682c0.193 14.041-3.193 27.923-9.877 40.493l19.363 3.135c7.979 0 14.508 6.166 14.563 13.847v12.017c0.045 3.645-1.458 7.157-4.18 9.763-2.72 2.607-6.435 4.094-10.327 4.136z m-428.32 14.213l17.297 43.89 0.28 1.045c1.673 8.83 5.58 10.397 11.215 17.242h270.909c5.747-7.054 9.263-8.83 10.88-17.242l17.578-44.935 6.417-24.401c-1.451-17.87-23.994-31.977-42.799-31.977H384.505c-18.749 0-41.292 14.107-42.798 31.977l6.473 24.4z m12.108-208.478c-10.527 0.069-20.592 4.058-27.972 11.087-7.381 7.029-11.47 16.52-11.367 26.376-0.104 9.857 3.986 19.348 11.367 26.377 7.38 7.028 17.445 11.018 27.972 11.087 21.762 0 39.339-16.773 39.339-37.464 0.09-9.848-4.007-19.325-11.386-26.342-7.38-7.018-17.436-11-27.953-11.069z m219.684 27.692c0.045-2.942-1.168-5.778-3.369-7.878-2.2-2.1-5.207-3.29-8.349-3.303h-110.26c-3.133 0.014-6.13 1.196-8.33 3.284-2.198 2.09-3.418 4.912-3.388 7.845v31.35c0.055 6.114 5.3 11.13 11.718 11.077h110.372c6.417 0 11.662-4.963 11.718-11.129v-31.298z m84.258-27.692c-10.532 0.069-20.602 4.057-27.992 11.084-7.39 7.027-11.492 16.517-11.403 26.38-0.104 9.856 3.986 19.347 11.367 26.376 7.38 7.028 17.445 11.018 27.972 11.087 21.762 0 39.34-16.773 39.34-37.464 0.088-9.848-4.008-19.325-11.387-26.342-7.38-7.018-17.436-11-27.953-11.069z"  horiz-adv-x="1024" />

    
    <glyph glyph-name="chouyan-copy" unicode="&#59062;" d="M811.52 195.58399999999995H108.544c-11.264 0-26.624-10.24-26.624-21.504v-142.848c0-11.264 15.36-18.944 26.624-18.944h703.488c11.264 0 13.824 7.68 13.824 18.944V174.08000000000004c-0.512 11.264-3.072 21.504-14.336 21.504z m-27.136-142.848h-39.936v102.4h39.936v-102.4zM896.512 574.976l-19.968 15.36c-45.568 33.792-78.336 57.856-14.848 168.448 0 0.512 0.512 1.024 0.512 1.024 0.512 0.512 0.512 1.536 1.024 2.048 0 0.512 0.512 1.024 0.512 2.048 0 0.512 0.512 1.536 0.512 2.048V768v2.048c0 0.512 0 1.536-0.512 2.048 0 0.512 0 1.024-0.512 2.048 0 1.024-0.512 1.536-1.024 2.56 0 0.512 0 1.024-0.512 1.024-0.512 1.024-1.024 1.536-1.536 2.56 0 0.512-0.512 0.512-0.512 1.024l-1.536 1.536c-0.512 0.512-1.024 1.024-1.024 1.536-0.512 0.512-1.024 0.512-1.536 1.024-0.512 0.512-1.024 1.024-2.048 1.536-0.512 0.512-1.024 0.512-1.536 0.512-0.512 0.512-1.024 0.512-1.536 1.024-1.024 0.512-1.536 0.512-2.56 0.512-0.512 0-1.024 0-1.536 0.512h-4.096c-1.024 0-1.536 0-2.56-0.512h-1.536c-1.024 0-2.048-0.512-2.56-1.024-0.512 0-0.512 0-1.024-0.512h-0.512c-87.552-40.96-114.176-94.208-120.832-132.096-8.192-47.616 9.728-98.816 48.64-138.24l9.728-9.728c32.768-32.768 74.24-73.216 72.704-121.856-1.024-32.256-20.992-66.048-60.416-100.864 0 0 0-0.512-0.512-0.512l-1.536-1.536c-0.512-0.512-1.024-1.024-1.024-1.536-0.512-0.512-0.512-1.024-1.024-1.536-0.512-0.512-0.512-1.024-1.024-1.536-0.512-0.512-0.512-1.024-0.512-2.048 0-0.512-0.512-1.024-0.512-2.048 0-0.512 0-1.536-0.512-2.048V265.72799999999995c0-0.512 0.512-1.024 0.512-1.536 0-0.512 0.512-1.536 0.512-2.048v-0.512l0.512-0.512c0.512-1.536 1.536-2.56 2.56-4.096 0-0.512 0.512-0.512 0.512-1.024v-0.512c1.024-1.024 2.56-2.56 3.584-3.072 0.512 0 0.512-0.512 1.024-0.512 1.024-0.512 2.56-1.536 3.584-1.536 0.512 0 1.024-0.512 1.536-0.512 1.536-0.512 3.072-0.512 5.12-0.512h3.584c0.512 0 1.024 0 1.024 0.512 1.024 0 1.536 0.512 2.56 1.024 124.416 50.688 158.72 116.224 165.376 162.304 11.264 55.808-16.896 116.736-72.704 161.792z"  horiz-adv-x="1024" />

    
    <glyph glyph-name="quntipaihuaidouliu-copy" unicode="&#59417;" d="M97.792 7.168000000000006h829.952v-39.424H97.792zM423.936 340.48l33.28-111.616c2.56-8.192 8.704-18.944 13.312-25.088l70.144-89.6c10.752-16.896 18.944-36.352 5.12-48.64-17.92-15.36-43.52-7.168-54.272 12.288l-74.752 92.672c-5.12 8.192-18.944 36.864-21.504 45.056l-19.968 66.56c26.624 16.896 35.328 30.208 48.64 58.368zM202.752 203.77599999999995c6.144 25.6 10.752 31.232 18.944 47.616l58.368 103.424c4.096 7.168 22.528 40.448 28.672 49.664l-5.632 28.16L286.72 503.296l-5.632 22.528c-13.312 53.248 1.536 95.744 52.224 111.616 8.192 2.56 18.944 5.12 27.648 4.096 10.24-1.024 24.576-9.728 39.424-20.992l59.392-66.56c2.56-3.072 8.704-12.288 10.752-16.896l34.816-104.448c4.096-18.944 0-28.672-10.752-31.232-13.312-3.072-23.552 3.584-28.672 23.552l-32.768 97.28-63.488 51.712 33.792-132.096c29.696-118.272-89.088-157.184-88.576-160.256L276.48 211.96799999999996c-17.408-41.984-28.16-160.256-28.16-160.256-2.56-22.528-7.68-36.352-29.184-33.792-24.064 2.56-33.28 25.088-30.72 47.616l14.336 138.24z m92.672 462.848c-33.792 0-61.44 27.648-61.44 61.44s27.648 61.44 61.44 61.44 61.44-27.648 61.44-61.44c-0.512-33.792-27.648-61.44-61.44-61.44zM183.296 510.464L250.88 546.816l15.872-55.808-53.76-30.72c-16.384-9.216-35.328-9.728-45.056 9.728-8.192 16.896-0.512 32.256 15.36 40.448zM848.384 676.864V734.72c0 4.608-3.584 8.192-8.192 8.192s-8.192-3.584-8.192-8.192v-61.44c0-2.048 1.024-4.096 2.56-5.632l33.792-33.792c1.536-1.536 3.584-2.56 5.632-2.56s4.096 1.024 5.632 2.56c1.536 1.536 2.56 3.584 2.56 5.632s-1.024 4.096-2.56 5.632l-31.232 31.744zM840.192 763.904c-49.664 0-90.112-40.448-90.112-90.112S790.528 583.6800000000001 840.192 583.6800000000001s90.112 40.448 90.112 90.112-40.448 90.112-90.112 90.112z m74.24-90.624c0-40.96-33.28-74.24-74.24-74.24s-74.24 33.28-74.24 74.24S799.232 747.52 840.192 747.52s74.24-33.28 74.24-74.24zM569.856 342.528l-29.696-107.008c-2.048-7.68-7.68-17.92-11.776-24.064l-62.976-86.016c-9.728-16.384-17.408-34.816-4.608-46.592 15.872-14.848 39.424-7.168 49.152 11.776l67.072 89.088c4.608 7.68 16.896 35.328 19.456 43.52l17.92 64c-25.088 15.872-32.768 28.16-44.544 55.296zM768.512 211.45600000000002c-5.632 24.576-9.216 29.696-16.896 46.08l-52.224 99.328c-3.584 6.656-20.48 38.912-25.6 47.616l4.608 27.136 14.336 67.584 4.608 21.504c12.288 51.2-1.536 91.648-46.592 107.008-7.168 2.56-16.896 5.12-24.576 4.096-9.216-1.024-22.016-9.216-35.328-19.968L537.6 548.352c-2.56-2.56-7.68-11.776-9.728-16.384L496.64 431.616c-3.584-18.432 0-27.648 9.728-29.696 12.288-2.56 20.992 3.584 26.112 23.04l29.184 92.672 56.832 49.664-30.72-126.976c-26.624-113.664 79.872-151.04 79.872-154.112l34.816-66.56c15.36-40.448 25.088-154.112 25.088-154.112 2.56-21.504 7.168-35.328 26.624-32.256 21.504 2.56 30.208 24.064 27.648 46.08l-13.312 132.096z m-83.456 444.928c30.208 0 54.784 26.624 54.784 58.88s-24.576 58.88-54.784 58.88c-30.208 0-54.784-26.624-54.784-58.88s24.576-58.88 54.784-58.88zM785.408 506.368l-60.416 35.328-14.336-53.76 48.128-29.696c14.848-8.704 31.744-9.728 40.448 9.216 8.192 16.384 1.024 30.72-13.824 38.912z"  horiz-adv-x="1024" />

    
    <glyph glyph-name="xiazai1" unicode="&#59056;" d="M964.266667 529.066667C938.666667 699.733333 785.066667 827.733333 605.866667 827.733333 409.6 827.733333 247.466667 665.6 247.466667 469.333333v-25.6C119.466667 435.2 17.066667 324.266667 17.066667 187.73333300000002c0-145.066667 110.933333-256 256-256h298.666666L366.933333 145.06666700000005c-8.533333 8.533333-8.533333 25.6 0 34.133333l34.133334 34.133333c8.533333 8.533333 25.6 8.533333 34.133333 0l85.333333-85.333333c8.533333-8.533333 25.6 0 25.6 8.533333V486.4c0 8.533333 17.066667 25.6 25.6 25.6h51.2c17.066667 0 25.6-8.533333 25.6-25.6v-349.866667c0-17.066667 25.6-17.066667 34.133334-8.533333l93.866666 93.866667c8.533333 8.533333 25.6 8.533333 34.133334 0l34.133333-34.133334c8.533333-8.533333 8.533333-25.6 0-34.133333l-204.8-213.333333h324.266667c162.133333 0 290.133333 136.533333 290.133333 298.666666-8.533333 153.6-128 281.6-290.133333 290.133334z"  horiz-adv-x="1280" />

    
    <glyph glyph-name="icon-test3" unicode="&#59054;" d="M1033.976885 793.082136H496.476504l-62.568784 92.06754A30.631793 30.631793 0 0 1 406.755737 895.767722H75.048323a71.451229 71.451229 0 0 1-51.334185-19.294974C9.828256 863.509005 1.69256 845.513849 1.076008 826.523385V580.992369a78.740107 78.740107 0 0 0 23.050241 55.656509A78.703522 78.703522 0 0 0 79.77415 659.691588h944.361567a78.70675 78.70675 0 0 0 55.656509-23.04271 78.761627 78.761627 0 0 0 23.041633-55.656509V717.135346c1.789401 39.923121-28.951069 73.820598-68.856974 75.94679zM1024.135717 658.981422H79.77415C36.315267 658.981422 1.076008 623.734631 1.076008 580.28328v-629.586214c0-43.451351 35.239259-78.698142 78.698142-78.698142h944.361567c20.881009 0 40.902289 8.272349 55.656509 23.058849a78.693838 78.693838 0 0 1 23.041633 55.639293V580.28328a78.688458 78.688458 0 0 1-23.041633 55.638217 78.650798 78.650798 0 0 1-55.656509 23.059925zM660.793671 506.582119l149.73188-139.603418v-298.856892c0-23.46558-20.408642-42.47326-45.577543-42.47326H340.18528c-25.151685 0-45.570011 19.00768-45.570011 42.47326V464.076578c0 23.464504 20.41725 42.50554 45.586151 42.505541h320.592251z m123.50096-148.956079v-0.945811H682.081412c-18.011296 0-32.698804 13.60612-32.698805 30.352031v95.79806l134.912024-125.20428z m-19.515556-308.242909H340.362821c-10.753623 0-19.514479 8.170128-19.51448 18.19637V463.383629c0 10.044534 8.760856 18.197446 19.51448 18.197446h283.748665v-95.899205c0-30.115309 26.266429-54.626769 58.542362-54.626769h101.639707v-263.4756c0.001076-10.026242-8.778072-18.19637-19.51448-18.19637z m-132.564174 235.249761c12.491376-6.684161 19.650056-16.644766 19.650057-27.24452 0-10.668618-7.157605-20.594791-19.650057-27.313385l-109.430004-58.81244c-7.039244-3.782168-14.010699-5.70607-20.746508-5.70607-14.947902 0-30.038913 10.196251-30.038913 32.985022V316.167456c0 22.788771 15.091011 33.018379 30.038913 33.018378 6.735809 0 13.707265-1.923902 20.746508-5.704994l109.430004-58.847948z m-10.313536-35.752515l-109.388039-59.083594c-4.582718-2.49849-7.874226-3.00529-9.823952-3.00529-7.13178 0-8.195952 7.967839-8.195953 12.728097V317.685703c0 4.794691 1.063096 12.761454 8.195953 12.761453 1.949726 0 5.241235-0.540156 9.823952-3.004214l109.388039-59.082518c5.486564-2.971934 8.74364-6.583016 8.743641-9.757239 0-3.139791-3.258152-6.753026-8.743641-9.722808zM340.835188 412.893034v39.973694h42.480792v-39.973694h-42.480792z m0-81.229989v40.008126h42.480792v-40.008126h-42.480792z m0-81.163276v39.973694h42.480792v-39.973694h-42.480792z m0-81.195557v39.973694h42.480792v-39.973694h-42.480792z m0-81.196632v39.973694h42.480792v-39.973694h-42.480792z m371.00645 162.392189v39.973694h42.472184v-39.973694h-42.472184z m0-81.195557v39.973694h42.472184v-39.973694h-42.472184z m0-81.196632v39.973694h42.472184v-39.973694h-42.472184z"  horiz-adv-x="1537" />

    
    <glyph glyph-name="chuanganqi1" unicode="&#59053;" d="M512 384m-512 0a512 512 0 1 1 1024 0 512 512 0 1 1-1024 0ZM671.056 429.232a57.024 57.024 0 0 0-57.088 56.992c0 31.392 57.088 126.528 57.088 126.528s57.104-95.04 57.104-126.528a57.008 57.008 0 0 0-57.104-56.992z m-28.8-203.744a149.872 149.872 0 0 0-43.712-106.256 148.4 148.4 0 0 0-210.992 0 149.872 149.872 0 0 0-43.712 106.256 151.456 151.456 0 0 0 22.688 79.664 149.424 149.424 0 0 0 52.208 50.656V617.968a74.336 74.336 0 1 0 148.672 0v-262.16a150.288 150.288 0 0 0 74.864-130.32z m-92.8 112l-6.64 3.44V617.968a49.76 49.76 0 1 1-99.52 0V340.8l-6.704-3.44a124.56 124.56 0 1 1 112.928 0.112z m-56.4-175.488a66.368 66.368 0 0 0-21.968 128.816V534.624a21.968 21.968 0 1 0 43.936 0v-243.76a66.416 66.416 0 0 0-21.904-128.88z"  horiz-adv-x="1024" />

    
    <glyph glyph-name="shipinwenjianjia-new" unicode="&#59052;" d="M1031.347605 792.230509H494.65561L432.185374 884.16725A30.637681 30.637681 0 0 1 405.07619 894.772697H73.866446a71.490417 71.490417 0 0 1-51.264858-19.263922A71.491664 71.491664 0 0 1 0 825.623386v-245.16381a78.564872 78.564872 0 0 0 23.015678 55.560419A78.573603 78.573603 0 0 0 78.577345 659.036921h942.948092a78.572356 78.572356 0 0 0 55.565408-23.016926 78.559883 78.559883 0 0 0 23.016926-55.560419V716.400877c1.777345 39.863659-28.911474 73.709291-68.760166 75.829632zM1021.525437 659.036921H78.577345c-43.395898 0-78.577345-35.182694-78.577345-78.577345v-628.633725a78.577345 78.577345 0 0 1 78.577345-78.577344h942.948092a78.576097 78.576097 0 0 1 55.565408 23.015678 78.563625 78.563625 0 0 1 23.016926 55.561666V580.459576a78.559883 78.559883 0 0 1-23.016926 55.560419 78.572356 78.572356 0 0 1-55.565408 23.016926zM658.722611 506.855055H338.605993C313.474962 506.855055 293.105968 487.861788 293.105968 464.441998v-395.36877C293.105968 45.654685 313.474962 26.660171 338.604745 26.660171h424.120595C787.852629 26.660171 808.224117 45.653437 808.224117 69.074475V367.49751L658.722611 506.855055zM782.031669 358.129345V357.183922h-102.047026C661.980453 357.183922 647.327649 370.784039 647.327649 387.493574V483.157125l134.70402-125.02778zM762.546982 50.3581H338.780609c-10.738904 0-19.482192 8.153335-19.482192 18.17257V463.733554c0 10.02173 8.743289 18.175065 19.482192 18.175065h283.323713v-95.777053c0-30.055211 26.221135-54.513968 58.451566-54.513968H782.031669v-263.089423c0-10.017988-8.743289-18.171323-19.482193-18.171322h-0.002494zM630.196541 285.280663l-109.267411 58.724716c-7.028307 3.779196-13.99924 5.694987-20.715732 5.694986-14.929695 0-29.99659-10.186368-29.996589-32.951347v-117.448185C470.216809 176.539596 485.283703 166.353228 500.213398 166.353228c6.716492 0 13.687425 1.917038 20.71698 5.692492l109.261174 58.7322C642.666641 237.473208 649.822168 247.408877 649.822168 258.028044c0.002495 10.616672-7.151786 20.552341-19.625627 27.252619z m-10.299869-35.721511l-109.23124-59.012833c-4.5737-2.473315-7.857734-2.989681-9.81219-2.989681-7.121851 0-8.185764 7.961257-8.185763 12.709574v118.011946c0 4.750811 1.06516 12.713315 8.185763 12.713316 1.954456 0 5.23849-0.516365 9.808449-2.989681l109.234981-59.007844c5.462996-2.947274 8.722085-6.580541 8.722086-9.718646s-3.259089-6.766382-8.722086-9.716151zM339.254568 413.310597h42.406821v39.912302h-42.406821v-39.912302z m0-81.071864h42.406821v39.912302h-42.406821v-39.912302z m0-81.071863h42.406821v39.912302h-42.406821v-39.912302z m0-81.071864h42.406821v39.912302h-42.406821v-39.912302z m0-81.071863h42.406821v39.912302h-42.406821v-39.912302z m370.436053 162.143727h42.406821v39.912302h-42.406821v-39.912302z m0-81.071864h42.406821v39.912302h-42.406821v-39.912302z m0-81.071863h42.406821v39.912302h-42.406821v-39.912302z"  horiz-adv-x="1101" />

    
    <glyph glyph-name="shipinwenjianjia1" unicode="&#59051;" d="M1031.347605 792.230509H494.65561L432.185374 884.16725A30.637681 30.637681 0 0 1 405.07619 894.772697H73.866446a71.490417 71.490417 0 0 1-51.264858-19.263922A71.491664 71.491664 0 0 1 0 825.623386v-245.16381a78.564872 78.564872 0 0 0 23.015678 55.560419A78.573603 78.573603 0 0 0 78.577345 659.036921h942.948092a78.572356 78.572356 0 0 0 55.565408-23.016926 78.559883 78.559883 0 0 0 23.016926-55.560419V716.400877c1.777345 39.863659-28.911474 73.709291-68.760166 75.829632zM1021.525437 659.036921H78.577345c-43.395898 0-78.577345-35.182694-78.577345-78.577345v-628.633725a78.577345 78.577345 0 0 1 78.577345-78.577344h942.948092a78.576097 78.576097 0 0 1 55.565408 23.015678 78.563625 78.563625 0 0 1 23.016926 55.561666V580.459576a78.559883 78.559883 0 0 1-23.016926 55.560419 78.572356 78.572356 0 0 1-55.565408 23.016926zM760.054957 40.088166l-28.695698 28.118216c109.914738 111.214382 108.492862 290.112546-3.179264 399.578271l-0.523849 0.512623L755.889111 496.876979c127.80418-124.713471 129.892093-328.997106 4.66475-456.277437l-0.498904-0.511376zM346.689481 35.390987c-127.806675 124.714719-129.894587 328.9996-4.668492 456.281179l0.501398 0.507634 28.696946-28.114475c-109.8636-111.52495-108.204745-290.608955 3.700618-400.09713L346.690728 35.390987zM689.926548 108.196015l-28.614626 28.033403c72.278685 71.607659 72.574285 187.999415 0.657306 259.968779a175.894762 175.894762 0 0 1-2.965983 2.906115l28.154387 28.491147c89.203995-87.497744 90.445018-230.381291 2.768916-319.399444z m-275.697968-3.523508c-89.992263 87.007571-92.102626 230.176741-4.710899 319.777364 0.643586 0.661048 1.289666 1.318353 1.941983 1.97067l28.624604-28.038392c-72.298641-71.617637-72.594241-188.030597-0.661048-260.011187 0.979099-0.977851 1.966928-1.945725 2.968478-2.90362l-28.159376-30.794835h-0.003742zM621.105267 172.780356l-28.387625 28.29408c33.719659 35.835011 33.719659 92.179956 0 128.016214l27.011898 29.223289c50.571381-50.929345 50.818339-133.746124 0.546299-184.981047a96.562826 96.562826 0 0 0-0.546299-0.550042h1.375727v-0.002494z m-138.445798 0c-50.535211 51.251138-50.535211 134.281199 0 185.533583l28.383883-28.29408c-33.720906-35.835011-33.720906-92.181203 0-128.017462l-28.38513-29.223289z"  horiz-adv-x="1101" />

    
    <glyph glyph-name="tupianwenjianjia-copy" unicode="&#60463;" d="M1033.615578 793.0007H495.741719L433.134147 885.140146a30.713149 30.713149 0 0 1-27.169324 10.631474H74.026563A71.664013 71.664013 0 0 1 0 826.470157V580.764968a78.751663 78.751663 0 0 0 78.751663 78.751663h945.019957a78.751663 78.751663 0 0 0 78.751663-78.751663V717.005345a72.845288 72.845288 0 0 1-68.907705 75.995355zM1023.77162 659.516631H78.751663a78.751663 78.751663 0 0 1-78.751663-78.751663v-630.013305a78.751663 78.751663 0 0 1 78.751663-78.751663h945.019957a78.751663 78.751663 0 0 1 78.751663 78.751663V580.764968a78.751663 78.751663 0 0 1-78.751663 78.751663z m-236.254989-520.154735a53.944889 53.944889 0 0 0-16.144091-39.375831 54.338648 54.338648 0 0 0-39.375832-15.750333H370.132817a55.126164 55.126164 0 0 0-55.126165 55.126164v292.956187a55.126164 55.126164 0 0 0 55.126165 54.732406h361.470133A55.126164 55.126164 0 0 0 787.516631 432.318083zM731.60295 455.549824H370.132817a23.231741 23.231741 0 0 1-23.231741-23.231741v-219.323382c29.531874-22.837982 102.77092-57.488714 196.879158 42.919657s178.766275 39.375832 212.62949 1.968791v174.434934a23.231741 23.231741 0 0 1-24.806774 23.231741z m-269.724446-154.747018A44.888448 44.888448 0 1 0 506.766952 344.50997900000004a44.888448 44.888448 0 0 0-44.888448-43.707173zM461.878504 390.579701A44.888448 44.888448 0 1 1 506.766952 344.50997900000004a44.888448 44.888448 0 0 1-44.888448 46.069722z"  horiz-adv-x="1102" />

    
    <glyph glyph-name="tupianwenjianjia" unicode="&#59080;" d="M1033.615578 793.0007H495.741719L433.134147 885.140146a30.713149 30.713149 0 0 1-27.169324 10.631474H74.026563A71.664013 71.664013 0 0 1 0 826.470157V580.764968a78.751663 78.751663 0 0 0 78.751663 78.751663h945.019957a78.751663 78.751663 0 0 0 78.751663-78.751663V717.005345a72.845288 72.845288 0 0 1-68.907705 75.995355zM1023.77162 659.516631H78.751663a78.751663 78.751663 0 0 1-78.751663-78.751663v-630.013305a78.751663 78.751663 0 0 1 78.751663-78.751663h945.019957a78.751663 78.751663 0 0 1 78.751663 78.751663V580.764968a78.751663 78.751663 0 0 1-78.751663 78.751663z m-236.254989-520.154735a53.944889 53.944889 0 0 0-16.144091-39.375831 54.338648 54.338648 0 0 0-39.375832-15.750333H370.132817a55.126164 55.126164 0 0 0-55.126165 55.126164v292.956187a55.126164 55.126164 0 0 0 55.126165 54.732406h361.470133A55.126164 55.126164 0 0 0 787.516631 432.318083zM731.60295 455.549824H370.132817a23.231741 23.231741 0 0 1-23.231741-23.231741v-219.323382c29.531874-22.837982 102.77092-57.488714 196.879158 42.919657s178.766275 39.375832 212.62949 1.968791v174.434934a23.231741 23.231741 0 0 1-24.806774 23.231741z m-269.724446-154.747018A44.888448 44.888448 0 1 0 506.766952 344.509979a44.888448 44.888448 0 0 0-44.888448-43.707173zM461.878504 390.579701A44.888448 44.888448 0 1 1 506.766952 344.509979a44.888448 44.888448 0 0 1-44.888448 46.069722z"  horiz-adv-x="1102" />

    
    <glyph glyph-name="quanbu" unicode="&#59007;" d="M512-128C794.769792-128 1024 101.230208 1024 384 1024 666.769792 794.769792 896 512 896 229.230208 896 0 666.769792 0 384 0 101.230208 229.230208-128 512-128ZM384 597.333331 768 597.333331 768 533.333331 384 533.333331 384 597.333331ZM384 426.666669 768 426.666669 768 362.666669 384 362.666669 384 426.666669ZM384 256 768 256 768 192 384 192 384 256ZM256 597.333331 341.333312 597.333331 341.333312 533.333331 256 533.333331 256 597.333331ZM256 426.666669 341.333312 426.666669 341.333312 362.666669 256 362.666669 256 426.666669ZM256 256 341.333312 256 341.333312 192 256 192 256 256Z"  horiz-adv-x="1024" />

    
    <glyph glyph-name="icon-test2" unicode="&#59024;" d="M511.976-127.981C229.248-127.981 0 101.217 0 384.006 0 666.808 229.199 895.981 511.976 895.981 794.702 895.981 1024 666.808 1024 384.006c0-282.789-229.248-511.987-512.024-511.987z m189.69 362.734L486.412 339.085V576.013c0 21.203-17.165 38.369-38.369 38.369-21.203 0-38.443-17.166-38.443-38.369v-255.988c0.1-10.911 4.831-21.253 13.129-28.399 3.518-6.13 8.769-11.072 15.061-14.305l230.387-111.664c12.46-6.439 27.322-5.647 39.014 2.094a38.355 38.355 0 0 1 17.017 35.111c-1.166 13.908-9.835 26.145-22.542 31.891z m0 0"  horiz-adv-x="1024" />

    
    <glyph glyph-name="icon-test11" unicode="&#59027;" d="M1023.994 384c0 282.695-229.268 512-511.988 512-282.707 0-512-229.305-512-512 0-282.708 229.293-512 512-512 282.721 0 511.988 229.292 511.988 512z m-829.1-69.938v59.906H339.4L443.927 764.04l72.006-466.375 76.525 320.036 100.515-242.47h144.011v-61.169H660.029l-52.264 104.851-104.85-441.259-81.207 522.564-49.874-186.156h-176.94z"  horiz-adv-x="1024" />

    
    <glyph glyph-name="icon-test21" unicode="&#59039;" d="M1024 383.994c0 282.72-229.267 512-511.987 512S0 666.714 0 383.994c0-282.708 229.293-511.988 512.013-511.988S1024 101.286 1024 383.994z m-455.216-43.83l29.947 30.269 160.631-160.644c-17.735-51.954-49.639-90.545-104.751-105.122-53.527 53.552-107.029 107.153-160.655 160.644l37.377 38.231-178.688 171.27-45.279 3.951-42.505 66.519 18.85 18.924 18.949 18.85 18.8 18.949 66.631-42.963 3.517-48.425 177.176-170.453zM256.613 215.733l155.132 150.773 62.544-59.807-151.962-159.875s-31.903-3.504-49.217 13.772c-21.624 21.636-16.497 55.137-16.497 55.137zM558.53 400.366l-57.045 53.924 27.891 27.581c-24.77 51.941-13.771 109.457 21.723 144.097 37.799 37.365 94.496 37.365 94.496 37.365l11.419-29.142-56.747-57.44 82.31-81.529 56.302 57.106 29.079-11.432s-0.074-62.283-36.56-94.074c-37.402-32.275-92.49-41.737-146.092-18.491l-26.776-27.965z"  horiz-adv-x="1024" />

    
    <glyph glyph-name="icon-test5" unicode="&#59044;" d="M1023.987 383.9805C1023.987 666.705911 794.729911 895.999 511.9935 895.999 229.306089 895.999 0 666.705911 0 383.9805c0-282.712411 229.306089-511.9805 511.9935-511.9805 282.736411 0 511.9935 229.269089 511.9935 511.9805zM511.919501 677.542773c35.051555-1.621979 66.361158-22.553714 81.446966-54.434309l213.725287-388.386069c18.775762-29.96062 20.312742-67.649141 3.93795-98.997743-18.677763-29.886621-51.99434-47.164401-86.971896-45.157427H300.200189c-34.976556-2.006975-68.343132 15.332805-87.019895 45.157427-16.497791 31.285603-15.135808 68.975124 3.541955 98.997743l213.725286 388.386069c15.010809 31.942594 46.370411 52.923328 81.471966 54.434309zM569.981764 360.287801c0-26.889659-25.438677-48.725381-56.923277-48.725381-31.335602 0-56.775279 21.835723-56.77528 48.725381V547.184428c0 26.938658 25.439677 48.774381 56.77528 48.774381 31.4836 0 56.923277-21.872722 56.923277-48.774381v-186.896627zM567.876791 204.130783c0-31.434601-21.624725-56.924277-48.253388-56.924277h-17.29078c-26.628662 0-48.328386 25.464677-48.328387 56.899278 0 31.409601 21.699725 56.898278 48.328387 56.898277h17.29078c26.628662 0.001 48.253387-25.487676 48.253388-56.873278z"  horiz-adv-x="1024" />

    
    <glyph glyph-name="icon-test6" unicode="&#59045;" d="M0 384.024c0-282.755 229.177-512.019 511.981-512.019 282.793 0 512.019 229.238 512.019 512.019S794.799 895.994 511.981 895.994C229.177 896.043 0 666.805 0 384.024z m859.202-94.883c1.016-5.994 0.768-13.215-0.768-21.723a125.601 125.601 0 0 0-20.114-49.48c-4.211-6.266-9.858-11.443-16.497-14.961a35.843 35.843 0 0 0-15.804-4.607 43.213 43.213 0 0 0-14.862 3.061c-6.168 1.732-12.435 3.121-18.701 4.061-7.556 1.227-15.284 1.523-22.863 0.781a109.555 109.555 0 0 1-23.136-4.842 44.486 44.486 0 0 1-19.816-12.721 73.388 73.388 0 0 1-21.03-42.779c-2.007-16.037 0.272-31.234 6.763-45.775 4.954-9.598 4.137-21.229-2.229-29.996-3.022-4.002-7.827-8.15-14.317-12.361-6.44-4.297-13.624-8.125-21.278-11.654a130.98 130.98 0 0 0-24.374-8.225 102.704 102.704 0 0 0-22.467-2.959c-4.756 0.086-9.264 1.994-12.757 5.227a30.914 30.914 0 0 0-8.224 11.246h-0.768c-5.549 15.643-15.259 29.525-28.04 40.152-12.757 11.098-29.205 17.104-46.073 16.932-16.931 0-32.326-5.623-46.012-16.932-13.017-10.242-22.975-23.891-28.857-39.348a25.23 25.23 0 0 0-11.246-13.166c-5.053-2.762-10.713-4.125-16.46-4.063-6.997 0-14.8 1.201-23.594 3.74a234.621 234.621 0 0 0-26.183 9.34 124.59 124.59 0 0 0-23.581 13.215 63.561 63.561 0 0 0-15.767 14.924c-2.539 3.592-3.951 7.914-4.124 12.336-0.272 4.768 1.647 11.443 5.623 19.84 5.523 11.594 7.616 24.697 6.354 39.473-1.202 14.75-7.593 28.313-19.099 40.834a47.945 47.945 0 0 1-25.414 14.564c-9.326 2.18-18.875 3.121-28.437 2.627-10.479-0.496-21.216-2.453-32.177-6.008-6.974-1.969-14.392-1.449-21.018 1.537-5.45 2.031-10.59 6.613-15.37 13.797a159.527 159.527 0 0 0-12.745 24.002 151.64 151.64 0 0 0-8.645 26.988 63.642 63.642 0 0 0-1.511 22.9c1.511 10.961 6.502 17.957 15.011 20.967 14.961 6.082 28.411 15.865 40.388 29.664 11.952 13.76 17.959 29.142 17.959 46.109 0 17.451-6.007 32.734-17.959 45.776a110.93 110.93 0 0 1-40.388 28.499c-4.409 1.399-8.149 5.003-11.098 10.763-2.947 5.388-4.496 11.432-4.595 17.587 0 6.502 1.016 13.772 3.097 21.773 1.944 7.976 4.57 15.729 7.827 23.284 3.295 7.481 7.01 14.317 11.184 20.634a46.083 46.083 0 0 0 13.896 13.822 17.643 17.643 0 0 0 11.63 3.022c3.765-0.521 7.864-1.536 12.373-3.022 14.949-6.007 30.529-7.84 46.828-5.574 16.188 2.217 30.555 9.339 43.015 21.291 5.981 6.007 10.354 13.388 13.066 22.107 2.762 8.855 4.569 17.414 5.264 25.959a120.35 120.35 0 0 1 0 23.136c-0.496 5.028-1.078 10.044-1.846 15.048-1.114 3.418-2.031 6.923-2.65 10.478a16.777 16.777 0 0 0 1.053 10.515 43.16 43.16 0 0 0 16.163 18.355c7.716 5.227 16.051 9.698 25.08 13.166 8.546 3.307 17.289 5.945 26.244 7.828 8.435 1.808 15.271 2.65 20.188 2.65 6.416 0 11.568-2.081 15.37-6.378 3.703-4.273 6.316-8.632 7.791-13.104 5.474-13.537 14.466-25.353 26.962-35.62 12.46-10.28 27.211-15.457 44.191-15.457 17.438 0 32.944 4.879 46.432 14.651 13.476 9.76 22.963 22.12 28.437 37.131 2.007 3.976 5.078 8.125 9.363 12.311 4.187 4.322 8.596 6.378 13.129 6.378 6.911 0 14.49-0.966 22.788-2.948 8.199-2.081 16.374-4.793 24.226-8.298a90.425 90.425 0 0 0 22.17-13.475c6.787-5.511 12.063-11.543 16.126-18.045 2.551-3.976 3.294-8.335 2.254-13.054-0.645-3.492-1.635-6.911-3.022-10.156-6.44-14.354-8.57-30.22-5.994-45.714 2.526-16.002 9.76-30.059 21.649-42.036 12.014-11.977 26.752-18.603 44.215-19.891 17.488-1.214 33.763 1.647 48.699 8.67 4.409 2.601 9.512 3.604 14.54 2.972 5.747-0.545 10.577-2.787 14.615-6.713 7.48-7.022 14.069-17.661 19.791-31.954 5.747-14.255 9.611-28.598 11.618-43.051 1.04-8.509-0.348-15.185-4.063-19.916a28.184 28.184 0 0 0-11.692-9.338c-15.654-5.685-29.378-15.717-39.583-28.882-10.948-13.772-16.473-29.403-16.473-46.829 0-17.017 4.583-31.917 13.798-44.636 9.264-12.744 21.377-21.873 36.313-27.385a75.856 75.856 0 0 0 8.967-5.943c5.5-4.286 9.414-10.329 11.271-17.104zM566.365 373.608c0-24.733-23.445-44.858-52.377-44.858-28.907 0-52.34 20.125-52.34 44.858V545.652c0 24.783 23.433 44.909 52.34 44.909 28.932 0 52.377-20.126 52.377-44.909v-172.044zM564.359 229.865c0-28.92-19.879-52.377-44.427-52.377h-15.915c-24.522 0-44.438 23.457-44.438 52.377 0 28.895 19.915 52.391 44.438 52.391h15.915c24.524 0 44.427-23.483 44.427-52.391z"  horiz-adv-x="1024" />

    
    <glyph glyph-name="icon-test111" unicode="&#59046;" d="M878.294773 383.694007c0 155.488008-126.100668 281.596175-281.602175 281.596175-155.494007 0-281.609675-126.108167-281.609675-281.596175 0-155.507507 126.115667-281.615675 281.609675-281.615675 155.501507 0 281.602175 126.108167 281.602175 281.615675z m-456.021258-38.480136V378.177131h79.480215l57.492209 214.547681 39.60361-256.515239 42.095055 176.027047 55.273758-133.375505h79.208721v-33.647244h-97.320814L649.360915 402.896576 591.69171 160.197527l-44.662997 287.405544-27.431384-102.3907h-97.323814zM1194.636167 473.412992l280.649697 217.877606c11.362245 8.774803 26.7294 10.367767 39.61711 4.046909A37.676154 37.676154 0 0 0 1535.965501 661.598765v-555.17353c-0.026999-14.351678-8.201816-27.438884-21.062527-33.731243a37.634155 37.634155 0 0 0-39.61711 4.01241L1194.636167 294.582508v-337.241925a85.289584 85.289584 0 0 0-24.984938-60.327145 85.286584 85.286584 0 0 0-60.342145-24.998438l-1023.971501-0.015a85.370582 85.370582 0 0 0-60.346644 24.999938A85.322584 85.322584 0 0 0 0-42.674416V810.654917c0 47.157441 38.187642 85.339083 85.340583 85.339083h1023.971501a85.285084 85.285084 0 0 0 60.342144-24.992439 85.265585 85.265585 0 0 0 24.984939-60.346644l-0.003-337.241925z m-981.322958 294.578383c-47.137941 0-85.331583-38.201142-85.331584-85.345083v-597.312084a85.208586 85.208586 0 0 1 24.998439-60.325645 85.228086 85.228086 0 0 1 60.333145-25.013438l768.00375 0.0135a85.312084 85.312084 0 0 1 60.328645 24.999938 85.300084 85.300084 0 0 1 24.998438 60.325645V682.659792a85.352583 85.352583 0 0 1-85.327083 85.345083l-768.00375-0.0135z"  horiz-adv-x="1535" />

    
    <glyph glyph-name="icon-test12" unicode="&#59047;" d="M878.333791 383.414245c0 155.488291-126.101547 281.585337-281.619838 281.585338-155.473291 0-281.564337-126.095547-281.564337-281.585338 0-155.495791 126.091047-281.594337 281.564337-281.594337 155.515291 0.003 281.619838 126.098547 281.619838 281.594337z m-250.380578-24.1067l16.458136 16.635138 88.364234-88.358233c-9.768081-28.561737-27.286727-49.785413-57.600479-57.80598-29.469245 29.457245-58.881489 58.923489-88.377733 88.358233l20.559171 21.030175-98.297316 94.188782-24.906207 2.187018-23.379194 36.573303 10.381586 10.407087 10.408586 10.368086 10.353086 10.422086 36.649805-23.623696 1.920015-26.628221 97.46631-93.753778z m-171.742426-68.439568l85.325208 82.913188 34.443286-32.895273-83.585194-87.92173s-17.547146-1.926016-27.070724 7.576563c-11.907099 11.901099-9.112576 30.327252-9.112576 30.327252z m166.102379 101.525343l-31.405761 29.673246 15.354127 15.169626c-13.611113 28.576737-7.575063 60.2045 11.9476 79.257658 20.763172 20.559171 51.948431 20.559171 51.948431 20.55917l6.307552-16.030633-31.212259-31.612762 45.258376-44.823372L721.505989 475.995014l15.993133-6.294053s-0.0285-34.257284-20.136167-51.744429c-20.557671-17.751147-50.844422-22.94869-80.342167-10.168585l-14.707622-15.394627zM1194.678917 473.428492l280.67933 217.866309a37.600812 37.600812 0 0 0 39.577828 4.060533A37.689313 37.689313 0 0 0 1536.01275 661.615554v-555.181608a37.669813 37.669813 0 0 0-21.076675-33.73978 37.572312 37.572312 0 0 0-39.577828 4.021533L1194.678917 294.580508v-337.2388a85.365709 85.365709 0 0 0-24.970708-60.3275 85.455709 85.455709 0 0 0-60.381501-24.985708l-1024-0.027a85.398709 85.398709 0 0 0-60.353001 25.012708A85.343208 85.343208 0 0 0 0-42.659792V810.673292c0 47.145391 38.202317 85.326708 85.326708 85.326708h1024a85.470709 85.470709 0 0 0 60.381501-24.972207 85.364209 85.364209 0 0 0 24.970708-60.354501v-337.2448zM213.363271 768.009938c-47.152891 0-85.380709-38.200817-85.380709-85.346209v-597.325958a85.278708 85.278708 0 0 1 25.027708-60.326001 85.295208 85.295208 0 0 1 60.353001-25.000707h767.977875a85.370209 85.370209 0 0 1 60.353001 25.000707 85.290708 85.290708 0 0 1 25.014208 60.326001V682.663729a85.335708 85.335708 0 0 1-25.014208 60.347001 85.319208 85.319208 0 0 1-60.353001 25.000708l-767.977875-0.0015z"  horiz-adv-x="1536" />

    
    <glyph glyph-name="icon-test13" unicode="&#59048;" d="M1194.651917 473.42842l280.677396 217.859479c11.362395 8.785418 26.719252 10.373904 39.550133 4.058963a37.645151 37.645151 0 0 0 21.103304-33.739187V106.413325a37.658651 37.658651 0 0 0-21.103304-33.731687 37.538652 37.538652 0 0 0-39.550133 4.031963l-280.677396 217.860979v-337.232872c0-22.62879-8.953417-44.332089-25.000268-60.34144a85.356708 85.356708 0 0 0-60.34144-24.985268l-1023.986501-0.0135a85.421208 85.421208 0 0 0-60.35344 24.998768A85.316208 85.316208 0 0 0 0-42.671792V810.673292c0 47.140063 38.174646 85.326708 85.353708 85.326708h1023.959501a85.326708 85.326708 0 0 0 60.34144-24.977768 85.254709 85.254709 0 0 0 25.000268-60.34744l-0.003-337.246372z m-981.341896 294.582267c-47.125063 0-85.341708-38.209146-85.341708-85.352208v-597.327458a85.284709 85.284709 0 0 1 25.000268-60.318941 85.362708 85.362708 0 0 1 60.34144-25.013767l768.031875 0.026999a85.299709 85.299709 0 0 1 60.32794 24.986768 85.277209 85.277209 0 0 1 24.998768 60.333941v597.324458a85.322208 85.322208 0 0 1-24.998768 60.33994 85.281709 85.281709 0 0 1-60.32794 25.000268H213.310021zM596.740964 102.409862c-155.503557 0-281.592388 126.052831-281.592388 281.596888 0 155.530557 126.06183 281.584888 281.592388 281.584888 155.502057 0 281.619387-126.054331 281.619387-281.584888 0-155.542557-126.08733-281.596888-281.619387-281.596888z m104.331532 199.48015l-118.392402 57.383467-0.026999 130.320291c0 11.668392-9.427413 21.109304-21.092805 21.109305-11.674392 0-21.130304-9.440912-21.130304-21.109305v-140.794693c0.053999-5.993944 2.656475-11.689392 7.219433-15.598356 1.934982-3.392969 4.825455-6.103443 8.282923-7.880927l126.717325-61.41693a21.175304 21.175304 0 0 1 21.457301 1.153489c6.389941 4.26446 9.986907 11.659392 9.359913 19.304821a21.179804 21.179804 0 0 1-12.394385 17.528838z"  horiz-adv-x="1535" />

    
    <glyph glyph-name="icon-test14" unicode="&#59049;" d="M1194.651667 473.420754l280.662518 217.866244c11.347278 8.773329 26.703978 10.373797 39.593227 4.045421 12.860749-6.301377 21.062589-19.400621 21.062589-33.738841V106.416922a37.574266 37.574266 0 0 0-21.062589-33.732842 37.637265 37.637265 0 0 0-39.593227 4.019922L1194.651667 294.574747v-337.244414a85.330333 85.330333 0 0 0-24.971512-60.325821 85.336333 85.336333 0 0 0-60.351322-25.000012H85.325833a85.363333 85.363333 0 0 0-60.345321 24.985012A85.307834 85.307834 0 0 0 0-42.669667V810.672667c0 47.138079 38.180254 85.325833 85.325833 85.325833l1023.986501-0.0135a85.253835 85.253835 0 0 0 60.342321-24.979012 85.228335 85.228335 0 0 0 24.986512-60.346821v-337.236914l0.0105-0.001499zM213.328833 767.9955c-47.145579 0-85.340833-38.193754-85.340833-85.345333v-597.316834a85.325833 85.325833 0 0 1 24.986512-60.333321 85.409832 85.409832 0 0 1 60.352821-25.013512l767.986501 0.027c22.655558 0 44.358634 8.992324 60.352821 24.986512s24.986512 37.710763 24.986512 60.333321V682.656167a85.379832 85.379832 0 0 1-24.986512 60.345321 85.298834 85.298834 0 0 1-60.352821 25.006012l-767.985001-0.012zM314.573856 374.703182c0-155.516963 126.047038-281.6105 281.585-281.6105 155.528962 0 281.618 126.077038 281.618 281.6105 0 155.528962-126.062038 281.591-281.618 281.591-155.537962 0-281.585-126.075538-281.585-281.591zM787.123127 322.502701c0.571489-3.302935 0.436491-7.274858-0.406493-11.954766a69.028652 69.028652 0 0 0-11.069783-27.200469c-2.317455-3.448433-5.422394-6.293877-9.067323-8.234839a19.735115 19.735115 0 0 0-8.69233-2.528951 23.954532 23.954532 0 0 0-8.182341 1.681467 86.251315 86.251315 0 0 1-10.279299 2.234957c-4.156419 0.673487-8.399836 0.838484-12.581754 0.413992a60.42932 60.42932 0 0 1-12.724252-2.651949 24.647519 24.647519 0 0 1-10.900287-6.995863 40.45571 40.45571 0 0 1-11.558774-23.528541c-1.109978-8.821328 0.136497-17.179164 3.712427-25.190508a15.773692 15.773692 0 0 0-1.219476-16.484678c-1.675467-2.213957-4.304916-4.481912-7.867346-6.797867-3.542931-2.363954-7.493854-4.480412-11.719271-6.407875a71.098611 71.098611 0 0 0-13.406738-4.531411 56.523396 56.523396 0 0 0-12.356759-1.621468c-2.621949 0.046499-5.087901 1.096479-7.009363 2.873943a16.870171 16.870171 0 0 0-4.523912 6.17088h-0.413992a51.063503 51.063503 0 0 1-15.428698 22.093068 38.054257 38.054257 0 0 1-25.342005 9.302819c-9.326818 0-17.780653-3.07944-25.306006-9.302819a50.393016 50.393016 0 0 1-15.88619-21.637077 13.81173 13.81173 0 0 0-6.170879-7.240359 18.45714 18.45714 0 0 0-9.059823-2.248456c-3.842925 0-8.132841 0.667487-12.968747 2.05646a131.370434 131.370434 0 0 0-14.401219 5.1524 68.10167 68.10167 0 0 0-12.976246 7.268858 35.208812 35.208812 0 0 0-8.677331 8.19434 12.832249 12.832249 0 0 0-2.254456 6.799367c-0.161997 2.621949 0.905982 6.281877 3.09444 10.898787 3.025441 6.391375 4.189418 13.595734 3.478432 21.722576-0.647987 8.096842-4.159419 15.565196-10.487795 22.459061a26.571981 26.571981 0 0 1-13.978227 8.012843 56.428898 56.428898 0 0 1-15.640195 1.444472c-5.762887-0.284994-11.668272-1.354474-17.698154-3.302935a16.787672 16.787672 0 0 0-11.558774 0.844483c-3.004441 1.117478-5.824386 3.623929-8.461335 7.574852a89.248257 89.248257 0 0 0-7.003363 13.204242 82.888381 82.888381 0 0 0-4.754907 14.85421 35.024316 35.024316 0 0 0-0.830984 12.583254c0.830984 6.040382 3.56993 9.877307 8.249839 11.545275 8.234839 3.338935 15.632695 8.72533 22.213066 16.307681 6.574372 7.576352 9.884807 16.030187 9.884807 25.367505 0 9.586313-3.310435 18.004148-9.884807 25.177008a61.035308 61.035308 0 0 1-22.213066 15.673194c-2.417953 0.763485-4.475913 2.752446-6.095881 5.906885-1.628968 2.965442-2.473452 6.299877-2.533451 9.686811 0 3.57743 0.565489 7.576352 1.709967 11.974266a78.470967 78.470967 0 0 0 4.304916 12.80675 75.148532 75.148532 0 0 0 6.14388 11.342778 25.6 25.6 0 0 0 7.64385 7.607851 9.75281 9.75281 0 0 0 6.404875 1.661968c2.06396-0.299994 4.324416-0.851983 6.803867-1.661968 8.20934-3.302935 16.790672-4.312416 25.755997-3.079439 8.897826 1.232976 16.798172 5.150899 23.657538 11.720771 3.287936 3.304435 5.687889 7.349856 7.18636 12.158762 1.51197 4.856905 2.513951 9.571313 2.888944 14.264722a65.712217 65.712217 0 0 1 0 12.737751c-0.268495 2.759946-0.598488 5.525892-1.009481 8.276838a41.813183 41.813183 0 0 0-1.459471 5.765888 9.190321 9.190321 0 0 0 0.574489 5.768887 23.704037 23.704037 0 0 0 8.890326 10.102303 69.591141 69.591141 0 0 0 13.79373 7.247858 91.972204 91.972204 0 0 0 14.432719 4.297416c4.640909 0.994481 8.405836 1.457972 11.108783 1.457972 3.530931 0 6.349376-1.136978 8.455334-3.500932 2.03546-2.348954 3.469432-4.747407 4.279417-7.207359 3.010441-7.445855 7.963344-13.951228 14.83021-19.603117 6.859366-5.64139 14.971208-8.486834 24.311525-8.486835 9.593813 0 18.119646 2.677448 25.537002 8.051843 7.409855 5.366895 12.616254 12.170762 15.640194 20.426601 1.094979 2.186957 2.800445 4.468413 5.1374 6.773868 2.294955 2.377454 4.726408 3.508431 7.232859 3.508431 3.785926 0 7.969344-0.53099 12.527755-1.628968 4.510412-1.138478 9.020824-2.642948 13.333239-4.570411a49.449534 49.449534 0 0 0 12.193262-7.411355c3.718427-3.017941 6.63587-6.335876 8.869327-9.908806 1.408472-2.186957 1.811965-4.58691 1.231476-7.19386a25.989992 25.989992 0 0 0-1.655968-5.581391 43.781145 43.781145 0 0 1-3.304435-25.135009c1.397973-8.815328 5.374395-16.538677 11.906767-23.134048 6.613371-6.574372 14.725212-10.2193 24.319025-10.925787 9.617812-0.667487 18.569637 0.892483 26.789477 4.760907a12.557755 12.557755 0 0 0 7.996344 1.628969c3.160438-0.283494 5.818386-1.51947 8.030843-3.685428 4.11442-3.868424 7.721849-9.71381 10.885288-17.582657 3.167938-7.826847 5.293397-15.727193 6.397375-23.671038 0.572989-4.678409-0.190496-8.344337-2.233457-10.946786a15.641694 15.641694 0 0 0-6.428874-5.149399 48.341056 48.341056 0 0 1-21.766075-15.87269c-6.032882-7.574852-9.067323-16.171184-9.067323-25.770997 0-9.343318 2.528951-17.552657 7.583852-24.535021 5.093901-7.009363 11.76427-12.031265 19.96611-15.067205a41.534189 41.534189 0 0 0 4.952903-3.271437c3.022441-2.335454 5.168899-5.687889 6.17688-9.406316zM626.054772 368.970294c0-13.603234-12.902748-24.673018-28.814437-24.673019-15.899689 0-28.785938 11.069784-28.785938 24.673019v94.624151c0 13.615234 12.889248 24.700018 28.785938 24.700018 15.911689 0 28.814437-11.084784 28.814437-24.700018v-94.624151zM624.971794 289.908338c0-15.916189-10.940786-28.805437-24.434523-28.805438h-8.753829c-13.486237 0-24.449522 12.889248-24.449523 28.805438 0 15.88769 10.963286 28.800937 24.449523 28.800937h8.753829c13.487737 0 24.434523-12.902748 24.434523-28.800937z"  horiz-adv-x="1535" />

    
    <glyph glyph-name="renyuan" unicode="&#59301;" d="M511.999 896C229.694 896 0 666.327 0 383.999 0 101.693 229.694-128 511.999-128 794.303-128 1024 101.693 1024 383.999 1024 666.327 794.303 896 511.999 896zM512-64C264.979-64 64 136.979 64 384S264.979 832 512 832c247.02 0 448-200.979 448-448S759.02-64 512-64zM512 704c-106.038 0-192-85.961-192-192s85.962-192 192-192c106.039 0 192 85.961 192 192s-85.961 192-192 192z m0-320c-70.692 0-128 57.308-128 128s57.308 128 128 128 128-57.308 128-128-57.308-128-128-128zM256.042 128C273 244.333 392.715 320 512 320c119.286 0 237.25-70.25 256-192h64c-18.5 148.5-165.188 256-320 256S211.333 274.062 192 128h64.042zM224 126.666m-32 0a32 32 0 1 1 64 0 32 32 0 1 1-64 0ZM800 128m-32 0a32 32 0 1 1 64 0 32 32 0 1 1-64 0Z"  horiz-adv-x="1024" />

    
    <glyph glyph-name="shishichuli" unicode="&#59023;" d="M512 780.8C265.6 780.8 67.2 576 67.2 326.4c0-92.8 28.8-182.4 80-259.2 12.8-16 35.2-22.4 51.2-9.6 16 12.8 19.2 35.2 9.6 51.2-44.8 64-67.2 137.6-67.2 217.6C140.8 534.4 307.2 707.2 512 707.2c204.8 0 371.2-169.6 371.2-380.8S716.8-54.4 512-54.4c-70.4 0-140.8 19.2-198.4 60.8-16 9.6-38.4 6.4-51.2-12.8-9.6-16-6.4-41.6 9.6-51.2 70.4-48 153.6-70.4 240-70.4 246.4 0 444.8 204.8 444.8 454.4S758.4 780.8 512 780.8zM435.2 800h150.4c19.2 0 32 12.8 32 32s-16 32-32 32h-150.4c-19.2 0-32-12.8-32-32s12.8-32 32-32zM515.2 620.8h-9.6c-12.8 0-22.4-9.6-22.4-22.4V284.8c0-3.2 3.2-9.6 6.4-12.8l9.6-6.4c9.6-6.4 22.4-6.4 32 3.2l99.2 115.2c6.4 9.6 6.4 22.4-3.2 32l-9.6 6.4c-9.6 6.4-22.4 6.4-32-3.2l-48-54.4V598.4c0 12.8-9.6 22.4-22.4 22.4zM873.6 633.6c9.6-9.6 25.6-6.4 38.4 6.4 12.8 12.8 16 28.8 6.4 38.4l-73.6 73.6c-9.6 9.6-25.6 6.4-38.4-6.4-12.8-12.8-16-28.8-6.4-38.4l73.6-73.6z"  horiz-adv-x="1024" />

    
    <glyph glyph-name="zanting" unicode="&#59132;" d="M767.7 50.2V719.4c0 27.5-22.3 49.8-49.8 49.7-27.5 0-49.7-22.3-49.7-49.7v-669.2c0-27.5 22.3-49.8 49.8-49.8 27.4 0 49.7 22.3 49.7 49.8M352.2 50.2V719.4c0 27.5-22.3 49.8-49.8 49.8-27.5 0-49.8-22.3-49.8-49.8v-669.2c0-27.5 22.3-49.8 49.8-49.8 27.5 0 49.8 22.3 49.8 49.8"  horiz-adv-x="1024" />

    
    <glyph glyph-name="shanchu6" unicode="&#59253;" d="M785.066667 599.466667h-136.533334c-2.133333 68.266667-57.6 123.733333-128 123.733333s-125.866667-55.466667-128-123.733333h-147.2c-17.066667 0-32-14.933333-32-32s14.933333-32 32-32H298.666667V170.666667c0-68.266667 0-123.733333 89.6-123.733334H640c89.6 0 89.6 55.466667 89.6 123.733334V533.333333h53.333333c17.066667 0 32 14.933333 32 32 2.133333 19.2-12.8 34.133333-29.866666 34.133334zM520.533333 661.333333c36.266667 0 64-27.733333 66.133334-61.866666h-132.266667c2.133333 34.133333 29.866667 61.866667 66.133333 61.866666z m117.333334-554.666666H392.533333c-34.133333 0-36.266667 25.6-36.266666 64V533.333333h317.866666v-364.8c0-36.266667 2.133333-61.866667-36.266666-61.866666zM458.666667 443.733333c-14.933333 0-27.733333-14.933333-27.733334-34.133333v-192c0-19.2 12.8-34.133333 27.733334-34.133333 14.933333 0 27.733333 14.933333 27.733333 34.133333v192c0 19.2-12.8 34.133333-27.733333 34.133333zM571.733333 443.733333c-14.933333 0-27.733333-14.933333-27.733333-34.133333v-192c0-19.2 12.8-34.133333 27.733333-34.133333 14.933333 0 27.733333 14.933333 27.733334 34.133333v192c0 19.2-12.8 34.133333-27.733334 34.133333z"  horiz-adv-x="1024" />

    
    <glyph glyph-name="gengduo1" unicode="&#59028;" d="M904.4 549.8c-21.5 50.7-52.2 96.3-91.3 135.4-39.1 39.1-84.6 69.8-135.4 91.3C625.3 798.6 569.5 809.9 512 809.9s-113.3-11.3-165.8-33.5c-50.7-21.5-96.3-52.2-135.4-91.3-39.1-39.1-69.8-84.6-91.3-135.4C97.4 497.3 86.1 441.5 86.1 384c0-57.5 11.3-113.3 33.5-165.8 21.5-50.7 52.2-96.3 91.3-135.4 39.1-39.1 84.6-69.8 135.4-91.3 52.5-22.2 108.3-33.5 165.8-33.5s113.3 11.3 165.8 33.5c50.7 21.5 96.3 52.2 135.4 91.3 39.1 39.1 69.8 84.6 91.3 135.4 22.2 52.5 33.5 108.3 33.5 165.8-0.2 57.5-11.5 113.3-33.7 165.8zM770.7 125.3c-69.1-69.1-161-107.2-258.7-107.2s-189.6 38.1-258.7 107.2-107.2 161-107.2 258.7 38.1 189.6 107.2 258.7 161 107.2 258.7 107.2 189.6-38.1 258.7-107.2 107.2-161 107.2-258.7-38.1-189.6-107.2-258.7zM290.7 383.5m-60 0a60 60 0 1 1 120 0 60 60 0 1 1-120 0ZM511.5 383.5m-60 0a60 60 0 1 1 120 0 60 60 0 1 1-120 0ZM733.3 384m-60 0a60 60 0 1 1 120 0 60 60 0 1 1-120 0Z"  horiz-adv-x="1024" />

    
    <glyph glyph-name="wenjian" unicode="&#59029;" d="M953.856 648.704h-404.992L455.68 764.928c-10.752 12.8-26.112 20.48-43.008 20.48H64c-30.72 0-55.296-25.088-55.296-55.296v-776.704c0-30.72 25.088-55.296 55.296-55.296h890.368c30.208 0 54.784 24.576 54.784 55.296v640c0 30.72-25.088 55.296-55.296 55.296z m-189.952-393.216l-238.08-177.152c-16.896-12.288-40.96 0-40.96 20.992v110.08H279.04c-19.456 0-35.328 15.872-35.328 35.328v64c0 19.456 15.872 35.328 35.328 35.328h205.824V453.632c0 20.992 24.064 33.28 40.96 20.48l238.08-177.152c13.824-10.24 13.824-31.232 0-41.472z"  horiz-adv-x="1024" />

    
    <glyph glyph-name="kaishi" unicode="&#59499;" d="M268.288-61.44c-18.432 0-36.864 4.608-53.76 14.336-33.792 19.456-53.76 54.272-53.76 92.672V721.92c0 38.912 19.968 73.728 53.76 92.672 33.792 19.456 73.728 19.456 107.008 0l585.728-337.92c33.792-19.456 53.76-54.272 53.76-92.672 0-38.912-19.968-73.728-53.76-92.672l-585.216-337.92c-16.896-10.24-35.328-14.848-53.76-14.848z m0.512 818.688c-8.192 0-14.336-3.072-17.92-4.608-5.12-3.072-17.408-12.288-17.408-30.208v-675.84c0-18.432 12.288-27.136 17.408-30.208 5.12-3.072 19.456-9.216 35.328 0l585.728 337.92c15.872 9.216 17.408 24.064 17.408 30.208 0 6.144-1.536 21.504-17.408 30.208L286.208 752.64c-6.656 3.584-12.288 4.608-17.408 4.608z m0 0"  horiz-adv-x="1024" />

    
    <glyph glyph-name="zhankai" unicode="&#59030;" d="M512 456.3968L885.3504 829.8496a51.2 51.2 0 1 0 72.4992-72.4992l-409.6-409.6a51.2 51.2 0 0 0-72.4992 0l-409.6 409.6a51.2 51.2 0 1 0 72.4992 72.4992L512 456.3968z m0-409.6l373.3504 373.4528a51.2 51.2 0 1 0 72.4992-72.4992l-409.6-409.6a51.2 51.2 0 0 0-72.4992 0l-409.6 409.6a51.2 51.2 0 1 0 72.4992 72.4992L512 46.7968z"  horiz-adv-x="1024" />

    
    <glyph glyph-name="cheliang" unicode="&#59031;" d="M512 850.234637a466.234637 466.234637 0 0 0 329.682235-795.916872A466.240358 466.240358 0 0 0 182.317765 713.682235 463.174078 463.174078 0 0 0 512 850.234637m0 45.765363a512 512 0 1 1 512-512A512 512 0 0 1 512 896zM840.938547 240.096536a10.15419 10.15419 0 0 0-10.268603-10.268603h-30.834413v-41.13162a61.668827 61.668827 0 1 0-123.337654 0v41.103017H347.530726v-41.131621a61.668827 61.668827 0 0 0-123.337653 0v41.131621H193.330056a10.15419 10.15419 0 0 0-10.268603 10.268603v123.366257a71.823017 71.823017 0 0 0 71.966033 71.966033h8.981453l33.723352 134.607375c9.953966 40.473743 49.140559 70.99352 90.901452 70.993519h246.703911c41.760894 0 80.947486-30.519777 90.901452-70.993519l33.723352-134.607375h8.981453a71.823017 71.823017 0 0 0 71.966033-71.966033zM285.861899 384a51.486034 51.486034 0 1 1 51.486034-51.486034 51.486034 51.486034 0 0 1-51.486034 51.486034z m389.320224 51.486034l-28.603352 114.670838a15.588827 15.588827 0 0 1-11.241117 8.581005h-246.675308a15.588827 15.588827 0 0 1-11.241117-8.581005l-28.603352-114.670838z m62.927374-51.486034a51.486034 51.486034 0 1 1 51.486034-51.486034 51.486034 51.486034 0 0 1-51.45743 51.486034z"  horiz-adv-x="1024" />

    
    <glyph glyph-name="zhongxinkaishi" unicode="&#59074;" d="M927.535784 428.393584c-11.354971 200.60449-158.969596 363.359075-355.789095 401.208979S181.892681 761.472737 98.622893 579.793199s-30.279923-397.423989 124.904682-522.328671 378.499037-124.904682 533.683643-3.78499c7.569981 7.569981 18.924952 7.569981 30.279923 3.78499 11.354971-3.78499 15.139961-11.354971 18.924951-22.709942 0-11.354971-3.78499-18.924952-11.354971-26.494933C617.166574-128 367.35721-128 189.462662 12.044644s-238.454393 378.499037-147.614624 586.673507S348.432258 924.227323 571.746689 890.162409 965.385688 670.632968 984.31064 447.318536l22.709942 22.709942c11.354971 11.354971 30.279923 11.354971 41.634894 0 11.354971-11.354971 11.354971-30.279923 0-41.634894l-83.269788-83.269788c-3.78499-3.78499-11.354971-7.569981-18.924952-7.569981s-15.139961 3.78499-18.924952 7.569981l-83.269788 83.269788c-11.354971 11.354971-11.354971 30.279923 0 41.634894 11.354971 11.354971 30.279923 11.354971 41.634894 0l41.634894-41.634894z m-253.594355 3.784991c11.354971-7.569981 15.139961-18.924952 15.139962-34.064914s-7.569981-26.494933-15.139962-34.064913l-200.604489-151.399615c-11.354971-7.569981-30.279923-11.354971-41.634894-3.78499-15.139961 7.569981-22.709942 22.709942-22.709942 37.849904v302.799229c0 15.139961 7.569981 30.279923 22.709942 37.849904s30.279923 3.78499 41.634894-3.784991l200.604489-151.399614zM465.766959 515.448363v-230.884413l155.184605 117.334702-155.184605 113.549711z"  horiz-adv-x="1060" />

    
    <glyph glyph-name="shuju" unicode="&#59436;" d="M117.244 520.373l347.172-239.026c25.4-17.474 66.523-17.515 91.858-0.061l346.328 238.41c25.32 17.435 25.272 45.759-0.11 63.233L555.302 821.954c-25.4 17.475-66.522 17.515-91.86 0.061l-346.31-238.41c-25.337-17.433-25.288-45.757 0.112-63.232z m108.538 54.394L476.63 741.575c18.353 12.183 48.138 12.162 66.522-0.061l251.47-167.2c18.4-12.243 18.433-32.036 0.096-44.24L543.869 363.287c-18.353-12.205-48.138-12.183-66.537 0.04l-251.47 167.219c-18.4 12.224-18.432 32.037-0.08 44.22zM794.718 362.71L543.869 195.923c-18.353-12.203-48.138-12.182-66.537 0.04l-251.47 167.22c-5.73 3.807-9.678 8.349-11.844 13.168H99.304c2.346-8.549 8.32-16.724 17.94-23.342l347.172-239.024c25.4-17.475 66.523-17.516 91.858-0.062L902.6 352.332c9.852 6.783 15.844 15.217 18.017 24.018H806.703c-2.095-4.995-6.083-9.711-11.985-13.64z m0-168.017L543.869 27.905c-18.353-12.205-48.138-12.184-66.537 0.04l-251.47 167.22c-5.73 3.806-9.677 8.348-11.844 13.166H99.304c2.346-8.549 8.322-16.723 17.94-23.34l347.172-239.025c25.4-17.475 66.523-17.516 91.858-0.063L902.6 184.313c9.852 6.784 15.844 15.217 18.017 24.017H806.703c-2.096-4.995-6.083-9.71-11.985-13.637z"  horiz-adv-x="1024" />

    
    <glyph glyph-name="fuzhi2" unicode="&#59032;" d="M875.781112-127.98968H304.158654a100.621606 100.621606 0 0 0-100.334935 100.334935V645.736005A100.621606 100.621606 0 0 0 304.158654 746.357611h573.342486a100.621606 100.621606 0 0 0 100.334935-100.334935v-673.39075a100.621606 100.621606 0 0 0-102.054963-100.621606zM304.158654 689.023363a43.287358 43.287358 0 0 1-43.000687-43.000687v-673.39075A43.287358 43.287358 0 0 1 304.158654-70.655431h573.342486a43.287358 43.287358 0 0 1 43.000686 43.000686V645.736005a43.287358 43.287358 0 0 1-43.000686 43.000686zM74.82166 95.040547a28.667124 28.667124 0 0 0-28.667125 28.667124V794.231709A102.054962 102.054962 0 0 0 147.922827 896h569.615759a28.667124 28.667124 0 0 0 0-57.334249H147.922827A44.434043 44.434043 0 0 1 103.488784 794.231709v-670.524038a28.667124 28.667124 0 0 0-28.667124-28.667124z"  horiz-adv-x="1024" />

    
    <glyph glyph-name="rolling" unicode="&#59035;" d="M269.49128938 312.08362406000003c-10.03484344 0-16.72473844 3.3449475-23.41463438 10.0348425l-76.93379813 80.27874563-80.27874562-76.93379719c-13.37979094-13.37979094-33.44947781-13.37979094-46.82926781 0-13.37979094 13.37979094-13.37979094 33.44947781 0 46.82926781l103.69338 100.3484325c13.37979094 13.37979094 33.44947781 13.37979094 46.82926781 0l100.3484325-103.69338c13.37979094-13.37979094 13.37979094-33.44947781 0-46.82926875-6.68989594-6.68989594-13.37979094-10.03484344-23.41463438-10.0348425zM413.32404219-42.48083625000004c-3.3449475 0-10.03484344 0-13.37979094 3.3449475-190.66202063 76.93379813-301.04529656 284.32055719-264.25087125 491.70731719 3.3449475 16.72473844 20.06968687 30.10452937 40.13937281 26.75958187 16.72473844-3.3449475 30.10452937-20.06968687 26.75958188-40.13937281-30.10452937-173.93728219 63.55400719-351.21951187 220.76655-418.11846656 16.72473844-6.68989594 23.41463437-26.75958188 16.72473937-43.48432031-3.3449475-13.37979094-16.72473844-20.06968687-26.75958187-20.06968688zM848.16724719-96h-10.03484344L700.98954688-55.860627189999946c-16.72473844 3.3449475-26.75958188 23.41463437-23.41463438 40.13937282l36.79442531 140.48780531c3.3449475 16.72473844 23.41463437 26.75958188 40.13937281 23.41463344 16.72473844-3.3449475 26.75958188-23.41463437 23.41463438-40.13937282l-30.10452938-107.0383275 107.03832751-30.10452937c16.72473844-3.3449475 26.75958188-23.41463437 23.41463343-40.13937281 0-16.72473844-16.72473844-26.75958188-30.10452937-26.75958188zM707.67944281-55.860627189999946c-13.37979094 0-26.75958188 6.68989594-30.10453031 23.41463438-6.68989594 16.72473844 3.3449475 36.79442531 20.06968687 43.48432031 167.24738719 60.20905969 274.28571469 230.80139344 250.87108032 404.73867563-3.3449475 16.72473844 10.03484344 33.44947781 30.10452937 36.79442531 20.06968687 3.3449475 33.44947781-10.03484344 36.79442531-30.10452938 26.75958188-204.04181156-97.00348406-401.39372812-294.35540062-474.98257875-3.3449475-3.3449475-10.03484344-3.3449475-13.37979094-3.3449475zM697.64459937 619.81881562c-13.37979094 0-26.75958188 10.03484344-33.44947781 23.41463344-3.3449475 16.72473844 6.68989594 36.79442531 23.41463438 40.13937281l107.0383275 30.10453032-30.10452938 107.0383275c-3.3449475 16.72473844 6.68989594 36.79442531 23.41463438 40.13937281 16.72473844 3.3449475 36.79442531-6.68989594 40.13937281-23.41463437L868.23693406 700.09756125c3.3449475-16.72473844-6.68989594-36.79442531-23.41463437-40.13937281l-140.48780532-36.79442532c-3.3449475-3.3449475-6.68989594-3.3449475-6.689895-3.3449475zM834.78745625 656.61324c-6.68989594 0-13.37979094 3.3449475-20.06968594 6.68989594-140.48780531 113.72822344-341.18466937 120.41811844-474.98257875 13.37979093-16.72473844-13.37979094-36.79442531-10.03484344-50.17421625 3.3449475-10.03484344 16.72473844-6.68989594 36.79442531 6.68989594 46.82926875C456.8083625 853.96515656 694.29965188 847.27526156 854.85714312 716.82229969c13.37979094-10.03484344 16.72473844-33.44947781 3.34494751-46.82926875-3.3449475-10.03484344-13.37979094-13.37979094-23.41463438-13.37979094z"  horiz-adv-x="1052" />

    
    <glyph glyph-name="shouqi" unicode="&#59571;" d="M986.112 404.48c22.016-22.016 22.016-56.32 0-78.336-22.016-22.016-56.32-22.016-78.336 0L511.488 731.648l-394.752-405.504c-22.016-22.016-56.32-22.016-78.336 0-22.016 22.016-22.016 56.32 0 78.336l423.936 425.472c13.824 12.288 30.208 26.112 48.128 23.04 17.92 3.072 36.352-9.216 50.176-23.04L986.112 404.48zM986.112 10.24c22.016-22.016 22.016-56.32 0-78.336-22.016-22.016-56.32-22.016-78.336 0l-396.288 404.992-394.752-405.504c-22.016-22.016-56.32-22.016-78.336 0-22.016 22.016-22.016 56.32 0 78.336L462.336 435.2c13.824 12.288 30.208 26.112 48.128 23.04 17.92 3.072 36.352-9.216 50.176-23.04l425.472-424.96z"  horiz-adv-x="1024" />

    
    </font>
</defs>
</svg>
