<?xml version="1.0" standalone="no"?>
<!DOCTYPE svg PUBLIC "-//W3C//DTD SVG 1.1//EN" "http://www.w3.org/Graphics/SVG/1.1/DTD/svg11.dtd" >
<!--
2013-9-30: Created.
-->
<svg>
<metadata>
Created by iconfont
</metadata>
<defs>

<font id="iconfont" horiz-adv-x="1024" >
  <font-face
    font-family="iconfont"
    font-weight="500"
    font-stretch="normal"
    units-per-em="1024"
    ascent="896"
    descent="-128"
  />
    <missing-glyph />
    
    <glyph glyph-name="shoujihao" unicode="&#58927;" d="M802.304 844.8H339.6608c-46.08 0-83.4048-37.3248-83.4048-83.4048v-754.3296c0-46.08 37.376-83.4048 83.456-83.4048h462.592c46.08 0 83.456 37.3248 83.456 83.4048V761.3952c0.4096 46.08-37.376 83.4048-83.456 83.4048z m29.4912-838.1952a29.696 29.696 0 0 0-29.4912-29.4912H339.6608a29.696 29.696 0 0 0-29.4912 29.4912V761.3952a29.696 29.696 0 0 0 29.4912 29.4912h462.6432a29.696 29.696 0 0 0 29.4912-29.4912v-754.7904zM662.6816 705.5872H479.2832a23.552 23.552 0 0 1-23.5008-23.5008v-6.912a23.552 23.552 0 0 1 23.552-23.5008h183.3472a23.552 23.552 0 0 1 23.552 23.5008v6.912a23.552 23.552 0 0 1-23.552 23.5008z m-91.648-514.2016c-46.592 0-84.8384-37.7856-84.8384-84.7872 0-47.0016 37.7856-84.7872 84.7872-84.7872 47.0016 0 84.7872 37.7856 84.7872 84.7872 0 47.0016-38.2464 84.7872-84.7872 84.7872z m0-115.2a30.3616 30.3616 0 1 0-0.1024 60.7744 30.3616 30.3616 0 0 0 0.0512-60.7744z"  horiz-adv-x="1075" />

    
    <glyph glyph-name="yanzhengma" unicode="&#58923;" d="M166.144 742.4c-35.0208 0-63.3856-28.416-63.3856-63.4368v-551.2704c0-35.072 28.3648-63.3856 63.4368-63.3856H829.44c35.072 0 63.3856 28.3136 63.3856 63.3856V678.9632A63.488 63.488 0 0 1 829.4912 742.4H166.144z m351.5904-256.4608c-6.0416-4.864-10.1888-7.5264-15.3088-7.5264-3.3792 0-8.8064 2.56-16.1792 7.5264L250.4704 678.1952h497.152c-149.248-124.928-225.8944-188.9792-229.888-192.256z m-348.0576-353.28V653.1584l263.168-219.7504c18.0224-17.7664 41.6256-27.5968 66.9696-27.5968 25.7024 0 49.8688 10.1376 67.584 28.16l255.6416 219.0848v-520.3968H169.6768z"  horiz-adv-x="1024" />

    
    <glyph glyph-name="mima1" unicode="&#58925;" d="M771.0208-74.9568H200.8576a98.2528 98.2528 0 0 0-98.2016 98.1504v416.768c0 54.1696 44.032 98.2016 98.2016 98.2016h570.0608c54.1696 0 98.2016-44.032 98.2016-98.2016v-416.768a98.1504 98.1504 0 0 0-98.0992-98.1504zM200.8576 461.5168a21.6064 21.6064 0 0 1-21.5552-21.504v-416.768c0-11.8784 9.728-21.6064 21.504-21.6064h570.112c11.8784 0 21.5552 9.728 21.5552 21.5552v416.768a21.6064 21.6064 0 0 1-21.504 21.5552H200.8064zM677.5296 461.5168a38.3488 38.3488 0 0 0-38.4 38.4V614.8096A153.5488 153.5488 0 0 1 485.888 768.2048a153.4464 153.4464 0 0 1-153.2416-153.344v-114.9952a38.3488 38.3488 0 1 0-76.5952 0V614.912A230.144 230.144 0 0 0 485.888 844.8a230.144 230.144 0 0 0 229.9904-229.9392v-114.9952c0-21.1968-17.152-38.3488-38.4-38.3488zM485.888 116.6336a38.3488 38.3488 0 0 0-38.4 38.3488v153.344a38.3488 38.3488 0 1 0 76.7488 0v-153.344c0-21.1968-17.152-38.4-38.4-38.4z"  horiz-adv-x="1024" />

    
    <glyph glyph-name="yonghu2" unicode="&#58926;" d="M882.2272 98.6624a429.568 429.568 0 0 1-92.5696 137.216 431.4624 431.4624 0 0 1-137.216 92.6208l-1.4336 0.512A284.8256 284.8256 0 0 1 484.2496 844.8 284.8256 284.8256 0 0 1 317.44 329.0112l-1.3824-0.6144a427.7248 427.7248 0 0 1-137.216-92.5696 431.4624 431.4624 0 0 1-126.464-295.8848 9.216 9.216 0 0 1 9.1648-9.4208h68.9152a9.216 9.216 0 0 1 9.216 8.96 342.4256 342.4256 0 0 0 100.864 234.6496 342.3232 342.3232 0 0 0 243.712 100.9664c92.16 0 178.5856-35.84 243.712-100.9664a342.4256 342.4256 0 0 0 100.864-234.6496c0.1024-5.0688 4.1472-8.96 9.216-8.96h68.9152a9.216 9.216 0 0 1 9.216 9.4208 428.0832 428.0832 0 0 1-33.9456 158.72z m-397.9776 263.68A196.3008 196.3008 0 0 0 344.576 420.2496 196.3008 196.3008 0 0 0 286.72 559.9232c0 52.736 20.48 102.4 57.856 139.6736a196.3008 196.3008 0 0 0 139.6736 57.9072c52.736 0 102.3488-20.5824 139.6736-57.856 37.3248-37.376 57.856-86.9888 57.856-139.7248s-20.5312-102.3488-57.856-139.6736a196.3008 196.3008 0 0 0-139.6736-57.856z"  horiz-adv-x="1024" />

    
    <glyph glyph-name="chanpinguanli1" unicode="&#58907;" d="M500.608 345.941333c-39.68 0-72.704-32.426667-72.704-72.704 0-40.32 32.981333-72.106667 72.704-72.106666 39.68 0 72.661333 32.426667 72.661333 72.704 0 40.32-32.981333 72.106667-72.661333 72.106666zM843.264 582.912H686.933333A186.410667 186.410667 0 0 1 500.608 768a186.410667 186.410667 0 0 1-186.325333-185.088H157.909333A29.994667 29.994667 0 0 1 128 553.002667v-536.917334c0-16.512 13.44-29.952 29.909333-29.952h685.354667a29.994667 29.994667 0 0 1 29.952 29.952V552.96a29.994667 29.994667 0 0 1-29.952 29.909333zM416.298667 666.026667a118.272 118.272 0 0 0 84.309333 34.816c31.744 0 61.696-12.202667 84.266667-34.816 22.016-21.973333 34.816-51.925333 34.816-83.072H381.482667c0 31.146667 12.8 61.098667 34.816 83.072z m267.52-420.864a15.786667 15.786667 0 0 0-15.872-15.872h-45.184a121.045333 121.045333 0 0 0-20.778667-36.650667l22.016-38.485333c4.266667-7.936 1.834667-17.706667-6.101333-21.973334l-52.565334-30.549333a16 16 0 0 0-21.973333 6.101333l-21.973333 37.888c-14.08-2.432-28.714667-2.432-42.794667 0l-21.973333-37.888a16 16 0 0 0-21.973334-6.101333l-52.565333 30.549333a16 16 0 0 0-6.101333 21.973334l22.016 38.485333a135.466667 135.466667 0 0 0-20.778667 36.693333H332.629333a15.786667 15.786667 0 0 0-15.872 15.829334v60.501333a15.786667 15.786667 0 0 0 15.872 15.872h46.421334c4.864 12.8 11.605333 24.448 20.778666 34.816l-23.210666 40.32a16 16 0 0 0 6.101333 21.973333l52.522667 30.549334a16 16 0 0 0 21.973333-6.101334l23.850667-40.96c12.8 1.877333 26.24 1.877333 39.082666 0l23.808 40.96c4.266667 7.936 14.08 10.368 22.016 6.101334l52.48-30.549334c7.978667-4.266667 10.410667-14.08 6.144-21.973333l-23.210666-40.32c8.533333-10.368 15.274667-21.973333 20.778666-34.816h46.421334a15.786667 15.786667 0 0 0 15.872-15.872v-60.501333h-0.597334z"  horiz-adv-x="1024" />

    
    <glyph glyph-name="rizhiguanli" unicode="&#58909;" d="M807.210667 676.693333h-42.453334v-84.181333c0-34.432-28.629333-62.72-63.786666-62.72-35.2 0-63.829333 28.288-63.829334 62.72V676.693333H386.474667v-84.181333c0-34.432-28.629333-62.72-63.829334-62.72-35.157333 0-63.829333 28.288-63.829333 62.72V676.693333h-42.069333c-37.333333 0-67.456-29.781333-67.456-66.048v-523.306666c0-36.608 30.122667-66.005333 67.456-66.005334h590.421333c37.376 0 67.456 29.738667 67.456 66.005334V610.645333c0 36.266667-30.08 66.005333-67.456 66.005334z m-161.749334-444.288H312.533333a29.098667 29.098667 0 0 0-29.013333 29.013334c0 15.957333 13.056 29.013333 29.013333 29.013333h332.928c15.957333 0 29.013333-13.056 29.013334-29.013333 0-15.957333-13.056-29.013333-29.013334-29.013334z m67.456 135.637334H312.533333a29.098667 29.098667 0 0 0-29.013333 29.013333c0 15.957333 13.056 29.013333 29.013333 29.013333h400.384c15.957333 0 29.013333-13.056 29.013334-29.013333 0-15.957333-13.056-29.013333-29.013334-29.013333zM322.304 746.666667c-21.76 0-39.893333-17.408-39.893333-38.826667v-114.944c0.384-21.76 18.176-39.168 39.936-39.168s39.893333 17.408 39.893333 38.826667V707.84a39.338667 39.338667 0 0 1-39.936 38.784z m378.624 0a39.338667 39.338667 0 0 1-39.893333-38.826667v-114.944c0-21.76 18.133333-39.168 39.893333-39.168s39.893333 17.408 39.893333 38.826667V707.84a39.338667 39.338667 0 0 1-39.850666 38.784z"  horiz-adv-x="1024" />

    
    <glyph glyph-name="shebeiguanli" unicode="&#58910;" d="M864.938667 672H176.853333c-21.077333 0-38.186667-17.066667-38.186666-38.186667v-253.525333c0-21.077333 17.066667-38.186667 38.186666-38.186667H841.813333c21.077333 0 38.186667 17.109333 38.186667 38.186667V656.938667a15.061333 15.061333 0 0 1-15.061333 15.061333zM407.552 553.685333a34.474667 34.474667 0 0 0-34.474667-34.474666H249.429333a34.474667 34.474667 0 0 0-34.474666 34.474666v19.285334c0 19.029333 15.402667 34.432 34.474666 34.432h123.648c19.029333 0 34.432-15.402667 34.432-34.432v-19.285334z m441.301333-344.576H176.426667a34.474667 34.474667 0 0 0-34.432 34.474667v19.712c0 19.029333 15.402667 34.474667 34.432 34.474667h672.426666c19.029333 0 34.474667-15.445333 34.474667-34.474667v-19.712a34.432 34.432 0 0 0-34.474667-34.474667z m0-133.034666H176.426667a34.474667 34.474667 0 0 0-34.432 34.474666v19.754667c0 19.029333 15.402667 34.432 34.432 34.432h672.426666c19.029333 0 34.474667-15.402667 34.474667-34.432v-19.754667a34.432 34.432 0 0 0-34.474667-34.474666z"  horiz-adv-x="1024" />

    
    <glyph glyph-name="zhucehuiyuanguanli" unicode="&#58911;" d="M889.301333 504.704l-155.605333 197.674667c-16.469333 20.138667-40.277333 32.981333-65.92 32.981333H356.608c-25.642667 0-49.450667-11.008-65.92-32.981333L136.96 504.746667c-27.434667-32.981333-23.808-82.346667 3.669333-113.493334l313.002667-340.48 3.669333-3.669333c16.469333-14.634667 36.608-21.973333 56.746667-23.808h3.669333c21.973333 1.834667 43.946667 11.008 58.581334 27.477333l305.706666 338.645334c31.146667 32.938667 31.146667 82.346667 7.338667 115.328z m-186.752-89.728l-146.432-139.093333c-21.973333-20.138667-56.746667-20.138667-80.554666-1.834667l-3.626667 1.834667L320 416.810667a23.893333 23.893333 0 0 0 1.792 34.816c12.8 9.130667 29.312 9.130667 40.277333-1.834667l150.101334-139.136 146.474666 137.301333a32.938667 32.938667 0 0 0 40.277334 1.834667c12.8-7.338667 12.8-23.808 3.626666-34.816z"  horiz-adv-x="1024" />

    
    <glyph glyph-name="suanfaguanli" unicode="&#58912;" d="M407.296 329.813333c-11.562667-17.493333-21.205333-34.730667-28.586667-51.242666-16.085333-36.181333-19.114667-65.578667-7.765333-76.928 11.349333-11.306667 40.704-8.234667 76.885333 7.765333 16.469333 7.296 33.706667 16.938667 51.2 28.586667a664.32 664.32 0 0 0-48.213333 43.648c-15.616 15.616-30.250667 31.786667-43.52 48.170666z m157.696-91.818666c17.493333-11.562667 34.730667-21.205333 51.157333-28.586667 21.632-9.6 40.874667-14.506667 55.210667-14.506667 9.728 0 17.152 2.304 21.674667 6.741334 11.264 11.264 8.277333 40.746667-7.765334 76.928a358.314667 358.314667 0 0 1-28.586666 51.2c-13.354667-16.341333-27.904-32.426667-43.605334-48.128-15.616-15.701333-31.829333-30.293333-48.085333-43.648z m-86.314667 71.424c17.408-17.408 35.328-33.365333 53.333334-47.530667 18.005333 14.165333 35.968 30.122667 53.376 47.530667 17.408 17.365333 33.365333 35.285333 47.530666 53.248a609.066667 609.066667 0 0 1-47.530666 53.333333 608.298667 608.298667 0 0 1-53.248 47.530667 620.501333 620.501333 0 0 1-100.778667-100.778667c13.994667-17.962667 29.909333-35.968 47.36-53.333333z m20.352 178.090666a358.314667 358.314667 0 0 1-51.242666 28.586667c-21.632 9.6-40.917333 14.464-55.210667 14.464-9.728 0-17.194667-2.261333-21.717333-6.698667-11.264-11.264-8.234667-40.746667 7.765333-76.928 7.381333-16.512 17.024-33.706667 28.586667-51.157333 13.354667 16.256 27.946667 32.426667 43.52 48.170667 15.786667 15.616 31.914667 30.208 48.298666 43.52z m172.330667 43.050667c-14.421333 0-33.578667-4.949333-55.210667-14.506667a358.314667 358.314667 0 0 1-51.242666-28.586666 647.765333 647.765333 0 0 0 91.818666-91.818667c11.52 17.493333 21.205333 34.773333 28.586667 51.285333 16.085333 36.181333 19.072 65.578667 7.722667 76.928-4.522667 4.522667-11.946667 6.698667-21.674667 6.698667zM807.253333 724.693333H258.133333A87.466667 87.466667 0 0 1 170.88 637.44v-549.248a87.466667 87.466667 0 0 1 87.168-87.168h549.248a87.466667 87.466667 0 0 1 87.210667 87.168V637.482667a87.552 87.552 0 0 1-87.253334 87.210666z m-86.016-430.208c10.837333-24.448 16.810667-46.592 17.792-65.877333 1.365333-28.885333-9.045333-45.738667-18.133333-54.784-8.533333-8.448-23.893333-18.218667-49.706667-18.218667l-5.12 0.128c-19.242667 0.981333-41.386667 6.997333-65.877333 17.834667a408.618667 408.618667 0 0 0-68.266667 39.424 414.293333 414.293333 0 0 0-68.224-39.424c-24.448-10.837333-46.634667-16.853333-65.877333-17.834667l-5.12-0.042666c-25.728 0-41.088 9.813333-49.621333 18.261333-9.045333 9.088-19.498667 25.898667-18.133334 54.826667 0.981333 19.242667 6.954667 41.429333 17.834667 65.877333 9.813333 21.930667 23.125333 45.013333 39.424 68.181333a405.418667 405.418667 0 0 0-39.424 68.266667c-10.88 24.405333-16.853333 46.592-17.834667 65.877333-1.365333 28.885333 9.088 45.738667 18.133334 54.784 9.088 9.088 25.898667 19.498667 54.826666 18.133334 19.242667-0.981333 41.429333-6.954667 65.877334-17.792 21.930667-9.813333 45.013333-23.168 68.181333-39.424a415.573333 415.573333 0 0 0 68.309333 39.509333c24.448 10.837333 46.634667 16.810667 65.92 17.792 28.885333 1.365333 45.696-9.045333 54.784-18.133333 9.045333-9.045333 19.498667-25.898667 18.133334-54.784-0.981333-19.285333-6.954667-41.472-17.792-65.92a411.008 411.008 0 0 0-39.424-68.266667c16.085333-23.381333 29.525333-46.336 39.338666-68.394667z"  horiz-adv-x="1024" />

    
    <glyph glyph-name="yingyongguanli" unicode="&#58914;" d="M436.053333 349.866667H234.581333A63.829333 63.829333 0 0 1 170.666667 286.122667v-201.045334A63.786667 63.786667 0 0 1 234.624 21.333333h201.386667c35.242667 0 63.872 28.501333 64 63.744v201.045334a63.914667 63.914667 0 0 1-64 63.744z m0 375.466666H234.581333A63.829333 63.829333 0 0 1 170.666667 661.589333v-201.045333A63.786667 63.786667 0 0 1 234.624 396.8h201.386667c35.285333 0 63.872 28.501333 64 63.744V661.589333A63.914667 63.914667 0 0 1 435.968 725.333333zM810.666667 349.866667h-201.386667c-35.242667 0-63.872-28.501333-63.957333-63.744v-201.045334a63.914667 63.914667 0 0 1 64-63.744H810.666667a63.829333 63.829333 0 0 1 63.957333 63.744v201.045334a63.786667 63.786667 0 0 1-64 63.786666z m-73.898667 40.448l121.472 121.088a54.485333 54.485333 0 0 1 0 76.8l-121.472 121.173333a54.4 54.4 0 0 1-76.8 0l-121.472-121.173333a54.144 54.144 0 0 1 0-76.8l121.429333-121.088a54.357333 54.357333 0 0 1 76.842667 0z"  horiz-adv-x="1024" />

    
    <glyph glyph-name="yonghuquanxianguanli" unicode="&#58915;" d="M824.149333 693.12L507.733333 793.6 191.317333 693.12a28.373333 28.373333 0 0 1-19.84-27.306667v-400c0.64-2.688 15.573333-68.522667 80.213334-132.266666 49.792-49.066667 169.173333-112.085333 221.226666-139.434667 8.149333-4.266667 12.032-5.845333 15.445334-7.68l15.445333-7.765333a19.370667 19.370667 0 0 1 15.445333 0l15.445334 7.722666c30.464 14.933333 171.434667 90.453333 228.949333 147.114667 64.768 63.786667 79.701333 129.621333 80.341333 132.309333V665.770667a28.245333 28.245333 0 0 1-19.84 27.306666z m-310.869333-654.506667l-1.109333 0.554667h2.688c-1.024-0.554667-1.578667-0.554667-1.578667-0.554667z m73.813333 234.410667H535.893333v-71.978667a30.293333 30.293333 0 0 0-60.501333 0v185.728l0.085333 1.664a134.826667 134.826667 0 0 0-16.554666 6.144c-18.688 8.533333-34.645333 23.893333-45.312 41.301334a105.813333 105.813333 0 0 0-15.104 62.208c2.048 24.32 10.837333 45.482667 26.368 64.384 26.922667 32.64 76.373333 45.909333 116.053333 31.402666 22.442667-8.234667 40.704-22.016 54.442667-41.386666 12.117333-17.066667 18.261333-38.229333 18.773333-59.008 0-0.597333 0.128-1.109333 0-1.749334 0-0.725333 0-1.450667-0.085333-2.176-1.450667-46.122667-33.152-89.642667-78.250667-101.674666v-53.077334h51.114667a30.293333 30.293333 0 0 0 30.293333-30.293333v-1.237333h0.085333a30.293333 30.293333 0 0 0-30.293333-30.250667zM542.506667 480.896a85.589333 85.589333 0 0 1 5.632 9.6c1.365333 3.882667 2.432 7.722667 3.242666 11.818667l0.341334 6.058666c0 1.962667-0.128 4.053333-0.341334 6.058667a79.189333 79.189333 0 0 1-3.2 11.776 95.573333 95.573333 0 0 1-3.968 7.210667 27.050667 27.050667 0 0 0-2.304 3.328c-1.152 1.28-2.304 2.602667-3.541333 3.754666a63.018667 63.018667 0 0 1-5.76 4.992 85.461333 85.461333 0 0 1-8.533333 4.906667 92.885333 92.885333 0 0 1-11.690667 3.242667 80.896 80.896 0 0 1-12.202667 0 74.581333 74.581333 0 0 1-11.690666-3.242667 95.573333 95.573333 0 0 1-7.210667-3.968 27.050667 27.050667 0 0 0-3.328-2.261333c-1.28-1.152-2.602667-2.304-3.754667-3.541334a63.018667 63.018667 0 0 1-5.034666-5.76c-1.792-2.773333-3.413333-5.632-4.906667-8.533333-1.322667-3.84-2.389333-7.722667-3.2-11.690667-0.341333-4.096-0.341333-8.149333 0-12.245333 0.725333-3.925333 1.877333-7.893333 3.2-11.648 1.28-2.56 2.56-4.821333 3.968-7.253333a27.050667 27.050667 0 0 0 2.304-3.285334c1.152-1.28 2.304-2.645333 3.541333-3.754666a63.018667 63.018667 0 0 1 5.76-5.034667c2.688-1.749333 5.632-3.413333 8.533334-4.906667 3.84-1.365333 7.722667-2.389333 11.690666-3.242666 4.053333-0.298667 8.106667-0.298667 12.202667 0 3.968 0.725333 7.936 1.877333 11.690667 3.242666a95.573333 95.573333 0 0 1 7.210666 3.968 29.098667 29.098667 0 0 1 7.082667 5.76c1.493333 1.408 2.944 2.986667 4.266667 4.693334z"  horiz-adv-x="1024" />

    
    <glyph glyph-name="jihuomaguanli" unicode="&#58916;" d="M533.802667 539.050667a38.613333 38.613333 0 0 1-28.16 11.264 39.338667 39.338667 0 0 1-39.552-39.552 39.082667 39.082667 0 0 1 39.466666-39.466667c22.016 0 40.149333 18.176 39.552 39.594667a38.613333 38.613333 0 0 1-11.306666 28.16zM792.618667 746.666667H229.76C185.344 746.666667 149.333333 710.656 149.333333 666.24v-562.858667c0-44.416 36.010667-80.426667 80.426667-80.426666h562.858667c44.416 0 80.426667 36.010667 80.426666 80.426666V666.24c0 44.416-36.010667 80.426667-80.426666 80.426667z m-232.533334-372.821334a39.125333 39.125333 0 0 0 39.466667-39.466666 39.381333 39.381333 0 0 0-39.552-39.552h-9.557333v-19.584h9.557333a39.082667 39.082667 0 0 0 39.424-39.424 39.338667 39.338667 0 0 0-39.552-39.552h-9.557333v-9.6a39.338667 39.338667 0 0 0-39.552-39.552 39.125333 39.125333 0 0 0-39.466667 39.466666l0.256 205.013334c-45.738667 16.64-79.786667 60.202667-78.890667 112.213333a119.125333 119.125333 0 0 0 118.698667 118.698667c65.066667-1.365333 118.442667-54.741333 118.357333-119.637334a120.832 120.832 0 0 0-79.146666-112.384v-16.64h9.557333z"  horiz-adv-x="1024" />

    
    <glyph glyph-name="shujuzidian" unicode="&#58920;" d="M283.349333 137.813333h429.866667a129.92 129.92 0 0 1 129.450667 129.92v405.76A94.464 94.464 0 0 1 748.202667 768H275.797333A94.464 94.464 0 0 1 181.333333 673.536V106.666667c0-52.181333 42.282667-94.464 94.464-94.464h472.405334a94.464 94.464 0 0 1 85.973333 53.845333H283.306667a35.882667 35.882667 0 1 0 0 71.808z m28.842667 245.973334l123.733333 128a20.778667 20.778667 0 0 0 30.293334 0l102.954666-106.752 100.138667 111.488a14.165333 14.165333 0 0 0 18.432 2.858666c5.162667-4.266667 26.88-27.861333 31.616-32.597333 4.736-4.693333 4.736-10.410667-3.754667-19.370667 0 0-8.021333-8.96-9.472-9.941333l-122.794666-132.693333a20.309333 20.309333 0 0 0-29.781334 0l-102.485333 106.709333L353.28 332.8c-7.082667-7.125333-14.165333-15.146667-20.778667-8.064-6.613333 7.082667-19.84 21.290667-29.781333 35.413333-9.898667 14.208 0 15.146667 9.472 23.637334z"  horiz-adv-x="1024" />

    
    <glyph glyph-name="dingdanguanli" unicode="&#58921;" d="M662.016 697.045333a53.632 53.632 0 0 1-51.84 41.130667H409.258667a53.76 53.76 0 0 1-51.882667-41.130667h-113.493333c-29.482667 0-51.882667-24.149333-51.882667-53.632v-577.194666c0-29.44 23.210667-53.632 51.84-53.632h530.773333c29.44 0 54.485333 24.149333 54.485334 53.632V643.413333c0.896 29.482667-24.106667 53.632-53.589334 53.632h-113.493333z m-151.04-25.941333a42.922667 42.922667 0 1 0 0-85.76 42.922667 42.922667 0 0 0 0 85.76z m163.541333-444.074667c0-10.709333-8.96-19.669333-19.669333-19.669333H367.189333a19.882667 19.882667 0 0 0-19.712 19.669333v17.92c0 10.709333 8.96 19.669333 19.712 19.669334h287.658667c10.709333 0 19.669333-8.96 19.669333-19.669334v-17.92z m0 181.418667c0-10.709333-8.96-19.669333-19.669333-19.669333H367.189333a19.882667 19.882667 0 0 0-19.712 19.669333v17.92c0 10.709333 8.96 19.669333 19.712 19.669333h287.658667c10.709333 0 19.669333-8.96 19.669333-19.669333v-17.92z"  horiz-adv-x="1024" />

    
    <glyph glyph-name="shouye1" unicode="&#58922;" d="M556.16 731.477333a58.624 58.624 0 0 1-78.805333 0l-318.506667-302.506666a29.397333 29.397333 0 0 1 39.338667-43.605334l5.077333 4.778667v-315.648a58.752 58.752 0 0 1 58.752-58.88h171.050667v176.938667a41.386667 41.386667 0 0 0 41.386666 41.429333h80.469334a41.386667 41.386667 0 0 0 41.386666-41.386667v-176.981333h175.104a58.794667 58.794667 0 0 1 58.794667 58.88v311.808c13.056-11.818667 31.573333-10.922667 42.410667 1.194667a29.397333 29.397333 0 0 1-2.133334 41.514666l-314.325333 302.421334z"  horiz-adv-x="1024" />

    
    <glyph glyph-name="chanpinzhongxin1" unicode="&#58901;" d="M170.666667 563.456v-376.533333c0-29.866667 15.829333-65.066667 43.946666-77.397334 0 0 123.221333-51.029333 214.698667-89.728 5.290667-1.749333 10.538667-3.541333 15.829333-3.541333 24.618667 0 45.738667 21.12 45.738667 47.530667v309.674666c0 33.408-19.328 66.858667-45.738667 77.397334 1.749333 0-200.576 82.688-274.474666 112.64z m682.666666 0c-72.106667-29.866667-274.474667-112.597333-274.474666-112.597333-26.410667-10.538667-45.738667-43.946667-45.738667-77.397334v-309.674666c0-28.16 21.12-47.530667 45.738667-47.530667 5.290667 0 10.538667 1.792 15.829333 3.541333 91.477333 38.698667 214.656 89.728 214.656 89.728 29.909333 12.330667 43.989333 49.28 43.989333 77.397334V563.456zM512 725.333333c-19.370667 0-38.698667-3.498667-52.778667-8.789333L170.666667 600.405333l288.554666-116.096c14.08-5.290667 33.408-8.832 52.778667-8.832 19.370667 0 38.698667 3.541333 52.778667 8.832L853.333333 600.405333l-288.554666 116.138667A157.696 157.696 0 0 1 512 725.333333z"  horiz-adv-x="1024" />

    
    <glyph glyph-name="guanli2" unicode="&#58902;" d="M613.376 95.573333l-3.925333 1.706667-5.418667 3.114667a68.736 68.736 0 0 0-41.984 62.890666v27.648c0 19.498667 8.021333 36.992 20.821333 49.408 0 0 8.746667 9.216 12.117334 11.776 4.949333 3.456 18.517333 6.357333 18.517333 6.357334a67.968 67.968 0 0 0 24.874667 72.533333 239.189333 239.189333 0 0 1-127.146667 36.565333H368.512C235.904 367.573333 128 259.370667 128 126.549333v-14.336C128 42.666667 234.197333 42.666667 368.512 42.666667h142.72c38.485333 0 75.434667 0 108.330667 1.877333a68.693333 68.693333 0 0 0-6.186667 51.072m-180.608 290.389333c105.002667 0 190.421333 85.674667 190.421333 191.018667C623.189333 682.325333 537.770667 768 432.768 768a191.018667 191.018667 0 0 1 0-381.994667m443.221333-172.373333a36.650667 36.650667 0 0 0-34.432 36.352c0 5.888 1.365333 11.306667 4.053334 16.298667a22.784 22.784 0 0 1-9.045334 29.525333l-12.245333 7.253333-11.776 6.784a22.741333 22.741333 0 0 1-29.866667-6.826666 35.84 35.84 0 0 0-30.378666-16.298667 35.797333 35.797333 0 0 0-30.293334 16.341333 22.784 22.784 0 0 1-29.952 6.784l-12.629333-6.826666-11.818667-6.826667a22.741333 22.741333 0 0 1-9.045333-29.44 33.706667 33.706667 0 0 0 4.053333-16.341333c0-19.498667-14.933333-34.901333-34.389333-36.266667v-0.469333a22.4 22.4 0 0 1-20.864-22.698667v-27.648c0-11.776 9.514667-21.76 20.864-22.698667l0.426667-0.426666a35.968 35.968 0 0 0 29.952-52.650667 22.741333 22.741333 0 0 1 9.045333-29.482667l23.978667-14.08a22.656 22.656 0 0 1 29.909333 6.826667 35.754667 35.754667 0 0 0 30.336 16.341333c12.672 0 24.021333-6.826667 30.378667-16.341333 6.826667-9.514667 19.498667-13.184 29.866666-6.826667l24.021334 14.08a22.656 22.656 0 0 1 9.045333 29.013334s0 0.426667-0.426667 0.426666c-0.426667 0.512-0.426667 0.938667-0.896 1.408l-0.426666 0.426667a37.12 37.12 0 0 0-2.773334 14.08 36.266667 36.266667 0 0 0 33.962667 36.309333l0.426667 0.426667a22.4 22.4 0 0 1 20.906666 22.698667v28.586666c0.853333 11.776-8.661333 21.333333-19.968 22.186667M804.864 157.866667a59.733333 59.733333 0 0 0-9.941333-17.237334 57.045333 57.045333 0 0 0-43.093334-19.925333 56.832 56.832 0 0 0-56.618666 56.234667c0 6.826667 1.365333 13.141333 3.2 19.072a50.773333 50.773333 0 0 0 9.941333 17.194666c8.149333 9.984 19.968 16.768 33.536 19.072 3.157333 0.426667 6.357333 0.896 9.941333 0.896 3.669333 0 6.826667-0.426667 9.984-0.896 13.141333-2.261333 24.917333-9.514667 33.536-19.072 4.053333-4.992 7.68-10.88 9.941334-17.194666 2.304-5.973333 3.2-12.288 3.2-19.072 0-6.528-1.28-13.013333-3.626667-19.072"  horiz-adv-x="1024" />

    
    <glyph glyph-name="API2" unicode="&#58904;" d="M862.506667 225.408h-29.525334v142.848h-280.746666v71.424h83.712c34.474667 5.12 59.093333 35.712 54.186666 71.424V653.909333c4.906667 35.712-19.712 66.304-54.186666 71.424h-226.56c-34.474667-5.12-59.093333-35.712-54.186667-71.424V511.146667c-4.906667-35.712 19.712-66.346667 54.186667-71.424h83.712v-71.424h-280.746667v-142.848h-29.525333c-34.517333-5.12-59.136-35.712-54.186667-71.381334v-71.424c-4.949333-35.712 19.669333-66.346667 54.186667-71.424H296.106667c34.474667 5.12 59.093333 35.712 54.186666 71.424V154.026667c4.906667 35.669333-19.712 66.304-54.186666 71.381333h-24.618667v71.424h226.56v-71.424h-29.568c-34.474667-5.12-59.093333-35.712-54.186667-71.381333v-71.424c-4.906667-35.712 19.712-66.346667 54.186667-71.424h113.28c34.474667 5.12 59.136 35.712 54.186667 71.424V154.026667c4.949333 35.669333-19.712 66.304-54.186667 71.381333h-29.525333v71.424h226.56v-71.424h-29.568c-34.474667-5.12-59.093333-35.712-54.186667-71.381333v-71.424c-4.906667-35.712 19.712-66.346667 54.186667-71.424h113.28c34.517333 5.12 59.136 35.712 54.186666 71.424V154.026667c4.949333 35.669333-24.618667 66.304-54.186666 71.381333z"  horiz-adv-x="1024" />

    
    <glyph glyph-name="duoxuanxuanzhong" unicode="&#58913;" d="M0 896v-1024h1024V896z m467.382857-759.954286L228.937143 395.702857l54.125714 49.737143 186.514286-203.337143 345.234286 350.354286 52.662857-51.2z"  horiz-adv-x="1024" />

    
    <glyph glyph-name="zhifubao" unicode="&#58919;" d="M902.095 243.129l-250.96 84.392s19.287 28.87 39.874 85.472c20.59 56.606 23.539 87.689 23.539 87.689l-162.454 1.339v55.487l196.739 1.387v39.227H552.055v89.29h-96.358v-89.294H272.133v-39.227l183.564 1.304v-59.513h-147.24v-31.079h303.064s-3.337-25.223-14.955-56.606c-11.615-31.38-23.58-58.862-23.58-58.862s-142.3 49.804-217.285 49.804c-74.985 0-166.182-30.123-175.024-117.55-8.8-87.383 42.481-134.716 114.728-152.139 72.256-17.513 138.962 0.173 197.04 28.607 58.087 28.391 115.081 92.933 115.081 92.933l292.486-142.041c-11.932-69.3-72.067-119.914-142.387-119.844H266.37c-79.714-0.078-144.392 64.483-144.466 144.194V629.626c-0.074 79.72 64.493 144.399 144.205 144.47h491.519c79.714 0.073 144.396-64.49 144.466-144.203v-386.764z m-365.76 48.895s-91.302-115.262-198.879-115.262c-107.623 0-130.218 54.767-130.218 94.155 0 39.34 22.373 82.144 113.943 88.333 91.519 6.18 215.2-67.226 215.2-67.226h-0.047z"  horiz-adv-x="1024" />

    
    <glyph glyph-name="wode" unicode="&#58982;" d="M547.822368 387.888564 544.064788 396.80463 539.487539 393.064446ZM863.034447 533.407821c-19.316951 45.667086-46.962591 86.677105-82.172511 121.889071s-76.219939 62.860676-121.887025 82.178651c-47.294143 20.002566-97.518011 30.145577-149.280932 30.145577-51.762921 0-101.987812-10.143011-149.280932-30.145577-45.667086-19.317974-86.677105-46.965661-121.887025-82.178651s-62.857607-76.221985-82.172511-121.889071c-20.001543-47.292096-30.143531-97.512894-30.143531-149.270698 0-51.767014 10.141988-101.997022 30.143531-149.289118 19.314904-45.669132 46.962591-86.678128 82.172511-121.887025s76.219939-62.853513 121.887025-82.168418c47.294143-19.999496 97.518011-30.139437 149.280932-30.139437 51.762921 0 101.986789 10.139941 149.278885 30.139437 45.669132 19.314904 86.679152 46.959521 121.889071 82.168418s62.85556 76.217892 82.172511 121.887025c20.00052 47.292096 30.143531 97.522104 30.143531 149.289118C893.177977 435.894927 883.034966 486.115726 863.034447 533.407821zM509.693979 45.770695c-66.960041 0-130.938168 19.330254-185.590905 55.320956-0.039909 0.375553-0.090051 0.754177-0.149403 1.130753-1.528819 9.682523-2.303462 19.632129-2.303462 29.570479 0 103.966886 84.584444 188.55133 188.552354 188.55133 103.937211 0 188.500165-84.584444 188.500165-188.55133 0-10.128685-0.801249-20.201088-2.367931-30.016641C641.454886 65.341427 577.081763 45.770695 509.693979 45.770695zM510.203586 369.907027c-48.480154 0-87.922469 39.441291-87.922469 87.920422 0 48.463782 39.442314 87.891769 87.922469 87.891769 48.462758 0 87.890746-39.426965 87.890746-87.891769C598.094332 409.348318 558.666344 369.907027 510.203586 369.907027zM748.957295 144.861528c-1.740644-1.741667-3.50994-3.458775-5.284353-5.15951-1.964748 59.44181-26.022677 115.044176-68.27192 157.309792-24.563442 24.569582-53.633524 42.985-85.343737 54.493102 32.255635 24.297382 53.151547 62.913888 53.151547 106.322537 0 73.340355-59.665915 133.007293-133.00627 133.007293-73.358775 0-133.037992-59.666938-133.037992-133.007293 0-43.409672 20.902052-82.027202 53.16792-106.324584-31.714306-11.507078-60.788481-29.921473-85.356017-54.489008-42.479487-42.481534-66.578348-98.432847-68.329225-158.214395-2.094708 1.992377-4.168949 4.013407-6.219655 6.063089-63.908542 63.905472-99.103112 148.879795-99.103112 239.274572 0 90.37738 35.19457 175.348634 99.103112 239.258199 63.908542 63.912635 148.882865 99.111299 239.266385 99.111299 90.382497 0 175.35682-35.19764 239.263315-99.111299 63.908542-63.908542 99.105159-148.879795 99.105159-239.258199C848.062454 293.742347 812.86686 208.768023 748.957295 144.861528z"  horiz-adv-x="1024" />

    
    <glyph glyph-name="chanpin" unicode="&#59077;" d="M542.72 32.426667v414.72c0 8.533333 5.12 15.36 13.653333 18.773333l375.466667 129.706667c15.36 5.12 32.426667-1.706667 37.546667-17.066667 1.706667-3.413333 1.706667-6.826667 1.706666-10.24v-459.093333c0-11.946667-8.533333-23.893333-18.773333-27.306667l-380.586667-133.12c-10.24-3.413333-22.186667 1.706667-25.6 11.946667 0 1.706667-1.706667 5.12-1.706666 6.826666l-1.706667 64.853334z m-428.373333 655.36l387.413333 131.413333c5.12 3.413333 11.946667 3.413333 17.066667 0l368.64-121.173333c68.266667-27.306667 68.266667-32.426667 0-54.613334l-365.226667-121.173333c-5.12-1.706667-11.946667-1.706667-18.773333 0l-421.546667 139.946667c-8.533333 3.413333-8.533333 15.36 0 17.066666l32.426667 8.533334z m339.626666-738.986667l-382.293333 133.12c-11.946667 3.413333-18.773333 15.36-18.773333 27.306667v459.093333c0 20.48 20.48 34.133333 39.253333 27.306667l375.466667-129.706667c8.533333-3.413333 13.653333-10.24 13.653333-18.773333l1.706667-406.186667v-73.386667c0-10.24-10.24-20.48-20.48-18.773333-3.413333-1.706667-6.826667-1.706667-8.533334 0z"  horiz-adv-x="1024" />

    
    <glyph glyph-name="sousuo" unicode="&#59005;" d="M469.333333 40.8704c-211.626667 0-384 172.373333-384 384s172.373333 384 384 384 384-172.373333 384-384-172.373333-384-384-384z m0 704c-176.64 0-320-143.36-320-320s143.36-320 320-320 320 143.36 320 320-143.36 320-320 320zM707.84 194.4704c16.64 16.64 37.546667 10.666667 54.186667-5.973333l166.4-166.4c16.64-16.64 22.613333-37.546667 5.973333-54.186667s-34.56-7.68-51.2 8.96l-166.4 166.4c-16.64 16.64-25.6 34.56-8.96 51.2z"  horiz-adv-x="1024" />

    
    <glyph glyph-name="guanli1" unicode="&#58898;" d="M670.141217-33.302261l-5.38713 2.226087-7.524174 4.452174a94.920348 94.920348 0 0 0-57.922783 86.728348v38.199652c0 26.89113 11.041391 51.110957 28.761044 68.207304 0 0 12.02087 12.733217 16.695652 16.250435 6.811826 4.808348 25.6 8.770783 25.6 8.770783-10.24 36.953043 3.294609 77.378783 34.326261 100.129391a330.217739 330.217739 0 0 1-175.549217 50.487652H332.087652c-183.073391 0-332.04313-149.370435-332.04313-332.710956v-19.812174c0-95.944348 146.610087-95.944348 332.04313-95.944348h197.053218c53.114435 0 104.18087 0 149.593043 2.493217a94.831304 94.831304 0 0 0-8.592696 70.522435m-249.321739 400.918261c144.962783 0 262.856348 118.294261 262.856348 263.702261S565.782261 895.020522 420.819478 895.020522c-145.007304 0-263.123478-118.294261-263.123478-263.702261s118.116174-263.702261 263.123478-263.702261m611.906783-237.924174a50.576696 50.576696 0 0 0-47.549218 50.131478c0 8.147478 1.869913 15.62713 5.60974 22.528a31.432348 31.432348 0 0 1-12.466087 40.737392l-16.918261 10.017391-16.250435 9.349565a31.387826 31.387826 0 0 1-41.271652-9.349565 49.41913 49.41913 0 0 0-41.939478-22.572522 49.41913 49.41913 0 0 0-41.850435 22.572522 31.432348 31.432348 0 0 1-41.316174 9.349565l-17.452522-9.349565-16.250435-9.438609a31.387826 31.387826 0 0 1-12.466087-40.692869c3.695304-6.90087 5.565217-14.425043 5.565218-22.528 0-26.935652-20.613565-48.217043-47.549218-50.131479v-0.623304a30.898087 30.898087 0 0 1-28.761043-31.298783v-38.199652c0-16.294957 13.133913-30.052174 28.761043-31.298782l0.667826-0.623305c26.267826-1.29113 46.881391-23.151304 46.881392-50.131478 0-8.147478-1.869913-15.671652-5.609739-22.528a31.387826 31.387826 0 0 1 12.510608-40.737391l33.124174-19.411478a31.298783 31.298783 0 0 1 41.316174 9.438608 49.41913 49.41913 0 0 0 41.850435 22.528c17.541565 0 33.168696-9.394087 41.939478-22.528 9.349565-13.178435 26.89113-18.253913 41.271652-9.438608l33.124174 19.411478a31.298783 31.298783 0 0 1 12.466087 40.069565s0 0.623304-0.578782 0.623304c-0.623304 0.623304-0.623304 1.29113-1.246609 1.914435l-0.623304 0.623304a51.289043 51.289043 0 0 0-3.784348 19.411479c0 26.935652 20.702609 48.217043 46.925913 50.131478l0.623304 0.623304a30.942609 30.942609 0 0 1 28.805565 31.298783v39.446261c1.202087 16.294957-11.976348 29.42887-27.603478 30.72m-98.170435-77.067131c-3.116522-8.770783-8.147478-16.918261-13.712695-23.774608a78.803478 78.803478 0 0 0-59.481044-27.603479 78.447304 78.447304 0 0 0-59.392 27.558957 70.166261 70.166261 0 0 0-13.801739 23.81913 73.46087 73.46087 0 0 0-4.941913 26.267826c0 9.438609 1.869913 18.16487 4.36313 26.35687 3.116522 8.770783 7.524174 16.918261 13.80174 23.774609 11.219478 13.801739 27.469913 23.151304 46.258087 26.312348 4.36313 0.623304 8.726261 1.246609 13.712695 1.246608 5.030957 0 9.349565-0.623304 13.801739-1.246608 18.120348-3.116522 34.370783-13.133913 46.302609-26.267827 5.565217-6.90087 10.596174-15.048348 13.712696-23.81913 3.116522-8.147478 4.36313-16.918261 4.36313-26.312348 0-9.037913-1.691826-17.942261-4.986435-26.312348"  horiz-adv-x="1068" />

    
    <glyph glyph-name="fanhui-copy-copy" unicode="&#59057;" d="M760.49066666 333.82399999999996c-12.8 0-25.6 5.12-35.84000001 14.848l-415.74399999 411.648c-19.968 19.968-19.968 51.712-0.512 71.68s51.712 19.968 71.68 0.51199999l415.744-411.64799999a50.8416 50.8416 0 0 0 0.51199999-71.68c-9.216-10.75200001-22.528-15.36-35.83999999-15.36zM349.35466666-81.91999999999996c-12.8 0-25.6 5.12-35.84 14.848-19.968 19.968-19.968 51.712-0.512 71.68l411.648 415.744a50.8416 50.8416 0 0 0 71.68 0.512 50.8416 50.8416 0 0 0 0.512-71.67999999L385.19466666-66.56000000999995c-9.728-10.24-23.04-15.36-35.84-15.35999999z"  horiz-adv-x="1024" />

    
    <glyph glyph-name="guanbi1" unicode="&#58906;" d="M566.97558594 374.90332031L856.8828125 664.81054688c14.63378906 14.63378906 14.63378906 38.75976563 0 53.39355468l-1.58203125 1.58203125c-14.63378906 14.63378906-38.75976563 14.63378906-53.39355469 0L512 429.48339844 222.09277344 719.78613281c-14.63378906 14.63378906-38.75976563 14.63378906-53.39355469 0l-1.58203125-1.58203125c-15.02929688-14.63378906-15.02929688-38.75976563 0-53.39355469l289.90722656-289.90722656L167.1171875 84.99609375c-14.63378906-14.63378906-14.63378906-38.75976563 0-53.39355469l1.58203125-1.58203125c14.63378906-14.63378906 38.75976563-14.63378906 53.39355469 0L512 319.92773437000005 801.90722656 30.020507810000026c14.63378906-14.63378906 38.75976563-14.63378906 53.39355469 0l1.58203125 1.58203125c14.63378906 14.63378906 14.63378906 38.75976563 0 53.39355469L566.97558594 374.90332031z"  horiz-adv-x="1024" />

    
    <glyph glyph-name="chenggong" unicode="&#58899;" d="M512.697383 832.556039c-247.539816 0-448.208115-200.668299-448.208115-448.208115 0-247.539816 200.668299-448.208115 448.208115-448.208115 247.539816 0 448.208115 200.668299 448.208115 448.208115C960.905498 631.88774 760.237199 832.556039 512.697383 832.556039zM782.650675 509.675304 472.510102 192.815703c-1.057075-1.586125-2.233877-3.100618-3.620457-4.504594-12.155854-12.346189-31.861662-12.346189-44.025703 0L270.811334 344.734718c-12.146645 12.347213-12.146645 32.354895 0 44.683688 12.154831 12.347213 31.860638 12.347213 44.016493 0L446.411701 255.826805l292.213271 298.549583c12.165064 12.346189 31.861662 12.346189 44.025703 0C794.797319 542.0302 794.797319 522.02354 782.650675 509.675304z"  horiz-adv-x="1024" />

    
    <glyph glyph-name="zhuanzhang" unicode="&#59184;" d="M1030.827 893.61H337.92c-89.6 0-162.987-73.557-162.987-163.498v-692.224c0-89.941 73.387-163.499 162.987-163.499h692.907c89.6 0 162.986 73.558 162.986 163.499v6.144l0.171 159.232V730.112c0 89.941-73.387 163.499-163.157 163.499zM326.485 474.113C365.74 666.624 566.784 796.16 759.637 751.787c160.086-36.864 271.36-173.056 283.648-328.192 2.048-20.822-8.704-28.16-20.65-28.331-24.576-0.341-145.408 67.925-149.163 71.85-9.216 8.534-5.632 19.286 3.584 20.651 9.387 1.366 61.952 7.51 61.952 7.51-32.256 84.65-104.277 152.064-198.827 174.08-150.869 34.986-306.858-64.171-341.504-215.552-0.341-1.366-2.389-16.726-14.848-16.214-8.362 0.342-36.181 11.094-46.25 15.702-11.435 5.29-14.507 3.925-11.094 20.821z m451.072-121.003c15.872 0 28.672-12.629 28.672-28.16s-12.8-28.16-28.672-28.16h-57.344v-35.157c0-19.456-16.042-35.157-35.84-35.157s-35.84 15.701-35.84 35.157v35.157H591.19c-15.872 0-28.672 12.63-28.672 28.16s12.8 28.16 28.672 28.16h57.344v28.16H591.19c-15.872 0-28.672 12.63-28.672 28.16s12.8 28.16 28.672 28.16h57.344v1.878l-63.658 62.464c-11.264 11.093-11.264 29.013 0 40.106s29.525 11.094 40.96 0l58.197-57.173 58.368 57.173c11.264 11.094 29.525 11.094 40.96 0a28.025 28.025 0 0 0 0-40.106l-63.147-61.44v-2.902h57.344c15.872 0 28.672-12.629 28.672-28.16s-12.8-28.16-28.672-28.16h-57.344v-28.16h57.344z m268.459-31.914c-0.341-2.902-0.853-5.291-1.536-8.022-45.227-196.949-241.664-319.658-439.125-274.261-159.744 36.864-270.848 172.715-283.307 327.68-1.707 26.795 17.579 32.085 37.205 22.016 15.36-7.85 120.32-67.243 132.95-75.093 12.629-7.851 9.557-23.723-4.267-25.259-13.824-1.365-57.173-5.12-57.173-5.12 34.304-78.848 103.936-141.141 193.877-161.963 150.87-34.986 305.323 59.392 339.627 210.603 0.853 3.072 0.682 2.73 1.877 9.387 1.195 6.826 3.243 16.896 16.555 12.288 13.312-4.608 45.738-13.824 55.808-16.555 9.898-2.56 8.874-6.485 7.509-15.701z"  horiz-adv-x="1365" />

    
    <glyph glyph-name="bitian" unicode="&#59360;" d="M567.761-68.018V838.098c0 30.969-25.206 56.182-56.182 56.182-30.971 0-56.182-25.213-56.182-56.182v-907.557c0-30.969 25.211-56.182 56.182-56.182 30.976 1.441 56.182 26.652 56.182 57.623z m0 0M147.119 111.335l786.548 449.454c27.372 15.122 36.014 49.697 20.886 76.348-15.122 27.371-49.697 36.014-76.348 20.888L89.497 207.85c-27.37-15.128-36.014-49.702-20.886-76.348 17.286-26.651 51.136-36.014 78.508-20.167z m0 0M91.657 560.789l785.828-450.893c27.372-15.848 61.227-6.485 76.349 20.886 15.847 27.372 6.484 61.221-20.888 76.348L145.678 658.749c-27.372 15.843-61.226 6.48-76.348-20.892-13.689-27.372-5.045-61.22 22.327-77.068z m0 0"  horiz-adv-x="1024" />

    
    <glyph glyph-name="jian" unicode="&#59045;" d="M891.973 544.527c-20.775 49.106-50.505 93.207-88.369 131.071-37.864 37.87-81.963 67.599-131.074 88.37-50.86 21.51-104.871 32.42-160.525 32.42-55.664 0-109.674-10.91-160.534-32.42-49.104-20.77-93.205-50.5-131.07-88.37-37.869-37.864-67.598-81.965-88.369-131.07-21.512-50.861-32.42-104.87-32.42-160.532 0-55.66 10.908-109.67 32.42-160.527 20.77-49.106 50.5-93.212 88.369-131.07 37.865-37.868 81.967-67.598 131.07-88.375 50.86-21.509 104.871-32.412 160.534-32.412 55.655 0 109.666 10.903 160.525 32.412 49.11 20.777 93.212 50.506 131.074 88.376 37.866 37.858 67.595 81.963 88.369 131.069 21.511 50.857 32.414 104.866 32.414 160.527 0.001 55.66-10.903 109.67-32.414 160.531z m-128.674-411.83c-67.126-67.126-156.369-104.09-251.296-104.09-94.935 0-184.179 36.963-251.304 104.09-67.127 67.127-104.09 156.37-104.09 251.299 0 94.933 36.962 184.178 104.09 251.303 67.126 67.126 156.369 104.091 251.304 104.091 94.927 0 184.17-36.966 251.296-104.09S867.39 478.928 867.39 383.995c0-94.93-36.964-184.172-104.09-251.299zM741.797 415.764H282.204c-13.22 0-23.936-14.346-23.936-32.05 0-17.706 10.715-32.05 23.936-32.05h459.593c13.215 0 23.934 14.346 23.934 32.05s-10.714 32.05-23.934 32.05z"  horiz-adv-x="1024" />

    
    <glyph glyph-name="guanbi11" unicode="&#59554;" d="M512 896c-282.77 0-512-229.23-512-512s229.23-512 512-512 512 229.23 512 512S794.77 896 512 896zM720.714 226.998c14.286-14.286 14.286-37.429 0-51.714-7.143-7.143-16.5-10.714-25.857-10.714-9.357 0-18.714 3.571-25.857 10.714l-157 157-157-157c-7.143-7.143-16.5-10.714-25.857-10.714-9.357 0-18.714 3.571-25.857 10.714-14.286 14.286-14.286 37.429 0 51.714l157 157-157 157c-14.286 14.286-14.286 37.429 0 51.714 14.286 14.286 37.429 14.286 51.714 0l157-157 157 157c14.286 14.286 37.429 14.286 51.714 0 14.286-14.286 14.286-37.429 0-51.714l-157-157L720.714 226.998z"  horiz-adv-x="1024" />

    
    <glyph glyph-name="riqi" unicode="&#58936;" d="M682.325333 640H338.261333v-91.392a41.130667 41.130667 0 0 0-82.261333 0V640H82.261333v-214.869333h859.477334V640H764.586667v-91.392a41.130667 41.130667 0 1 0-82.261334 0V640z m82.261334 82.261333h177.152c45.397333 0 82.261333-36.778667 82.261333-82.261333v-685.738667a82.261333 82.261333 0 0 0-82.261333-82.261333H82.261333A82.261333 82.261333 0 0 0 0-45.738667V640c0 45.482667 36.864 82.261333 82.261333 82.261333H256V854.869333a41.130667 41.130667 0 0 0 82.261333 0v-132.608h344.064V854.869333a41.130667 41.130667 0 1 0 82.261334 0v-132.608z m-682.325334-768h859.477334V342.869333H82.261333v-388.608z m194.304 235.52h123.392a41.130667 41.130667 0 0 0 0-82.346666H276.565333a41.130667 41.130667 0 1 0 0 82.261333z m347.477334 0h123.392a41.130667 41.130667 0 0 0 0-82.346666H624.042667a41.130667 41.130667 0 0 0 0 82.261333z"  horiz-adv-x="1024" />

    
    <glyph glyph-name="paixushang" unicode="&#58939;" d="M914.285714 310.857143l-401.554285-438.857143-402.285715 438.857143M914.285714 457.142857L512.731429 896 110.445714 457.142857"  horiz-adv-x="1024" />

    
    <glyph glyph-name="xingzhuang6kaobei31" unicode="&#58886;" d="M512 865.882353c265.035294 0 481.882353-216.847059 481.882353-481.882353s-216.847059-481.882353-481.882353-481.882353-481.882353 216.847059-481.882353 481.882353 216.847059 481.882353 481.882353 481.882353zM512-128c-283.105882 0-512 228.894118-512 512s228.894118 512 512 512 512-228.894118 512-512-228.894118-512-512-512z m0 963.764706c-246.964706 0-451.764706-204.8-451.764706-451.764706s204.8-451.764706 451.764706-451.764706c252.988235 0 451.764706 204.8 451.764706 451.764706s-198.776471 451.764706-451.764706 451.764706z"  horiz-adv-x="1024" />

    
    <glyph glyph-name="iconfontoptionbutton" unicode="&#58908;" d="M512 810.666667c-235.642667 0-426.666667-191.026667-426.666667-426.666667s191.024-426.666667 426.666667-426.666667c235.64 0 426.666667 191.026667 426.666667 426.666667S747.64 810.666667 512 810.666667zM512 0c-212.08 0-384 171.925333-384 384 0 212.077333 171.92 384 384 384 212.074667 0 384-171.922667 384-384C896 171.92533300000002 724.074667 0 512 0zM512 384m-234.666667 0a88 88 0 1 1 469.333333 0 88 88 0 1 1-469.333333 0Z"  horiz-adv-x="1024" />

    
    <glyph glyph-name="jinggao" unicode="&#58887;" d="M512-85.333333C252.8-85.333333 42.666667 124.8 42.666667 384S252.8 853.333333 512 853.333333s469.333333-210.133333 469.333333-469.333333-210.133333-469.333333-469.333333-469.333333z m32 426.666666V597.333333a32 32 0 1 1-64 0v-256a32 32 0 1 1 64 0zM512 170.666667a42.666667 42.666667 0 1 1 0 85.333333 42.666667 42.666667 0 0 1 0-85.333333z"  horiz-adv-x="1024" />

    
    <glyph glyph-name="guanbi2" unicode="&#58893;" d="M512 896C229.312 896 0 666.688 0 384s229.312-512 512-512 512 229.312 512 512S794.688 896 512 896z m210.912-713.28c-10.496-10.528-29.76-10.528-40.256 0l-161.024 161.024-161.056-161.056c-10.496-10.496-29.76-10.496-40.256 0-10.496 10.528-10.496 29.76 0 40.288L481.376 384l-161.056 161.024c-10.496 10.528-10.496 29.76 0 40.288 10.496 10.496 29.76 10.496 40.256 0l161.056-160.192 160.16 160.192c11.392 10.496 29.76 10.496 40.256 0 10.496-10.528 10.496-29.76 0-40.288L561.92 384l161.024-161.024c10.528-10.528 10.528-29.76 0-40.288z"  horiz-adv-x="1024" />

    
    <glyph glyph-name="guanbi3" unicode="&#58903;" d="M597.889 383.82L942.16 728.094c22.926 24.109 22.926 61.959 0 86.068-24.11 22.926-61.96 22.926-86.069 0L511.82 469.89 179.178 802.262c-23.4 22.188-60.072 22.188-83.473 0-22.177-23.371-22.177-60.013 0-83.384l332.641-332.462L81.838 39.908c-22.926-24.109-22.926-61.959 0-86.068 24.11-22.926 61.96-22.926 86.069 0l346.507 346.508 332.552-332.283c23.401-22.188 60.073-22.188 83.474 0 22.233 23.382 22.233 60.09 0 83.473L597.889 383.821z"  horiz-adv-x="1024" />

    
    <glyph glyph-name="yingyongruanjian" unicode="&#58885;" d="M980.829888 603.282355c-25.34369 32.652815-58.156484 59.67198-94.87757 78.131434-38.632227 19.37632-80.248999 29.196936-123.699503 29.196936-73.803414 0-143.173874-28.723881-195.337186-80.880312-50.432791-50.522242-78.979492-117.021691-80.86655-187.983336l-0.103212 0c-52.526273 0-101.959629-20.558097-139.184733-57.889854-37.331756-37.331756-57.895014-86.761672-57.895014-139.184733 0-52.521113 20.563258-101.959629 57.895014-139.193334 37.323155-37.333477 86.751351-57.889854 139.184733-57.889854l198.681253 0c17.356807 0 31.471039 14.114232 31.471039 31.471039 0 17.346486-14.115952 31.462438-31.471039 31.462438L485.945867 110.522779c-35.658003 0-69.301653 13.997258-94.724473 39.420078s-39.421798 59.07335-39.421798 94.729633c0 35.658003 13.997258 69.296492 39.421798 94.729633 25.417659 25.414219 59.057869 39.411477 94.724473 39.411477l32.594329 0c8.776455 0 17.262196 3.763795 23.360301 10.391722 5.96909 6.638248 8.876226 15.445666 7.974842 24.04494-0.660556 7.278162-0.995995 14.341298-0.995995 20.960624 0 56.99363 22.197447 110.569225 62.499987 150.868324 40.307701 40.307701 93.888456 62.510308 150.873485 62.510308 33.588604 0 65.720199-7.575756 95.498562-22.507082 28.477893-14.341298 53.811262-35.205591 73.277033-60.342857 5.988012-7.761537 15.072383-12.223733 24.901599-12.223733 7.033893 0 13.692783 2.275823 19.267948 6.56944 6.65889 5.131353 10.914662 12.569493 11.977745 20.922779C988.226744 588.349308 985.990485 596.604542 980.829888 603.282355zM941.053729 467.348797l170.647171 0 0-170.63685-170.647171 0 0 170.63685ZM749.75213 252.415105l170.63513 0 0-170.63513-170.63513 0 0 170.63513ZM972.664104 240.60594l0-170.63685 170.63685 0 0 170.63685L972.664104 240.60594zM1101.968015 111.300309l-87.974412 0 0 87.974412 87.974412 0L1101.968015 111.300309zM725.411316 468.128047l0-170.63685 170.645451 0 0 170.63685L725.411316 468.128047zM854.725548 338.822416l-87.981293 0 0 87.974412 87.981293 0L854.725548 338.822416z"  horiz-adv-x="1449" />

    
    <glyph glyph-name="SDK" unicode="&#58971;" d="M932.266667-128H259.84a106.922667 106.922667 0 0 0-90.453333 93.866667V810.666667A89.813333 89.813333 0 0 0 248.746667 896h458.24l315.733333-327.253333v-605.866667A106.666667 106.666667 0 0 0 932.266667-128z m0 696.746667h-178.346667a50.773333 50.773333 0 0 0-43.946667 45.653333V802.133333H303.786667a44.288 44.288 0 0 1-43.946667-45.653333V512H169.386667v-384h90.453333v-116.48a57.045333 57.045333 0 0 1 43.946667-45.653333h584.533333a48.085333 48.085333 0 0 1 43.946667 45.653333V568.746667zM235.946667 400.64l-4.693334 21.76a59.392 59.392 0 0 1-10.666666 23.466667 82.858667 82.858667 0 0 1-20.48 20.053333 93.141333 93.141333 0 0 1-24.746667 11.52 189.184 189.184 0 0 1-54.186667 8.106667 208 208 0 0 1-38.826666-3.413334 136.106667 136.106667 0 0 1-35.84-11.093333 82.346667 82.346667 0 0 1-44.373334-72.533333 85.717333 85.717333 0 0 1 1.28-21.333334 69.76 69.76 0 0 1 6.826667-20.053333 54.186667 54.186667 0 0 1 15.786667-19.2 64 64 0 0 1 25.173333-12.8c9.386667-2.56 20.48-4.693333 32.853333-7.253333l44.373334-8.96c10.24-2.133333 17.493333-3.84 23.04-5.12a88.106667 88.106667 0 0 0 14.506666-6.4 27.178667 27.178667 0 0 0 9.386667-8.96 35.029333 35.029333 0 0 0 3.413333-12.8 30.378667 30.378667 0 0 0-3.413333-14.506667 27.136 27.136 0 0 0-13.226667-9.386667 81.066667 81.066667 0 0 0-25.173333-2.986666 146.474667 146.474667 0 0 0-35.84 2.56 42.026667 42.026667 0 0 0-20.48 10.666666 29.866667 29.866667 0 0 0-7.68 13.653334 75.648 75.648 0 0 0-2.133333 13.653333H4.266667l3.413333-18.773333a83.114667 83.114667 0 0 1 13.653333-35.413334 89.6 89.6 0 0 1 24.32-24.746666 117.802667 117.802667 0 0 1 26.453334-13.226667 136.832 136.832 0 0 1 29.44-6.4c11.093333-0.853333 22.186667-1.706667 32.853333-1.706667a192.213333 192.213333 0 0 1 37.12 2.986667 94.378667 94.378667 0 0 1 31.573333 13.226667 83.370667 83.370667 0 0 1 39.253334 69.973333 82.944 82.944 0 0 1-6.4 35.413333 75.178667 75.178667 0 0 1-19.2 27.306667 86.698667 86.698667 0 0 1-30.293334 16.64 346.282667 346.282667 0 0 1-34.56 9.386667l-30.72 5.12a265.472 265.472 0 0 0-26.026666 5.973333 59.733333 59.733333 0 0 0-19.626667 8.96 20.650667 20.650667 0 0 0-7.68 16.64 19.456 19.456 0 0 0 6.4 15.786667 36.949333 36.949333 0 0 0 19.2 9.386666 137.813333 137.813333 0 0 0 28.16 2.56 81.706667 81.706667 0 0 0 26.88-3.84 50.389333 50.389333 0 0 0 12.8-6.4 15.744 15.744 0 0 0 5.546667-8.533333c0.853333-2.986667 1.28-5.973333 2.133333-8.96H235.946667z m84.906666-208.64h126.72a206.336 206.336 0 0 1 38.826667 3.84 102.4 102.4 0 0 1 36.693333 13.653333 97.664 97.664 0 0 1 28.586667 29.013334 134.869333 134.869333 0 0 1 18.773333 45.653333 211.114667 211.114667 0 0 1 5.546667 53.333333 240.554667 240.554667 0 0 1-5.12 51.626667 138.197333 138.197333 0 0 1-15.36 40.533333 99.712 99.712 0 0 1-25.6 29.44 130.432 130.432 0 0 1-30.293333 17.066667 149.674667 149.674667 0 0 1-28.16 6.826667 189.952 189.952 0 0 1-26.026667 1.706666H320.853333v-292.693333z m114.346667 231.68a116.394667 116.394667 0 0 0 32.426667-3.84 45.738667 45.738667 0 0 0 23.04-13.653333 68.650667 68.650667 0 0 0 14.933333-24.746667 116.053333 116.053333 0 0 0 5.973333-37.973333 193.024 193.024 0 0 0-2.56-31.573334 79.018667 79.018667 0 0 0-9.813333-28.16 50.944 50.944 0 0 0-18.346667-19.626666 59.733333 59.733333 0 0 0-24.32-8.96 170.666667 170.666667 0 0 0-23.893333-2.133334H384.853333v170.666667h50.346667z m280.746667 61.013333h-63.146667v-293.12h63.146667v83.626667l35.84 37.12 76.373333-121.173333h74.666667l-109.226667 171.093333 93.013333 122.453333h-75.093333l-95.573333-118.613333V484.693333z"  horiz-adv-x="1024" />

    
    <glyph glyph-name="tianjia" unicode="&#58968;" d="M1024 446.464H572V896h-120v-449.536H0v-120h452V-128h120V326.464H1024z m0 0"  horiz-adv-x="1024" />

    
    <glyph glyph-name="shanchufujian" unicode="&#58999;" d="M600.576 384L1005.568-20.992a62.464 62.464 0 1 0-88.4736-88.4736L512 295.424 106.8032-109.6704a62.464 62.464 0 1 0-88.3712 88.4736L423.3216 384 18.432 789.0944A62.464 62.464 0 1 0 106.8032 877.568L512 472.4736 917.1968 877.6704A62.0544 62.0544 0 0 0 961.536 896a62.464 62.464 0 0 0 44.2368-106.7008L600.576 384z"  horiz-adv-x="1024" />

    
    <glyph glyph-name="yonghu11" unicode="&#59013;" d="M266.24 628.48C266.24 493.44 377.408 384 514.56 384s248.32 109.44 248.32 244.48S651.712 872.96 514.56 872.96 266.24 763.52 266.24 628.48zM628.48 302.72H421.76a320 320 0 0 1-320-315.52v-20.48c0-71.04 143.36-71.04 320-71.04h206.72c177.28 0 320 0 320 71.04v20.48a320 320 0 0 1-320 315.52z"  horiz-adv-x="1024" />

    
    <glyph glyph-name="mima" unicode="&#59014;" d="M927.36 799.36a324.672 324.672 0 0 1-522.56-369.6l-403.2-403.072 7.552-145.536 145.472-7.552 58.56 58.56c-0.128 0-76.48 76.544-51.008 102.016 25.472 25.472 101.76-50.816 102.016-51.008l51.008 51.008c-0.256 0.32-76.48 76.544-51.008 102.016 25.472 25.472 102.016-51.008 102.016-51.008l-4.288-4.288 55.296 55.296c-0.448 0.448-76.48 76.608-51.008 102.016 25.472 25.536 102.016-51.008 102.016-51.008l-18.56-18.56 108.16 108.16a324.736 324.736 0 0 1 369.472 522.496z m-153.088-306.112a108.16 108.16 0 1 0-152.96 152.896 108.16 108.16 0 0 0 152.96-152.896z"  horiz-adv-x="1024" />

    
    <glyph glyph-name="quanxianguanli_jyxd" unicode="&#58994;" d="M580.316628 321.144106c-31.670258 34.395129-51.346885 84.064325-51.346886 138.734614 0 102.276097 68.862201 187.048868 156.281905 187.048868s156.279906-84.772771 156.279906-187.048868c0-54.557377-19.594692-104.134645-51.150039-138.52178 66.147322-17.911007 120.130148-54.317564 161.950477-109.218673 9.246776-12.140515 14.223888-26.741109 14.223887-41.7274v-31.7452c0-29.476971-25.145355-53.371304-56.163122-53.371303H461.085777c-31.017767 0-56.163123 23.896331-56.163123 53.372303v31.745199c0 14.986292 4.978111 29.587884 14.224887 41.7274 41.654457 54.686276 95.377486 91.021889 161.168087 109.006839zM896.950258 646.19516h-62.479189c2.324184 27.496518 4.004871 55.737455 5.042061 84.726807-137.464606-12.76203-234.440843 13.638345-372.56893 92.695582-138.124091-79.058236-235.101327-105.457611-372.565933-92.695582C107.995628 350.166432 232.728181 98.448087 466.946198-32.599532c45.70929 25.57502 87.248837 55.745449 124.606651 90.575238v-82.271725c-38.050273-30.051522-79.585824-56.359969-124.606651-78.923341C176.199344 42.500796 30.825917 344.347978 30.825917 802.323185c186.907978-31.225605 280.362966 0 436.119282 93.676815 155.758314-93.676815 249.212303-124.90242 436.12128-93.676815 0-54.232631-2.038407-106.274973-6.115222-156.128025zM685.251647 335.180141c51.786542 0 93.766745 55.829383 93.766745 124.698579 0 68.870195-41.980203 124.699578-93.766745 124.699578s-93.768743-55.829383-93.768743-124.699578c0-68.869196 41.981202-124.698579 93.768743-124.698579zM467.326901 182.237627v-22.22064c0-6.877627 7.521124-12.45427 16.800874-12.45427h403.223981c9.278751 0 16.800874 5.575644 16.800875 12.45427V182.237627c0 5.243903-2.234254 10.355909-6.383014 14.603591-49.210554 50.392631-118.741233 75.259204-212.030351 75.259204-17.592256 0-34.341171-0.885308-50.267728-2.657924-68.523466-7.630039-121.831819-31.711226-161.761624-72.600281-4.149758-4.247681-6.385012-9.359688-6.385012-14.60459z"  horiz-adv-x="1024" />

    
    <glyph glyph-name="huiyuan" unicode="&#58924;" d="M528.516 301.42v-132.13H198.194s-1.685 42.777 0 99.097c1.684 56.32 132.129 99.097 132.129 99.097s28.21 0.43 61.34 0.528c-70.722 2.874-127.405 67.849-127.405 148.117 0 82.085 59.16 148.645 132.13 148.645 72.967 0 132.128-66.56 132.128-148.645 0-80.202-56.551-145.078-127.174-148.084 21.108 0.033 43.338-0.099 61.11-0.561 49.086-1.255 66.064-66.065 66.064-66.065z m473.385-66.065h-69.896c16.483 46.575 25.93 96.454 25.93 148.645C957.935 630.289 758.29 829.935 512 829.935 265.711 829.935 66.065 630.29 66.065 384c0-246.289 199.646-445.935 445.935-445.935 40.068 0 78.683 5.78 115.613 15.69v-68.146C590.419-123.012 551.837-128 512-128 229.244-128 0 101.244 0 384 0 666.79 229.244 896 512 896s512-229.21 512-512c0-51.729-7.829-101.574-22.099-148.645zM561.548 367.484v33.032h132.13v-33.032h-132.13z m0 231.226h297.29v-33.033h-297.29V598.71z m297.29-132.13h-297.29v33.033h297.29v-33.032zM809.29 235.356c100.352 0 181.678-81.326 181.678-181.678S909.642-128 809.29-128s-181.677 81.325-181.677 181.677c0 100.352 81.325 181.678 181.677 181.678z m-31.017-289.627l23.354 23.387-5.153 5.12 130.84 116.472-21.966 24.675-132.261-117.76-64.908 64.908-23.354-23.354 93.448-93.448z"  horiz-adv-x="1024" />

    
    <glyph glyph-name="menu" unicode="&#58890;" d="M832.2 631.4H192.3c-35.2 0-64 28.8-64 64s28.8 64 64 64h639.8c35.2 0 64-28.8 64-64 0.1-35.2-28.7-64-63.9-64zM832.2 318.1H196.1c-35.2 0-64 28.8-64 64s28.8 64 64 64h636.1c35.2 0 64-28.8 64-64s-28.8-64-64-64zM832.2-0.8999999999999773H192.3c-35.2 0-64 28.8-64 64s28.8 64 64 64h639.8c35.2 0 64-28.8 64-64 0.1-35.2-28.7-64-63.9-64z"  horiz-adv-x="1024" />

    
    <glyph glyph-name="huiyuanxinxi" unicode="&#58882;" d="M1057.928533 896H171.076267C76.5952 896 0 817.7664 0 721.7152v-634.4704C0-8.8064 76.8-87.04 171.076267-87.04h886.647466c94.481067 0 171.076267 78.2336 171.076267 174.2848V721.5104C1229.0048 817.7664 1152.2048 896 1057.928533 896z m102.8096-808.96c0-57.7536-46.08-104.721067-102.8096-104.721067H171.076267c-56.661333 0-102.8096 46.967467-102.8096 104.721067V721.5104c0 57.821867 46.08 104.721067 102.8096 104.721067h886.647466c56.661333 0 102.8096-46.8992 102.8096-104.721067v-634.4704h0.2048zM491.042133 379.426133A174.353067 174.353067 0 0 1 559.104 517.802667C559.104 613.376 483.396267 691.2 390.485333 691.2 297.506133 691.2 221.866667 613.376 221.866667 517.802667c0-56.661333 26.965333-106.769067 67.9936-138.376534C192.034133 343.04 122.88 254.976 122.88 152.439467c0-19.114667 15.1552-34.679467 33.723733-34.679467a34.338133 34.338133 0 0 1 33.723734 34.679467c0 96.938667 89.770667 175.7184 200.0896 175.7184 110.3872 0 200.157867-78.779733 200.157866-175.7184 0-19.114667 15.1552-34.679467 33.723734-34.679467a34.338133 34.338133 0 0 1 33.723733 34.679467c0 102.536533-69.154133 190.600533-166.980267 226.986666zM390.485333 621.7728c55.842133 0 101.1712-46.557867 101.1712-103.970133 0-57.412267-45.329067-104.106667-101.1712-104.106667S289.245867 460.458667 289.245867 517.802667c0 57.344 45.329067 104.0384 101.1712 104.0384z m640.8192-122.4704h-269.789866a34.338133 34.338133 0 0 1-33.723734-34.679467c0-19.114667 15.1552-34.679467 33.723734-34.679466h269.789866a34.338133 34.338133 0 0 1 33.723734 34.679466 34.338133 34.338133 0 0 1-33.723734 34.679467z m0-208.145067h-269.789866a34.338133 34.338133 0 0 1-33.723734-34.679466c0-19.114667 15.1552-34.679467 33.723734-34.679467h269.789866a34.338133 34.338133 0 0 1 33.723734 34.679467 34.338133 34.338133 0 0 1-33.723734 34.679466z"  horiz-adv-x="1228" />

    
    <glyph glyph-name="xiangshangyidong" unicode="&#58889;" d="M874.77 560.64L543.743 881.903a47.548 47.548 0 0 1-15.838 10.24A35.977 35.977 0 0 1 512.068 896c-5.256 0-10.547-1.263-15.803-2.56-5.291-2.56-10.582-5.12-14.507-8.977L149.402 560.64c-8.227-7.987-12.869-18.773-12.869-30.071 0-11.264 4.642-22.119 12.869-30.106a44.715 44.715 0 0 1 61.986 0l257.16 249.617v-835.823c0-23.04 19.798-42.257 43.52-42.257 23.757 0 43.52 19.217 43.52 42.257V750.046l255.864-248.32a44.715 44.715 0 0 1 61.986 0c18.466 15.36 18.466 42.257 1.331 58.88z"  horiz-adv-x="1024" />

    
    <glyph glyph-name="xiangxiayidong" unicode="&#58892;" d="M874.77 207.36l-331.026-321.263c-3.96-3.857-9.216-7.68-15.838-10.24-5.29-2.56-10.581-3.857-15.838-3.857-5.256 0-10.547 1.263-15.803 2.56-5.291 2.56-10.582 5.12-14.507 8.977L149.402 207.36a41.882 41.882 0 0 0-12.869 30.071c0 11.264 4.642 22.119 12.869 30.072a44.715 44.715 0 0 0 61.986 0l257.16-249.583V853.743c0 23.04 19.798 42.257 43.52 42.257 23.757 0 43.52-19.217 43.52-42.257V17.92l255.864 248.32a44.715 44.715 0 0 0 61.986 0c18.466-15.36 18.466-42.257 1.331-58.88z"  horiz-adv-x="1024" />

    
    <glyph glyph-name="huidaodingbu" unicode="&#58981;" d="M480.969697 647.757576a31.030303 31.030303 0 0 0 62.060606 0v-744.727273a31.030303 31.030303 0 0 0-62.060606 0V647.757576zM490.061576 700.726303a31.030303 31.030303 0 0 0 43.876848-43.876848l-307.2-307.2a31.030303 31.030303 0 0 0-43.876848 43.907878l307.2 307.2zM500.239515 657.687273a31.030303 31.030303 0 1 0 45.459394 42.201212l295.718788-318.215758a31.030303 31.030303 0 0 0-45.459394-42.232242l-295.718788 318.215757zM201.69697 833.939394a31.030303 31.030303 0 1 0 0 62.060606h620.60606a31.030303 31.030303 0 0 0 0-62.060606H201.69697z"  horiz-adv-x="1024" />

    
    <glyph glyph-name="jiqun" unicode="&#58883;" d="M0.00017 334.282a33.767 33.767 0 0 0 33.754 33.767h357.452a33.767 33.767 0 0 0 33.78-33.767v-66.636a33.767 33.767 0 0 0-33.753-33.753H31.16617A33.754 33.754 0 0 0 0.00017 267.646z m315.907-11.251v-44.95h44.95v45.822zM0.00017 155.134a33.767 33.767 0 0 0 33.754 33.754h357.452a33.767 33.767 0 0 0 33.78-33.754v-66.663a33.767 33.767 0 0 0-33.753-33.754H31.16617A33.754 33.754 0 0 0 0.00017 88.471z m315.907-11.265v-44.95h44.95v44.95zM0.00017-24.9a33.74 33.74 0 0 0 33.754 33.754h357.452a33.74 33.74 0 0 0 33.78-33.754v-66.636a33.74 33.74 0 0 0-33.753-33.753H31.16617A33.754 33.754 0 0 0 0.00017-91.536z m315.907-11.251v-44.95h44.95v44.95zM785.87117 334.282a33.781 33.781 0 0 0 33.754 33.767h360.054a33.74 33.74 0 0 0 33.754-33.767v-66.636a33.74 33.74 0 0 0-33.754-33.753H820.49717a33.767 33.767 0 0 0-33.754 33.753z m315.92-11.251v-44.95h44.951v45.822z m-315.92-168.769a33.781 33.781 0 0 0 33.754 33.754h360.054a33.74 33.74 0 0 0 33.754-33.754v-66.636a33.74 33.74 0 0 0-33.754-33.767H820.49717a33.767 33.767 0 0 0-33.754 33.767z m315.92-11.306v-44.95h44.951v44.95z m-315.92-168.714a33.781 33.781 0 0 0 33.754 33.754h360.054a33.74 33.74 0 0 0 33.754-33.754v-66.65a33.74 33.74 0 0 0-33.754-33.753H820.49717a33.767 33.767 0 0 0-33.754 33.754z m315.92-11.251v-44.95h44.951v44.95zM392.11917 862.246A33.74 33.74 0 0 0 425.83117 896h360.04a33.74 33.74 0 0 0 33.754-33.754v-66.635a33.713 33.713 0 0 0-33.754-33.754h-360.04a33.74 33.74 0 0 0-33.753 33.754z m315.866-11.251v-44.95h44.95v44.95zM392.07817 682.226a33.754 33.754 0 0 0 33.753 33.754h360.04a33.74 33.74 0 0 0 33.754-33.754v-66.608a33.74 33.74 0 0 0-33.754-33.754h-360.04a33.74 33.74 0 0 0-33.753 33.754z m315.906-11.251v-44.95h44.95v45.808z m-315.906-167.91a33.754 33.754 0 0 0 33.753 33.753h360.04a33.74 33.74 0 0 0 33.754-33.754v-66.649a33.74 33.74 0 0 0-33.754-33.754h-360.04a33.754 33.754 0 0 0-33.753 33.754z m315.906-11.252v-44.95h44.95v44.95zM572.09817 346.405h44.95v-44.95h-44.95z m0-101.288h44.95v-44.951h-44.95z m0-101.275h44.95v-44.95h-44.95z m112.512 0h44.95v-44.95h-44.95z m-213.774 0h44.95v-44.95h-44.95z"  horiz-adv-x="1215" />

    
    <glyph glyph-name="caozuorizhi1" unicode="&#58918;" d="M475.306667 274.346667h72.96a36.693333 36.693333 0 0 1 0 72.96h-72.96a36.693333 36.693333 0 0 1 0-72.96z m0-146.346667h72.96a36.693333 36.693333 0 1 1 0 72.96h-72.96a36.693333 36.693333 0 1 1 0-72.96z m402.346666 658.346667h-146.346666v36.693333a36.693333 36.693333 0 1 1-72.96 0v-36.693333H365.653333v36.693333a36.693333 36.693333 0 0 1-72.96 0v-36.693333H146.346667A146.773333 146.773333 0 0 1 0 640v-584.96a146.773333 146.773333 0 0 1 146.346667-146.346667h731.306666A146.773333 146.773333 0 0 1 1024 55.04V640a146.773333 146.773333 0 0 1-146.346667 146.346667z m72.96-731.306667a73.386667 73.386667 0 0 0-72.96-72.96H146.346667a73.386667 73.386667 0 0 0-72.96 72.96V493.653333h877.653333z m0 512H72.96V640a73.386667 73.386667 0 0 0 73.386667 72.96h146.346666v-36.693333a36.693333 36.693333 0 0 1 72.96 0v36.693333h292.693334v-36.693333a36.693333 36.693333 0 1 1 72.96 0v36.693333h146.346666A73.386667 73.386667 0 0 0 951.04 640zM256 128h72.96a36.693333 36.693333 0 1 1 0 72.96H256A36.693333 36.693333 0 1 1 256 128z m439.04 146.346667H768a36.693333 36.693333 0 1 1 0 72.96h-72.96a36.693333 36.693333 0 0 1 0-72.96zM256 274.346667h72.96a36.693333 36.693333 0 0 1 0 72.96H256a36.693333 36.693333 0 0 1 0-72.96zM695.04 128H768a36.693333 36.693333 0 1 1 0 72.96h-72.96a36.693333 36.693333 0 1 1 0-72.96z m0 0"  horiz-adv-x="1024" />

    
    <glyph glyph-name="yonghuguanli" unicode="&#59046;" d="M810.585126 406.291911l14.034489-5.262222c28.897659-11.776948 54.788741-27.788326 77.426726-48.434252 4.551111-4.492326 7.087407-10.66477 6.431289-15.794252l-1.109334-3.607704c-8.881304-25.849363-5.594074-54.326044 9.04723-77.654281 14.478222-24.888889 36.057126-40.651852 63.696593-46.1312 8.348444-2.809363 13.645748-8.754252 13.494044-15.646341 3.84-16.810667 5.884207-35.977481 5.884207-53.911703 0-17.036326-1.901037-34.285037-6.030222-54.48723-2.082133-6.381037-6.601956-11.671704-13.788918-15.184593-28.129659-7.378489-51.03123-23.775763-63.256652-46.020266-12.125867-20.825126-15.707022-43.474489-11.378726-67.386786l2.337185-10.325333c2.793244-8.178726 0.017067-17.176652-5.674667-19.654163-25.853156-21.803615-56.238459-39.342459-91.936237-53.761896-6.131674-1.940859-11.250726-1.052444-15.960177 2.287881l-3.465482 2.959171c-20.916148 20.483793-46.331259 32.013274-72.305778 32.013274-28.195081 0-54.622815-11.301926-72.484029-32.177304a20.679111 20.679111 0 0 0-8.6016-4.660148l-4.975882-0.703526h-3.856118l-1.514193 1.539793-0.407704-1.176652a262.385778 262.385778 0 0 0-68.110222 34.673778l-12.291792 9.268148-11.778845 10.007703c-4.548267 4.491378-7.093096 10.704593-6.431289 15.814163l1.115971 3.582104c8.890785 25.865481 5.601659 54.365867-9.052919 77.700741-14.47917 24.89363-36.056178 40.658489-63.60557 46.106548-8.341807 2.660504-13.731081 8.734341-13.590756 15.672889a251.739022 251.739022 0 0 0-5.873778 53.911704c0 17.021156 1.903881 34.280296 6.016 54.346903 2.045156 6.430341 6.570667 11.776 13.80883 15.331556 28.120178 7.322548 51.016059 23.71603 63.250015 46.017422 12.121126 20.773926 15.705126 43.452681 11.38157 67.342222l-2.335289 10.311111c-2.794193 8.157867-0.034133 17.128296 5.671823 19.718637 25.900563 21.792237 56.331378 39.332978 91.844266 53.62726 7.636385 2.543881 13.689363 0.559407 19.522371-5.133274 20.882015-20.54637 46.293333-32.094815 72.29914-32.094815 28.178015 0 54.609541 11.337956 72.31526 32.113778 4.521719 4.408889 10.708385 6.851319 16.244622 6.070992l3.994548-1.209837zM468.566281 896c142.938074 0 255.342933-114.019556 255.342934-258.910815 0-141.1072-106.706489-253.463704-245.365571-258.761007-198.690133-0.182044-365.093926-154.251378-391.333925-354.087822l-1.634608-14.350223-0.009481-74.88474 392.972326-0.047408 6.023585-6.024533v-50.591289l-6.023585-6.023585H39.703704l-5.944889 5.050785-0.130845 0.802133C26.20397-76.450133 23.703704-55.220148 23.703704-25.575348c0 195.534696 118.601007 367.963022 292.699022 435.928178l16.789807 6.17434-10.676148 6.99923c-60.501333 42.130963-100.002133 109.19443-107.851852 185.401837l-1.099852 14.392889-0.341333 13.768059C213.223348 781.997511 325.597867 896 468.565333 896z m166.766934-548.201244l-9.542163-3.931971a189.667556 189.667556 0 0 1-35.400059-20.846933l-8.12563-6.483437 1.415585-7.384178c3.079585-22.598163-0.367881-46.244978-9.791526-68.980622l-5.207229-11.282015c-15.101156-24.699259-37.23283-43.823407-63.021512-53.858607l-6.098488-2.035674-1.179497-8.0896a242.543881 242.543881 0 0 1-1.144415-11.595852l-0.582162-11.577837c0-5.840593 0.334696-11.14643 1.176651-18.386489l1.729423-12.873956 6.072888-2.08877c22.618074-8.789333 42.399289-24.553244 57.191349-45.141334l6.027377-9.111703c11.199526-21.82163 16.722489-45.313896 15.818904-68.368119l-0.991763-11.480178-1.415585-7.169896 8.245096-6.252089a239.096415 239.096415 0 0 1 35.588741-20.984415l9.293748-4.146251 5.034667 4.205037a129.340681 129.340681 0 0 0 67.058726 26.593659l10.544355 0.574578c28.408415 0 54.789689-9.401837 77.349926-26.974815l5.298252-4.458193 10.002963 4.141511c12.873956 5.852919 24.751407 12.818963 35.412385 20.815645l7.651556 6.244504-1.365334 7.379437c-3.083378 22.596267 0.367881 46.292385 9.78963 69.006222l5.205333 11.264c15.087881 24.677452 37.248948 43.817719 63.025304 53.861452l6.049185 2.089718 0.63526 4.153837c1.344474 9.567763 2.019556 16.0256 2.236681 22.321304l0.079644 4.736948-0.314785 9.404682c-0.110933 1.610904-0.252207 3.280593-0.430459 5.060266l-2.146607 16.846697-6.073837 2.038518c-22.588681 8.789333-42.376533 24.541867-57.043437 44.86637l-5.963852 8.982756c-14.24877 23.239111-19.334637 52.510341-14.984534 80.894104l1.242074 6.699614-8.093392 6.106075a240.521481 240.521481 0 0 1-35.600119 20.963555l-9.37434 4.191763-5.248-4.461037c-19.828622-15.372326-42.474193-24.487822-66.863408-26.525393l-10.555733-0.438044a129.088474 129.088474 0 0 0-77.528178 27.164444l-5.089659 4.320712z m83.067259-92.105008c63.336296-0.3328 114.62163-51.550815 115.040711-114.901333a114.46803 114.46803 0 0 0-33.575822-81.489541 114.460444 114.460444 0 0 0-81.530311-33.464889c-63.318281 0.360296-114.574222 51.570726-114.994252 114.90323a114.462341 114.462341 0 0 0 104.931556 114.557155l10.128118 0.395378z m-0.031289-55.367111c-33.249659 0-60.766815-27.421393-60.766815-60.525037 0-33.158637 27.480178-60.568652 60.766815-60.568652 33.251556 0 60.762074 27.42803 60.762074 60.568652 0 33.119763-27.485867 60.525037-60.762074 60.525037zM468.566281 833.355852c-106.379378 0-193.471526-88.310519-193.471525-196.266667 0-108.003556 87.095941-196.358637 193.471525-196.358637 106.376533 0 193.472474 88.35603 193.472475 196.357689 0 107.924859-87.110163 196.266667-193.472475 196.266667z"  horiz-adv-x="1024" />

    
    <glyph glyph-name="wenhao" unicode="&#58884;" d="M512.128 218.624c-19.296 0-38.496-7.936-52.16-21.568s-21.6-32.8-21.6-52.064 7.936-38.464 21.6-52.064c13.632-13.632 32.832-21.568 52.16-21.568s38.496 7.936 52.16 21.568c13.632 13.632 21.6 32.8 21.6 52.064s-7.936 38.464-21.6 52.064c-13.632 13.632-32.832 21.568-52.16 21.568z m-0.768 464.064c-49.728 0-89.92-15.232-120.544-45.632-30.624-30.464-48.48-72.416-49.472-111.072s80.64-30.624 83.648-11.552c3.2 20.224 16.576 52.896 32.16 67.68s35.008 22.208 58.176 22.208c24.064 0 43.2-7.104 57.376-21.312s21.312-31.296 21.312-51.2c0-14.368-4.032-27.52-12-39.456-5.184-7.552-21.12-23.488-47.68-47.84s-44.352-46.272-53.184-65.728-13.312-44.288-13.312-74.496c0-2.88 0.096-11.072 0.32-24.448h82.784c-0.448 28.224 1.696 47.84 6.336 58.784 4.64 10.976 16.576 25.472 35.776 43.456 37.12 34.784 61.376 62.336 72.736 82.496 11.328 20.192 16.96 41.664 16.96 64.288 0 40.896-15.424 76.768-46.4 107.584s-72.576 46.24-124.928 46.24zM512 896C229.792 896 0 666.336 0 383.968S229.728-128 512-128c282.304 0 512 229.6 512 511.968S794.368 896 512 896z m-0.32-958.912c-246.848 0-447.584 200.768-447.584 447.456 0 246.848 200.768 447.552 447.584 447.552s447.648-200.672 447.648-447.552c0.032-246.72-200.8-447.456-447.648-447.456z"  horiz-adv-x="1024" />

    
    <glyph glyph-name="shouye" unicode="&#59025;" d="M774.606711-22.399193H617.81936c-18.295229 0-35.172574 9.383327-46.305227 25.743188-8.377261 12.309407-13.180007 28.194232-13.180007 43.58325V201.950819c0 23.219895-21.468762 44.36715-45.044483 44.36715-23.574818 0-45.042677-21.147255-45.042677-44.36715v-155.02538c0-15.387211-4.804552-31.272036-13.18091-43.581444-11.133556-16.359862-28.009998-25.743188-46.303421-25.743188H241.523577c-18.295229 0-35.171671 9.383327-46.303421 25.743188-8.376358 12.309407-13.180007 28.194232-13.180006 43.581444V377.652934c0 1.108118-0.077668 2.124118-0.196879 3.024519h-76.205436c-13.910624 0-31.429177 8.715927-37.997506 25.37201-4.843386 12.282314-5.500851 31.645924 18.87322 54.133396l1.146049 0.999744c41.916106 34.665928 118.02491 97.312051 191.625773 157.897275 70.905979 58.365376 144.206107 118.700437 183.8545 151.485184 13.34347 12.621884 31.732623 19.835034 50.683511 19.835034 18.570678 0 36.138903-7.03614 49.629579-19.843162 42.008223-34.734565 118.340999-97.570341 192.174865-158.347024 74.628604-61.434148 145.120056-119.459954 183.291862-151.026404l0.755001-0.646627c17.406568-15.465781 23.568496-35.730696 16.481782-54.204742-5.88377-15.343861-20.036428-25.651974-35.215923-25.651974h-73.166467c-1.389888 0-2.377892-0.144498-2.979364-0.285383-0.127339-0.566251-0.255581-1.473878-0.255581-2.739137v-330.728398c0-16.580221-7.965442-33.975951-21.855294-47.728531-13.859146-13.728195-31.384925-21.597907-48.077131-21.597907z m-155.636787 55.959487h155.564538c4.403571 0.43259 13.205294 9.05911 13.757998 13.475324V377.652934c0 34.730049 24.46077 58.985813 59.483427 58.985813h32.80281c-40.086402 33.080065-99.029769 81.60243-160.806196 132.454822-74.34864 61.200242-151.227797 124.483059-193.102361 159.112862l-0.938332 0.777579-0.869697 0.854344c-3.143731 3.097672-6.757079 4.603158-11.040535 4.603158-4.514654 0-9.265019-1.80532-12.102595-4.599546l-0.86789-0.855246-0.941945-0.776676c-39.501186-32.668246-113.352212-93.455766-184.768449-152.242895-61.896541-50.949928-125.561374-103.356576-169.141914-139.325693h43.260839c28.409173 0 49.029011-24.807565 49.02901-58.985813v-330.726592c0-6.137545 2.654244-11.558922 4.386412-13.365144h164.937027c1.732168 1.80532 4.385509 7.229406 4.385509 13.365144V201.950819c0 25.76396 11.007121 51.440318 30.197333 70.447199 19.175763 18.988819 45.088736 29.880341 71.09473 29.880341s51.918064-10.891523 71.093827-29.880341c19.192019-19.006881 30.198236-44.683239 30.198236-70.447199v-155.02538c0.001806-6.137545 2.656954-11.558922 4.388218-13.365145z"  horiz-adv-x="1024" />

    
    <glyph glyph-name="zhucemagongju" unicode="&#58900;" d="M990.72 811.52H33.28a32 32 0 0 1-32-32v-791.04a32 32 0 0 1 32-32h957.44a32 32 0 0 1 32 32V779.52a32 32 0 0 1-32 32z m-32-64v-102.592H65.28V747.52h893.44zM65.28 20.48V580.992h893.44v-560.384H65.28zM104 666.88a33.216 33.216 0 0 1 35.2 6.4c5.76 6.4 9.6 14.72 9.6 23.04 0 8.32-3.84 16.64-9.6 22.4a33.664 33.664 0 0 1-35.2 7.04 32 32 0 0 1-19.2-29.44c0-8.32 3.2-16.64 8.96-23.04 3.2-2.56 6.4-5.12 10.24-6.4zM187.84 666.88a32 32 0 0 1 34.56 6.4c5.76 6.4 9.6 14.72 9.6 23.04 0 3.84-1.28 8.32-2.56 12.16-1.92 3.84-3.84 7.68-7.04 10.24-11.52 12.16-33.28 12.16-45.44 0-2.56-2.56-5.12-6.4-7.04-10.24-1.28-3.84-1.92-8.32-1.92-12.16 0-8.32 3.2-16.64 8.96-23.04 3.2-2.56 7.04-5.12 10.88-6.4zM283.2 664.32a32 32 0 0 1 22.4 8.96c6.4 6.4 9.6 14.72 9.6 23.04 0 8.32-3.2 16.64-9.6 22.4a32.896 32.896 0 0 1-45.44 0c-5.76-5.76-8.96-14.08-8.96-22.4 0-8.32 3.2-16.64 8.96-23.04 6.4-5.76 14.72-8.96 23.04-8.96zM262.272 520.064c-52.096 0-94.464-42.368-94.464-94.464s42.368-94.4 94.464-94.4c52.032 0 94.4 42.368 94.4 94.4s-42.368 94.464-94.4 94.464z m0-124.864a30.464 30.464 0 1 0 0 60.928 30.464 30.464 0 0 0 0-60.928zM761.728 520.064c-52.032 0-94.4-42.368-94.4-94.464s42.368-94.4 94.4-94.4c52.096 0 94.464 42.368 94.464 94.4s-42.368 94.464-94.464 94.464z m0-124.864a30.464 30.464 0 1 0 0.128 60.928 30.464 30.464 0 0 0-0.128-60.928zM512 270.336c-52.032 0-94.464-42.368-94.464-94.464S459.968 81.408 512 81.408s94.464 42.432 94.464 94.464S564.032 270.336 512 270.336z m0-124.928a30.464 30.464 0 1 0 0.064 60.992 30.464 30.464 0 0 0-0.064-60.992zM491.2 456.064h9.6v-92.864a32 32 0 1 1 64 0V488.064a32 32 0 0 1-32 32h-41.6a32 32 0 1 1 0-64zM283.072 270.336h-41.6a32 32 0 1 1 0-64h9.6v-92.928a32 32 0 1 1 64 0v124.928a32 32 0 0 1-32 32zM782.592 270.336h-41.6a32 32 0 1 1 0-64h9.6v-92.928a32 32 0 1 1 64 0v124.928a32 32 0 0 1-32 32z"  horiz-adv-x="1024" />

    
    <glyph glyph-name="daxiaoxie" unicode="&#59056;" d="M543.522262 811.799398L122.773479 405.527536h213.552253v-434.237038h423.714787V405.562846h211.433678L543.522262 811.799398z m287.137388-875.783156a35.309566 35.309566 0 0 0-35.309566-35.309565h-494.333918a35.309566 35.309566 0 0 0-35.309566 35.309565V334.943714H35.346995a35.309566 35.309566 0 0 0-24.540149 60.732453L518.805566 886.020104a35.309566 35.309566 0 0 0 48.83313 0.211858l516.649563-490.414557a35.309566 35.309566 0 0 0-24.32829-60.909h-229.300319v-398.927472z"  horiz-adv-x="1095" />

    
    <glyph glyph-name="shen" unicode="&#59218;" d="M513 12.1c-87.3 0-299.9 167.1-299.9 313.6V630.4c37 4.2 97.3 14.3 160.3 39.7 64 25.9 113.2 54.4 139.6 70.9 26.4-16.9 75.1-45 139.6-70.9 62.9-25.4 123.3-35.5 160.3-39.7v-304.6c-0.1-146.5-213.2-313.7-299.9-313.7z m375.4 313.6V702.3l-37 0.5c-1.1 0-84.1 1.6-170.3 36.5-88.3 35.5-145.4 76.7-146 77.2 0 0-15.3 16.4-22.8 16.4-6.9 0-22.2-16.4-22.2-16.4-0.5-0.5-57.7-41.2-146-77.2-86.2-34.9-169.2-36.5-170.3-36.5l-37.5-0.5v-376.6c0-189.3 244.3-389.3 375.5-389.3 132.3 0 376.6 200 376.6 389.3zM632.4 290.8v40.7h-94.6v-40.7h94.6z m0 126.9h-94.6V376h94.6v41.7zM393.9 290.8H487v40.7h-93.1v-40.7z m0 126.9V376H487v41.8c0-0.1-93.1-0.1-93.1-0.1z m0-172.9v-25.4h-49.7V464.3H487V504h50.8v-39.7h144.3V221h-49.7v23.8h-94.5V149H487v95.8h-93.1z m324.8 230.1H669V523H350.1v-50.8h-49.7V569h180.3c-3.7 9.5-8.5 19.1-12.7 27.5l53.9 9c3.7-10.6 8-22.8 11.6-36.5h184.6v-94.1h0.6z"  horiz-adv-x="1024" />

    
    <glyph glyph-name="huikuan" unicode="&#59475;" d="M71.554543 341.129696l56.472063-417.861135c11.287045-45.166599 33.877507-56.462853 56.462853-11.287044l135.523332 203.28244-248.458248 225.865739z m880.888867 90.348547L850.806795 849.340401C839.511564 894.505976 816.919055 894.505976 794.335756 860.627445L692.699141 657.345005l259.744269-225.866762z m0 0M48.96408 386.305504c0-255.729848 207.305049-463.03592 463.03592-463.035919 255.728824 0 463.034896 207.306072 463.034896 463.035919 0 255.729848-207.306072 463.034896-463.034896 463.034897-255.730871 0-463.03592-207.306072-463.03592-463.034897z m0 0M342.596091 329.833441v-67.757061h135.526402v-101.637638h56.460806v101.637638h135.524356v67.757061H534.583299v45.174785h135.524356v67.768318h-101.635592l101.635592 101.637638-45.174785 56.46797-124.229125-124.228101-112.931846 124.227078-45.175808-56.46797 101.644801-101.637638h-101.644801v-67.768318h135.526402v-45.174785h-135.526402z m0 0"  horiz-adv-x="1024" />

    
    <glyph glyph-name="guanli" unicode="&#58888;" d="M317.301 503.876H706.7v-99.42H317.3v99.42z m0 165.701H706.7v-99.42H317.3v99.42z m0-331.402h222.661v-99.42h-222.66v99.42z m691.802-158.418c-33.92 56.529-33.372 57.598-33.372 57.598s-117.093-32.834-138.9 79.404h-67.837s-18.708-112.412-138.344-79.13c-34.59-57.648-35.766-59.454-35.8-59.488 0.05-0.033 93.646-65.427 0-154.234l36.347-59.76s103.397 44.607 137.267-77.25h68.641s21.533 111.981 137.814 78.874c33.107 56.52 33.645 57.067 33.645 57.067s-87.788 75.676 0.539 156.92z m-207.665-157.06c-43.695 0-79.139 35.427-79.139 79.14s35.435 79.146 79.139 79.146c43.704 0 79.147-35.435 79.147-79.147s-35.443-79.139-79.147-79.139zM246.555-14.17c-36.653 0-66.363 29.71-66.363 66.363V715.808c0 36.653 29.71 66.363 66.363 66.363h530.89c36.66 0 66.363-29.71 66.363-66.363v-352.52h82.444V798.251c0 45.759-37.092 82.85-82.85 82.85H180.598c-45.758 0-82.85-37.091-82.85-82.85v-828.504c0-45.75 37.092-82.85 82.85-82.85H561.71v98.931H246.555z"  horiz-adv-x="1024" />

    
    <glyph glyph-name="ducha" unicode="&#58988;" d="M543.477434 177.877436H380.882769v-19.063143h-46.170003v233.407269h320.818756l-0.185982-0.325468h1.53435v-50.773056a219.644609 219.644609 0 0 0 105.079767 26.59541c37.103387 0 72.067981-9.159608 102.754993-25.340032-0.836918 29.850093-5.486466 58.444808-14.320605 98.430914l-3.161693 14.320605-3.161692 14.599579c-6.88133 33.011785-10.229004 58.723781-10.229003 87.179009 0 56.120035 12.367796 112.612033 36.684927 169.243518l-12.786255 14.227615-10.043022 11.158913c-70.022181-23.061754-124.700856-34.732118-165.52388-34.732118-40.218583 0-113.913906 15.250515-179.472521 36.638432-67.092966-22.317827-131.628681-36.638432-170.545391-36.638432-40.823024 0-95.501699 11.670363-165.52388 34.778613l-10.043022-11.158913-12.786255-14.320605c24.317132-56.584989 36.638432-113.076988 36.638432-169.197023 0-28.455229-3.301179-54.120729-10.182509-87.179009-0.929909-4.463565-1.906314-9.066617-3.161692-14.599579l-3.161692-14.320605c-13.204714-59.839672-17.063838-94.06034-12.739759-145.344845 8.369185-99.732787 83.738345-199.00062 161.339287-219.7376 65.093661-21.480908 140.230343-60.304627 198.861134-104.149858a864.07185 864.07185 0 0 0 70.859099 47.611364 219.598114 219.598114 0 0 0-38.730728 158.689045z m111.775115-223.875697c-35.941-19.760576-77.461456-47.239399-106.428135-71.277558a46.402481 46.402481 0 0 0-39.753629-9.624563 46.355985 46.355985 0 0 0-35.987495 10.275499c-51.609974 42.82233-127.258107 83.412877-187.144274 103.266443-114.750825 30.547525-215.878476 163.803548-227.455849 301.011685-5.253988 62.350428-0.464955 105.033271 14.646074 173.242129l3.115196 14.181119 2.929215 13.623173c5.672448 27.339337 8.229699 47.099913 8.229698 68.208857 0 50.680064-13.251209 102.754993-40.311574 156.59675a46.495472 46.495472 0 0 0 6.974321 51.888946l33.244263 37.056892 30.501029 34.08118A46.495472 46.495472 0 0 0 167.933508 849.365042c75.276169-26.502419 130.745267-39.567647 164.129016-39.567647 28.54822 0 89.596774 14.041633 151.854211 35.42955a46.495472 46.495472 0 0 0 18.644684 3.859124 46.495472 46.495472 0 0 0 18.644684-3.812629c59.467709-20.365017 130.233817-35.476045 160.920829-35.476045 33.47674 0 88.899342 13.018732 164.175511 39.567647a46.495472 46.495472 0 0 0 50.122119-12.832751l30.501029-34.08118 33.244263-37.056892a46.495472 46.495472 0 0 0 6.974321-51.888946c-27.060365-53.888252-40.311574-105.916685-40.311575-156.59675 0-21.108944 2.557251-40.916015 8.229699-68.208857l2.929215-13.623173 3.161692-14.181119c15.064533-68.208857 19.853567-110.891701 14.599578-173.242129a46.262995 46.262995 0 0 0-7.718248-22.038853 220.528023 220.528023 0 0 0-292.781987-311.612653z m-45.937526 352.435677v24.503114-24.549609z m-47.704354-66.813993H380.882769v-25.57251h170.824364c2.789728 8.741149 6.137402 17.296316 9.950031 25.57251z m18.970152 33.151271c6.416375 9.206103 13.530182 17.947252 21.248431 26.08396H380.882769v-26.08396h199.744548zM356.751619 623.722516h43.705744v-21.573898h82.808435v-36.173478H400.457363v-23.573204h99.407319v-39.149187H407.989629v-101.96457h-44.170698V503.252749H274.873093v39.149187h81.832031v81.367076z m24.084655-292.22404h228.478749v24.6426H380.836274v-24.6426z m78.85632 160.68835c13.018732-21.108944 24.084654-44.170698 33.151272-68.813298l-34.174172-15.064533a539.812429 539.812429 0 0 1-35.150577 72.346954l36.173477 11.530877z m63.745292 62.257437h-20.086044V595.639251h191.840317v-38.684232a219.179655 219.179655 0 0 0-54.260215-87.876442 455.19067 455.19067 0 0 1 77.83342-34.639127l-20.597494-38.637737c-36.126982 12.553777-66.767498 27.571815-91.363603 44.635653a344.066492 344.066492 0 0 0-83.831336-41.659943l-20.597494 39.660638c27.10686 8.555167 50.680064 18.598189 70.766109 30.687011a202.534276 202.534276 0 0 0-49.70366 85.319191z m82.343481-60.258131c18.598189 18.086739 32.639821 38.126287 41.706438 60.258131h-81.367076c5.579457-22.085349 18.598189-42.171393 39.660638-60.258131z m-294.223346-1.999306l39.660637-8.043716c-11.530877-35.150577-27.10686-65.791093-47.192904-91.875053l-34.127676 21.573899c19.063143 24.13115 33.151271 50.21511 41.659943 78.34487z m581.79784-346.809725c0-0.464955 0-0.883414 0.464954-1.348368v-0.464955c0-0.418459-0.464955-0.418459-0.464954-0.418459-23.991664-49.331696-74.253269-82.715445-125.816747-82.715445-51.145019 0-101.825083 32.918794-125.863243 82.76194 0 0.418459 0 0.418459-0.464955 0.41846v2.231782c0 0.464955 0 0.464955 0.464955 0.464955 24.038159 48.866741 73.834809 82.25049 125.863243 82.25049 52.028433 0 101.825083-33.383749 125.816747-83.1804z m-125.816747-53.376801c29.757102 0 54.260216 23.154745 54.260215 52.493387s-24.038159 52.493388-54.260215 52.493388c-29.385138 0-54.260216-23.154745-54.260216-52.493388s23.991664-52.493388 54.260216-52.493387z m157.619649 48.029822c0.418459 0.883414 0.418459 2.650242 0.41846 3.533656 0.929909 1.766828 0.929909 3.115197 0.929909 5.346979s-0.464955 3.533656-0.464955 3.533656c0 0.929909-0.464955 2.696737-0.929909 3.580152 0 0.464955-0.464955 0.464955-0.464955 0.464954-0.418459 0.464955-0.418459 0.883414-0.418459 0.883414-29.338643 63.55931-94.246322 105.823694-160.502369 105.823694-66.256047 0-131.210222-42.682843-160.548865-105.823694-0.464955-1.348369-0.464955-1.348369-0.929909-2.231782 0-0.464955-0.418459-0.464955-0.418459-0.464955-0.464955-1.766828-0.464955-2.650242-0.464955-2.650242-0.418459-0.929909-0.418459-3.580151-0.418459-3.580151v-2.185288s0.464955-2.231783 0.464954-2.696737c0-0.883414 0.464955-1.301873 0.464955-2.231783 0.418459-1.301873 0.418459-1.301873 0.418459-2.185287 0.464955-0.464955 0.464955-0.929909 0.464955-0.929909 30.222057-63.55931 94.711276-105.823694 160.502369-105.823694 66.256047 0 131.163726 42.264384 160.548865 104.94028 0.464955 1.348369 0.883414 1.813323 0.883414 2.231782 0 0.464955 0.464955 0.464955 0.464954 0.464955z"  horiz-adv-x="1024" />

    
    <glyph glyph-name="jiaoyijilu" unicode="&#58977;" d="M837.095619 155.940571l40.374857-40.374857a34.133333 34.133333 0 1 0-48.274286-48.274285l-40.374857 40.374857a153.6 153.6 0 1 0 48.274286 48.274285zM866.206476 871.424c43.154286 0 65.438476-4.291048 88.600381-16.676571 21.455238-11.50781 38.521905-28.574476 50.029714-50.029715 12.385524-23.161905 16.725333-45.446095 16.725334-88.600381v-640.341333c0-43.203048-4.33981-65.438476-16.725334-88.649143-11.459048-21.455238-28.525714-38.521905-50.029714-50.029714-23.161905-12.385524-45.446095-16.676571-88.600381-16.676572H203.776c-43.203048 0-65.438476 4.291048-88.649143 16.676572a120.734476 120.734476 0 0 0-50.029714 50.029714c-12.385524 23.210667-16.676571 45.446095-16.676572 88.649143V716.068571c0 43.154286 4.291048 65.438476 16.676572 88.600381 11.50781 21.455238 28.574476 38.521905 50.029714 50.029715 23.210667 12.385524 45.446095 16.676571 88.649143 16.676571h637.318095c1.26781 0 2.486857-0.048762 3.705905-0.195048l21.406476 0.195048z m-105.813333-73.142857H203.776c-32.182857 0-43.008-2.096762-54.125714-8.045714a47.640381 47.640381 0 0 1-20.041143-19.992381c-5.948952-11.166476-8.045714-22.040381-8.045714-54.125715v-640.341333c0-32.182857 2.096762-43.008 8.045714-54.125714a47.640381 47.640381 0 0 1 19.992381-20.041143c11.166476-5.948952 22.040381-8.045714 54.125714-8.045714h662.479238c32.134095 0 43.008 2.096762 54.125714 8.045714a47.640381 47.640381 0 0 1 19.992381 19.992381c5.997714 11.166476 8.094476 22.040381 8.094477 54.125714V716.166095c0 32.085333-2.096762 42.959238-8.094477 54.125715a47.640381 47.640381 0 0 1-19.992381 19.99238c-11.117714 5.948952-21.991619 8.045714-53.833142 8.045715l-97.962667-0.828953a36.668952 36.668952 0 0 0-8.143238 0.828953zM280.380952 700.952381h512a36.571429 36.571429 0 1 0 0-73.142857H280.380952a36.571429 36.571429 0 0 0 0 73.142857z m0-195.047619h512a36.571429 36.571429 0 1 0 0-73.142857H280.380952a36.571429 36.571429 0 0 0 0 73.142857z m0-195.047619h170.666667a36.571429 36.571429 0 1 0 0-73.142857h-170.666667a36.571429 36.571429 0 1 0 0 73.142857z m426.666667-163.352381a90.209524 90.209524 0 1 1 0 180.419048 90.209524 90.209524 0 0 1 0-180.419048z"  horiz-adv-x="1024" />

    
    <glyph glyph-name="shebei" unicode="&#58895;" d="M984.177778 896H39.822222C17.066667 896 0 878.933333 0 856.177778v-233.244445c0-22.755556 17.066667-39.822222 39.822222-39.822222h944.355556c22.755556 0 39.822222 17.066667 39.822222 39.822222V856.177778c0 22.755556-17.066667 39.822222-39.822222 39.822222z m-39.822222-233.244444H79.644444V816.355556h864.711112v-153.6zM711.111111 696.888889h159.288889c22.755556 0 39.822222 17.066667 39.822222 39.822222s-17.066667 39.822222-39.822222 39.822222h-159.288889c-22.755556 0-39.822222-17.066667-39.822222-39.822222s22.755556-39.822222 39.822222-39.822222z m273.066667-153.6H39.822222c-22.755556 0-39.822222-17.066667-39.822222-39.822222v-238.933334c0-22.755556 17.066667-39.822222 39.822222-39.822222h944.355556c22.755556 0 39.822222 17.066667 39.822222 39.822222V503.466667c0 17.066667-17.066667 39.822222-39.822222 39.822222z m-39.822222-238.933333H79.644444V463.644444h864.711112v-159.288888zM711.111111 344.177778h159.288889c22.755556 0 39.822222 17.066667 39.822222 39.822222s-17.066667 39.822222-39.822222 39.822222h-159.288889c-22.755556 0-39.822222-17.066667-39.822222-39.822222s17.066667-39.822222 39.822222-39.822222z m273.066667-159.288889H39.822222c-22.755556 0-39.822222-17.066667-39.822222-39.822222v-233.244445c0-22.755556 17.066667-39.822222 39.822222-39.822222h944.355556c22.755556 0 39.822222 17.066667 39.822222 39.822222v233.244445c0 22.755556-17.066667 39.822222-39.822222 39.822222z m-39.822222-233.244445H79.644444v153.6h864.711112v-153.6zM711.111111-8.533333h159.288889c22.755556 0 39.822222 17.066667 39.822222 39.822222s-17.066667 39.822222-39.822222 39.822222h-159.288889c-22.755556 0-39.822222-17.066667-39.822222-39.822222s17.066667-39.822222 39.822222-39.822222z"  horiz-adv-x="1024" />

    
    <glyph glyph-name="diedaopingfen" unicode="&#58979;" d="M1043.814728 773.628764l-185.972242-279.054125C843.669524 469.229297 830.709564 447.84217 830.709564 447.84217l-255.368681-319.21085-285.438342-211.700636a63.84217 63.84217 0 1 0-79.611186 99.849154l228.554969 182.333237a458.131413 458.131413 0 0 0-7.980272 3.894373l-0.31921-0.57458-3.894373 2.617529A4413.409219 4413.409219 0 0 1 319.972203 256.31566l6.894954 7.788745-261.433686-71.694757c-29.303556-6.894954-58.032533 13.853751-64.225223 46.413257-6.19269 32.495665 12.513065 64.41675 41.816621 71.311704l272.797593 72.716232 2.426002-0.57458L319.972203 384l12.002328-4.852005c20.812547-4.979689 48.456207-12.321539 78.972764-20.621021l107.38253 119.895596-187.376769 187.376769a63.84217 63.84217 0 1 0 90.272829 90.33667l182.269395-182.333237 1.787581 2.042949c25.536868-1.213001 95.699413-0.510737 163.755166 0L932.027088 832.874298c16.343596 25.792237 54.648898 33.453297 85.484665 17.109702 30.89961-16.343596 42.64657-50.562999 26.302975-76.355236zM703.025224 639.36868a127.68434 127.68434 0 1 0 0 255.368681 127.68434 127.68434 0 0 0 0-255.368681z"  horiz-adv-x="1086" />

    
    <glyph glyph-name="guanbi" unicode="&#58917;" d="M578.72 372.96L930.56 724.8c17.76 17.76 17.76 47.04 0 64.8l-1.92 1.92c-17.76 17.76-47.04 17.76-64.8 0L512 439.2 160.16 791.52c-17.76 17.76-47.04 17.76-64.8 0l-1.92-1.92c-18.24-17.76-18.24-47.04 0-64.8l351.84-351.84L93.44 21.12c-17.76-17.76-17.76-47.04 0-64.8l1.92-1.92c17.76-17.76 47.04-17.76 64.8 0L512 306.24 863.84-45.6c17.76-17.76 47.04-17.76 64.8 0l1.92 1.92c17.76 17.76 17.76 47.04 0 64.8L578.72 372.96z"  horiz-adv-x="1024" />

    
    <glyph glyph-name="zhifubaozhifu" unicode="&#58976;" d="M146.0914 896h729.77a146.09 146.09 0 0 0 146.091-146.432v-731.136A146.09 146.09 0 0 0 875.8624-128H146.0904A146.09 146.09 0 0 0 0.0014 18.432V749.568A146.09 146.09 0 0 0 146.0904 896zM678.2304 293.205v2.39h2.048a502.443 502.443 0 0 1 82.261 209.578h-13.653v3.072H564.2244v70.656h243.371v36.864h-243.37V737.621H443.7334v-121.856H187.0504v-36.864h256.683v-73.045H235.8624v-36.523h402.09a741.717 741.717 0 0 0-61.44-143.36h4.779-7.168l2.39 4.096-190.123 61.099a409.6 409.6 0 0 1-177.835-6.144C128.0004 359.083 54.9554 308.907 65.5364 190.123S197.9744 26.965 281.6004 26.965a420.181 420.181 0 0 1 319.488 166.23l13.995 17.066 23.21-11.264c249.515-121.856 383.318-170.666 383.318-170.666V182.955zM286.0384 92.843c-100.352-15.36-176.47 64.17-180.907 92.842A134.485 134.485 0 0 0 226.6464 322.22c50.517 7.509 129.706-1.707 298.666-75.435v-2.048h-2.048a382.293 382.293 0 0 0-237.226-151.893zM2632.3634-48.81l-15.019 49.834h-91.477l-17.75-49.835h-42.666l92.843 247.808h25.941l98.304-247.808z m-52.907 174.762h-9.216l-34.133-100.01h75.093z m-289.792-77.824h-55.978v-96.939h-41.302V192.512h97.28a72.363 72.363 0 0 0 0-144.384z m-2.73 112.299h-53.248v-81.238h53.248a40.619 40.619 0 1 1 0 81.238z m-315.051 35.84h41.984v-238.934h-41.984zM1809.0674-43.35h-143.36V201.045h38.912V-15.36h104.448z m-335.872-5.462l-15.019 49.835h-92.842l-17.75-49.835h-41.301l93.184 247.808h25.941l98.304-247.808z m-52.907 174.763h-9.216l-34.133-100.01h75.093z m1552.043 67.243l-70.997-125.952v-109.91h-44.374V68.95l-74.752 124.246h37.547l55.979-97.622 56.32 97.622zM1631.2324 430.08l7.168 5.803c122.198 104.448 157.355 162.474 174.422 238.933h-17.408v3.413h-164.182v64.854h214.358v42.325h-214.358V872.789h-112.298v-87.381h-217.088v-42.325h217.088v-64.854h-179.542v-42.666h361.814a426.325 426.325 0 0 0-127.318-164.864 571.733 571.733 0 0 0-124.928 132.437h-87.381a571.05 571.05 0 0 1 158.379-170.667 802.816 802.816 0 0 0-218.112-95.573v-49.835a1018.539 1018.539 0 0 1 276.48 106.838 916.821 916.821 0 0 1 273.066-106.838 467.627 467.627 0 0 0 0 49.835 732.16 732.16 0 0 0-220.16 93.184z m797.696 431.787h-94.89v-98.987h-246.784v-41.984h246.784V363.52a22.528 22.528 0 0 0-24.918-24.917h-49.834l2.389-39.936h141.995a41.984 41.984 0 0 1 24.917 37.546V720.896h37.547V762.88h-37.547zM2211.8404 655.701h-87.381l62.464-187.392h87.381l-62.464 187.392z m-236.885 209.92c-19.456-48.469-99.67-249.856-99.67-249.856h82.262v-312.32h84.65V698.027h-42.666l75.093 167.253z m664.917-84.309h303.446v-60.757h102.4V788.82s3.413 29.696-24.918 29.696h-170.666v58.71h-114.688v-59.734h-202.07v-96.938h106.496zM3072.0004 315.733l-49.834 120.15h-99.67l34.134-82.262h-116.395V513.024h206.848v40.277h-206.848v82.262h206.848v39.936h-513.365v-39.936h209.237V553.3h-209.237v-40.277h209.237v-159.403h-209.237v-37.546h438.613v-0.342h99.67z"  horiz-adv-x="3072" />

    
    <glyph glyph-name="guanlizhongxin" unicode="&#58973;" d="M972.8-25.6a51.2 51.2 0 0 0 0-102.4H51.2a51.2 51.2 0 0 0 0 102.4h921.6zM680.2432 522.9568h102.4v-204.8h-102.4v204.8z m-230.4 0h102.4v-204.8h-102.4v204.8z m-230.4 153.6h102.4v-358.4h-102.4v358.4zM921.6 896H102.4a102.4 102.4 0 0 1-102.4-102.4v-563.2a102.4 102.4 0 0 1 102.4-102.4h819.2a102.4 102.4 0 0 1 102.4 102.4V793.6a102.4 102.4 0 0 1-102.4 102.4z m0-665.6H102.4V793.6h819.2v-563.2z"  horiz-adv-x="1024" />

    
    <glyph glyph-name="guanlirengenzong" unicode="&#59126;" d="M806.527765 266.050303m-51.129418 0a51.129418 51.129418 0 1 1 102.258837 0 51.129418 51.129418 0 1 1-102.258837 0ZM263.674388-46.191767H140.787475c-35.790593 0-61.531611 25.564709-61.531611 61.531611v117.773971c0 20.451767-15.338826 40.903535-35.790593 40.903534S2.561737 158.678524 2.561737 133.113815v-117.773971a137.661552 137.661552 0 0 1 138.225738-138.225739H268.787329c15.338826 0 35.790593 20.451767 35.790593 40.903535s-20.451767 35.790593-40.903534 35.790593zM38.35233 604.03339c20.451767 0 35.790593 15.338826 35.790593 40.903534V757.597953c0 35.790593 25.564709 61.531611 61.53161 61.531611h127.999855c20.451767 5.112942 40.903535 20.451767 40.903534 40.903535S284.126155 895.823692 263.674388 895.823692H140.787475A137.661552 137.661552 0 0 1 2.561737 757.597953v-117.77397a34.944313 34.944313 0 0 1 35.790593-35.790593zM980.544096 174.017349c-20.451767 0-40.903535-15.338826-40.903534-40.903534v-117.773971c0-35.790593-25.564709-61.531611-61.531611-61.531611h-112.661029c-20.451767 0-40.903535-15.338826-40.903535-40.903535 0-20.451767 15.338826-40.903535 40.903535-40.903534h112.661029a137.661552 137.661552 0 0 1 138.225738 138.225738v117.773971c5.28925 30.501343-15.338826 46.016477-35.790593 46.016476zM878.108951 896h-112.661029c-20.451767 0-40.903535-15.338826-40.903535-40.903535s15.338826-35.790593 40.903535-35.790593h112.661029c35.790593 0 61.531611-25.564709 61.531611-61.53161v-117.773971c0-20.451767 15.338826-40.903535 40.903534-40.903535 20.451767 0 40.903535 15.338826 40.903535 40.903535V757.774262C1016.510998 834.468389 954.979387 896 878.108951 896zM161.239242 153.389274v-112.661029c0-20.451767 15.338826-40.903535 40.903535-40.903535h619.547505c20.451767 0 40.903535 15.338826 40.903535 40.903535v112.661029c0 20.451767-15.338826 40.903535-40.903535 40.903534-20.451767 0-40.903535-15.338826-40.903534-40.903534v-71.757495H238.109678v71.757495c0 127.999855 92.209262 240.660884 215.096175 266.225592 15.338826 5.112942 30.677651 20.451767 30.677651 35.790593s-5.112942 30.677651-20.451768 35.790593c-35.790593 20.451767-61.531611 56.24236-61.53161 97.322204 0 61.531611 51.129418 107.548087 107.548087 107.548087s107.548087-46.016477 107.548087-107.548087c0-40.903535-25.564709-76.870436-61.53161-97.322204l-5.112942-5.112942-5.112942-5.112941a5.007157 5.007157 0 0 0-5.112942-5.112942 5.007157 5.007157 0 0 0-5.112942-5.112942v-30.677651l5.112942-5.112942 5.112942-5.112942a5.007157 5.007157 0 0 0 5.112942-5.112942 5.007157 5.007157 0 0 0 5.112942-5.112942c56.24236-10.225884 107.548087-40.903535 148.451622-87.096319 5.112942-5.112942 15.338826-10.225884 25.564709-15.338826a39.052297 39.052297 0 0 1 25.564709 10.225884c5.112942 5.112942 10.225884 15.338826 15.338826 25.564709a39.052297 39.052297 0 0 1-10.225884 25.564709c-35.790593 35.790593-71.757494 66.644552-117.773971 87.09632 25.564709 30.677651 40.903535 71.757494 40.903535 117.773971a184.418523 184.418523 0 0 1-368.837047 0c0-40.903535 15.338826-81.983378 40.903535-117.773971C243.22262 419.791175 161.239242 291.79132 161.239242 153.389274z"  horiz-adv-x="1024" />

    
    <glyph glyph-name="chanpinguanli" unicode="&#59215;" d="M82.176 586.24c-28.672 0-49.152-20.48-49.152-48.64v-403.2c0-31.232 25.856-67.072 59.648-84.224l284.928-149.504 0.768-0.256c11.776-5.632 23.296-8.448 34.304-8.448 28.672 0 49.152 20.48 49.152 48.64v402.944c0 31.232-25.6 67.072-59.648 84.224L117.248 577.536l-0.768 0.512a82.944 82.944 0 0 1-34.304 8.192z m11.008-60.928c5.632 0 12.032-1.536 18.688-4.864l264.192-138.752c23.296-11.52 38.912-36.096 38.912-51.712v-372.48c0-9.984-6.144-15.616-16.384-15.616a42.2912 42.2912 0 0 0-18.688 4.864l-263.68 138.752c-23.296 11.52-38.912 36.096-38.912 51.712V509.44c-0.256 9.728 5.888 15.872 15.872 15.872zM488.448 896c-22.528 0-44.8-4.608-61.696-13.312L104.448 718.848c-22.016-11.264-34.816-29.184-34.816-48.384 0.256-19.2 12.8-36.608 34.56-47.36L422.912 466.176c15.872-7.936 36.864-12.032 58.112-12.032 22.528 0 44.8 4.608 61.696 13.312l322.304 163.584c22.016 11.264 34.816 29.184 34.816 48.384-0.256 19.2-12.8 36.608-34.56 47.36L546.816 883.968C530.944 891.648 510.208 896 488.448 896z m-4.096-45.312c15.36 0 30.464-3.072 41.216-8.192l295.424-145.664c4.608-2.304 15.616-8.448 15.616-17.664 0-6.4-5.888-13.312-16.128-18.432L521.728 508.928c-11.52-5.888-27.648-9.216-44.032-9.216-15.36 0-30.464 3.072-41.216 8.192l-295.424 145.408c-4.608 2.304-15.616 8.448-15.616 17.664 0 6.4 5.888 13.312 16.128 18.432L440.32 840.96c11.264 6.144 27.392 9.728 44.032 9.728z m308.48-835.584a70.3488 70.3488 0 1 0-0.0512 140.6976 70.3488 70.3488 0 0 0 0.0512-140.6976z m0 107.264a36.864 36.864 0 1 1 0-73.728 36.864 36.864 0 0 1 0 73.728zM808.192-124.16h-39.424a53.248 53.248 0 0 0-44.544 23.808 19.6608 19.6608 0 0 1-19.968 8.192 53.4528 53.4528 0 0 0-48.128 14.592l-27.904 27.904a53.4528 53.4528 0 0 0-14.592 48.128 19.2 19.2 0 0 1-8.192 19.968c-14.336 9.728-23.808 26.112-23.808 44.544v39.424c0 18.688 9.472 35.072 23.808 44.544a19.6608 19.6608 0 0 1 8.192 19.968 53.0944 53.0944 0 0 0 14.848 48.384l27.904 27.904a54.3744 54.3744 0 0 0 48.128 14.592c7.68-1.536 15.616 1.792 19.968 8.192 9.728 14.336 26.112 23.808 44.544 23.808h39.424c18.688 0 35.072-9.472 44.544-23.808 4.352-6.4 12.288-9.728 19.968-8.192a53.4528 53.4528 0 0 0 48.128-14.592l27.904-27.904a53.4528 53.4528 0 0 0 14.592-48.128c-1.536-7.68 1.792-15.616 8.192-19.968 14.336-9.728 23.808-26.112 23.808-44.544v-39.424c0-18.688-9.472-35.072-23.808-44.544a19.6608 19.6608 0 0 1-8.192-19.968 53.4528 53.4528 0 0 0-14.592-48.128l-27.648-27.904a53.4528 53.4528 0 0 0-48.128-14.592 19.2 19.2 0 0 1-19.968-8.192c-10.24-14.592-26.624-24.064-45.056-24.064zM709.888-25.6a19.968 19.968 0 0 0 22.528 3.84l4.096-2.048c4.096-2.048 8.704-3.84 13.056-5.376l4.352-1.536c7.936-2.816 13.312-10.24 13.312-18.688v-1.536a21.1968 21.1968 0 1 1 42.496 0v1.536c0 8.448 5.376 15.872 13.312 18.688l4.352 1.536c4.352 1.536 8.704 3.328 13.056 5.376l4.096 2.048a19.456 19.456 0 0 0 22.528-3.84l15.104-15.104c0.256-0.256 0.512-0.512 1.28-0.512 0.512 0 0.768 0.256 1.28 0.512l27.904 27.904c0.256 0.256 0.512 0.512 0.512 1.28 0 0.512 0 0.768-0.512 1.28l-15.104 15.104a19.968 19.968 0 0 0-3.84 22.528l2.048 4.096c2.048 4.352 3.84 8.704 5.376 13.056l1.536 4.352c2.816 7.936 10.24 13.312 18.688 13.312h1.536a21.1968 21.1968 0 1 1 0 42.496h-1.536a19.8656 19.8656 0 0 0-18.688 13.312l-1.536 4.352a116.5312 116.5312 0 0 1-5.376 13.056l-2.048 4.096a19.456 19.456 0 0 0 3.84 22.528l15.104 15.104c0.256 0.256 0.512 0.512 0.512 1.024s0 0.768-0.512 1.28l-27.904 27.904c-0.256 0.256-0.512 0.512-1.28 0.512-0.512 0-0.768 0-1.28-0.512l-15.104-15.104a19.968 19.968 0 0 0-22.528-3.84l-4.096 2.048a140.4416 140.4416 0 0 1-13.056 5.376l-4.352 1.536a19.6096 19.6096 0 0 0-13.312 18.688v1.536a21.1968 21.1968 0 1 1-42.496 0v-1.536c0-8.448-5.376-15.872-13.312-18.688l-4.352-1.536c-4.352-1.536-8.96-3.328-13.056-5.376l-4.096-2.048a19.456 19.456 0 0 0-22.528 3.84l-15.104 15.104c-0.256 0.256-0.512 0.512-1.024 0.512s-0.768 0-1.28-0.512l-27.904-27.904c-0.256-0.256-0.512-0.512-0.512-1.024s0-0.768 0.512-1.28l15.104-15.104a19.968 19.968 0 0 0 3.84-22.528l-2.048-4.096c-2.048-4.096-3.84-8.448-5.376-13.056l-1.536-4.352a19.8656 19.8656 0 0 0-18.688-13.312h-1.536a21.1968 21.1968 0 1 1 0-42.496h1.536c8.448 0 15.872-5.376 18.688-13.312l1.536-4.352c1.536-4.352 3.328-8.704 5.376-13.056l2.048-4.096a19.0464 19.0464 0 0 0-3.84-22.528l-15.104-15.104c-0.256-0.256-0.512-0.512-0.512-1.28 0-0.512 0-0.768 0.512-1.28l27.904-27.904c0.256-0.256 0.512-0.512 1.28-0.512 0.512 0 0.768 0 1.28 0.512l14.848 15.104zM932.608 203.776s0.256 0 0 0V534.784c0 28.16-20.48 48.64-49.152 48.64-10.752 0-22.272-2.816-34.304-8.448l-0.768-0.256-284.928-149.504c-34.048-16.896-59.648-52.992-59.648-84.224v-403.2c0-28.16 20.48-48.64 49.152-48.64 11.008 0 22.528 2.816 34.304 8.192l0.768 0.512 77.312 40.704-24.576 46.592h-0.256l-57.856-30.464a42.2912 42.2912 0 0 0-18.688-4.864c-9.984 0-16.128 5.888-16.128 15.616v372.736c0 15.616 15.36 40.192 38.912 51.712l263.68 138.752a42.2912 42.2912 0 0 0 18.688 4.864c10.24 0 16.384-5.632 16.384-15.616v-289.792l47.104-24.32z"  horiz-adv-x="1024" />

    
    </font>
</defs>
</svg>
